osu file format v7

[General]
AudioFilename: Nightcore - Superstar.mp3
AudioLeadIn: 1500
PreviewTime: 39051
Countdown: 1
SampleSet: Soft
StackLeniency: 0.4
Mode: 0
LetterboxInBreaks: 1

[Editor]
DistanceSpacing: 1.20000004768372
BeatDivisor: 4
GridSize: 8

[Metadata]
Title:Superstar
Artist:Nightcore
Creator:osuplayer111
Version:Hard
Source:
Tags:Techno xxheroxx

[Difficulty]
HPDrainRate:6
CircleSize:4
OverallDifficulty:7
SliderMultiplier:1.4
SliderTickRate:1

[Events]
//Background and Video events
0,0,"BG.jpg"
//Break Periods
2,61290,68454
2,116386,126334
//Storyboard Layer 0 (Background)
//Storyboard Layer 1 (Fail)
//Storyboard Layer 2 (Pass)
//Storyboard Layer 3 (Foreground)
//Storyboard Sound Samples
//Background Colour Transformations
3,100,163,162,255

[TimingPoints]
484,344.35261707989,4,2,1,50,1,0
3066,-100,4,2,1,65,0,0
4960,-100,4,2,1,80,0,0
5649,-100,4,2,1,100,0,0
5993,-100,4,1,1,80,0,0
16238,-100,4,1,1,50,0,0
16410,-100,4,1,1,66,0,0
16582,-100,4,1,1,50,0,0
16754,-100,4,1,1,66,0,0
16926,-100,4,2,1,100,0,0
39051,-100,4,2,1,100,0,1
49382,-100,4,2,1,100,0,0
50070,-100,4,2,1,100,0,1
60401,-100,4,2,1,100,0,0
85797,-200,4,2,1,100,0,0
86744,-100,4,2,1,100,0,0
94147,-100,4,2,1,100,0,1
104478,-100,4,2,1,100,0,0
105167,-100,4,2,1,100,0,1
115497,-100,4,2,1,100,0,0
127234,344.35261707989,4,2,1,50,1,0
127406,-100,4,2,1,10,0,0
137392,-100,4,2,1,75,0,0
138253,-100,4,2,1,100,0,1
148583,-100,4,2,1,100,0,0
149272,-100,4,1,1,100,0,1
153576,-100,4,2,1,100,0,1
160291,-100,4,2,1,0,0,0

[Colours]
Combo1 : 128,255,128
Combo2 : 255,255,128

[HitObjects]
32,192,484,1,0
88,128,656,1,0
144,192,828,1,0
200,128,1000,1,0
256,192,1172,1,0
312,128,1344,1,0
368,192,1517,1,0
424,128,1689,1,0
480,192,1861,1,0
368,312,2205,5,2
256,192,2550,1,0
144,312,2894,1,0
184,152,3238,2,0,B|184:64,1,70
328,152,3583,2,0,B|328:72,1,70,0|0
256,192,3927,1,0
184,232,4099,2,0,B|185:314,1,70,0|2
328,232,4444,2,0,B|328:304,1,70
256,192,4788,5,0
200,128,4960,1,0
176,48,5132,1,0
256,24,5304,1,0
336,48,5477,1,0
312,128,5649,1,2
256,192,5821,1,0
256,272,5993,5,2
168,128,6337,1,2
344,128,6682,1,2
408,272,7026,2,0,B|320:272,1,70,8|0
256,272,7371,2,0,B|200:200|272:128,1,140,0|8
384,32,8059,5,2
480,168,8404,2,0,B|480:208|480:248,1,70,10|0
416,296,8748,2,0,B|349:366|288:288,1,140,2|10
160,192,9437,2,0,B|227:122|288:200,1,140,2|8
344,80,10039,2,0,B|384:48,1,35
456,40,10298,2,0,B|456:120,1,70,0|8
456,192,10642,1,0
408,264,10814,6,0,B|336:312|272:256,1,140,2|10
128,192,11503,1,2
280,112,11847,2,0,B|352:64|416:120,1,140,10|2
456,192,12364,1,0
456,192,12536,1,8
456,192,12708,1,0
392,248,12880,6,0,B|344:216|296:272|248:240,1,140,2|10
112,328,13569,1,2
56,264,13741,1,0
112,200,13913,1,8
192,200,14085,1,0
256,144,14258,6,0,B|288:96|232:48|264:0,1,140,2|10
424,48,14946,1,0
488,104,15118,1,0
424,160,15291,1,8
488,216,15463,1,0
320,360,15635,5,0
256,304,15807,1,0
192,360,15979,1,8
256,304,16152,1,0
192,192,16324,5,2
256,136,16496,1,2
320,192,16668,1,2
256,136,16840,1,2
256,56,17012,5,2
88,56,17357,1,8
424,56,17701,1,2
320,192,18045,1,8
256,248,18218,1,0
192,192,18390,1,0
464,256,18734,6,0,B|504:192|456:112,1,140,8|2
408,56,19251,1,0
328,24,19423,1,8
256,72,19595,1,0
184,24,19767,2,0,B|104:24,1,70,2|0
96,104,20112,2,0,B|32:104|32:232,1,140,8|2
104,256,20628,1,0
48,320,20800,1,8
128,336,20972,1,0
128,336,21145,2,0,B|200:360|272:336,1,140,0|8
344,192,21833,6,0,B|448:192,2,70,2|0|2
344,192,22522,2,0,B|184:192,1,140,2|8
56,272,23211,1,0
32,192,23383,1,0
56,112,23555,1,8
120,192,23727,1,0
120,192,23899,2,0,B|264:192,1,140,0|10
384,80,24588,5,2
456,40,24760,1,0
456,128,24933,1,8
456,128,25105,2,0,B|456:200,1,70
328,312,25621,2,0,B|184:312,1,140,8|2
104,312,26138,1,0
104,312,26310,1,8
104,312,26482,1,0
40,192,26654,6,0,B|40:120,1,70
256,120,26999,2,0,B|256:208,1,70,8|0
472,184,27343,2,0,B|472:96,1,70,2|2
256,192,27687,2,0,B|256:112,1,70,10|2
256,40,28032,5,4
256,40,28376,1,8
256,40,28720,2,0,B|176:40|136:120,1,140,0|8
168,192,29237,1,0
136,272,29409,2,0,B|176:336|272:328,1,140,0|8
344,328,29926,1,0
416,288,30098,5,2
480,232,30270,1,0
480,152,30442,1,8
416,96,30614,1,0
328,96,30787,2,0,B|176:96,1,140,2|8
288,232,31475,2,0,B|200:232,1,70
152,176,31820,1,8
72,144,31992,1,0
24,216,32164,1,0
72,144,32336,5,0
72,144,32508,2,0,B|120:304,1,140,8|2
152,352,33025,1,0
152,352,33197,2,0,B|227:307|293:355,1,140,2|2
448,320,33886,2,0,B|403:245|451:179,1,140,8|0
472,112,34402,1,0
416,48,34574,2,0,B|360:8|320:96|256:24,1,140,8|0
120,80,35263,1,8
144,160,35435,6,0,B|96:224,1,70,2|0
120,296,35780,1,0
200,264,35952,2,0,B|248:200,1,70,8|0
232,128,36296,1,2
392,192,36641,5,8
304,336,36985,1,2
160,256,37329,1,8
232,104,37674,1,2
392,192,38018,1,0
304,336,38362,1,2
280,256,38534,1,0
256,176,38707,1,0
256,176,38793,1,0
256,176,38879,1,0
256,176,38965,1,0
256,176,39051,5,4
96,120,39395,1,8
256,56,39740,2,0,B|408:56,1,140,0|8
480,56,40256,1,0
480,56,40428,1,0
400,232,40773,6,0,B|368:296|296:336,1,140,8|2
112,152,41461,2,0,B|144:88|216:48,1,140,8|2
256,192,42150,1,8
256,192,42322,1,0
256,192,42495,1,0
192,248,42839,1,8
256,192,43011,1,0
320,136,43183,1,0
24,328,43528,5,10
72,256,43700,1,0
24,192,43872,1,0
72,120,44044,1,0
24,48,44216,1,8
24,192,44388,5,0
24,192,44561,1,2
488,56,44905,5,10
440,128,45077,1,0
488,192,45249,1,0
440,264,45421,1,0
488,336,45593,1,8
488,192,45765,5,0
488,192,45938,1,2
256,136,46282,6,0,B|256:64,1,70,10|0
200,192,46627,2,0,B|120:192,1,70
312,192,46971,2,0,B|384:192,1,70,8|0
256,248,47315,2,0,B|256:320,1,70,2|0
200,192,47660,1,10
256,136,47832,1,0
312,192,48004,1,0
256,352,48349,5,10
208,288,48521,1,0
256,224,48693,1,0
320,168,48865,1,0
256,112,49037,1,10
256,112,49382,1,2
192,64,49554,1,2
256,8,49726,1,2
320,64,49898,1,2
256,112,50070,6,0,B|256:256,1,140,4|8
184,296,50587,1,0
256,344,50759,1,0
328,296,50931,1,0
256,248,51103,1,8
256,160,51276,1,0
256,80,51448,2,0,B|304:112|344:56|400:88,2,140,0|10|0
96,40,52481,1,8
24,192,52825,1,0
144,312,53169,6,0,B|224:312,1,70,8|0
368,312,53514,2,0,B|288:312,1,70,2|0
256,88,53858,2,0,B|256:176,1,70,8|0
256,240,54203,1,0
120,32,54547,5,10
192,80,54719,1,0
256,32,54891,1,0
328,80,55063,1,0
400,32,55235,1,8
256,32,55407,5,0
256,32,55580,1,2
392,352,55924,5,10
320,304,56096,1,0
256,352,56268,1,0
184,304,56440,1,0
112,352,56612,1,8
256,352,56784,5,0
256,352,56957,1,2
256,248,57302,6,0,B|256:320,1,70,10|0
312,192,57647,2,0,B|392:192,1,70
200,192,57991,2,0,B|128:192,1,70,8|0
256,136,58335,2,0,B|256:64,1,70,2|0
312,192,58680,1,10
256,248,58852,1,0
200,192,59024,1,0
256,32,59369,5,10
304,96,59541,1,0
256,160,59713,1,0
192,216,59885,1,0
256,272,60057,1,10
256,32,60401,1,2
256,32,60487,1,0
256,32,60573,1,0
256,32,60659,1,0
256,32,60745,1,0
256,32,60831,1,0
256,32,60917,1,0
256,32,61003,1,0
256,32,61090,1,4
256,192,69354,12,4,72109
256,192,72453,5,8
144,320,72798,1,2
72,272,72970,1,0
40,192,73142,1,8
72,112,73314,1,0
144,64,73486,1,0
256,192,73831,1,8
416,152,74175,6,0,B|488:152,1,70,2|0
488,232,74519,2,0,B|408:232,1,70,8|0
344,192,74864,1,2
176,192,75208,1,8
256,48,75552,1,2
304,120,75725,1,0
256,192,75897,1,8
200,264,76069,1,0
256,336,76241,1,0
312,264,76413,1,0
256,192,76585,6,0,B|256:40,1,140,8|2
256,192,77274,2,0,B|256:336,1,140,2|2
256,48,77963,1,8
256,336,78307,1,2
160,232,78652,5,8
184,152,78824,2,0,B|256:152,1,70
336,152,79168,1,0
328,232,79340,2,0,B|224:232,1,70,8|0
208,296,79685,5,2
160,232,79857,1,0
184,152,80029,1,8
256,112,80201,1,0
256,112,80373,1,2
256,264,80718,1,8
256,112,81062,1,2
400,24,81406,5,8
400,24,81579,1,0
400,24,81751,1,0
368,192,82095,1,8
416,264,82267,1,0
464,192,82439,1,2
416,120,82612,1,2
464,192,82784,1,2
416,264,82956,1,2
464,192,83128,6,0,B|320:192,1,140,4|8
168,192,83817,1,2
128,264,83989,1,0
48,264,84161,1,8
8,192,84333,1,0
48,120,84506,1,0
128,120,84678,1,0
168,192,84850,1,8
256,32,85194,6,0,B|344:32,1,70,2|0
408,40,85539,2,0,B|472:104,1,70,8|0
424,176,85883,2,0,B|496:176,2,70,2|8|2
336,336,86916,1,8
256,320,87088,1,0
176,336,87260,1,0
256,192,87605,1,8
256,192,87777,1,0
256,192,87949,6,0,B|160:192,1,70,2|0
256,192,88293,2,0,B|352:192,1,70,2|0
408,192,88638,1,2
104,192,88982,1,8
256,64,89326,1,2
256,64,89499,2,0,B|256:8,2,35,0|0|8
256,144,89843,1,0
256,224,90015,1,0
256,304,90187,2,0,B|256:384,2,70,0|8|0
216,224,90704,5,2
304,224,90876,1,0
256,144,91048,1,8
256,64,91220,1,0
256,64,91393,1,2
256,64,91737,2,0,B|256:216,1,140,8|2
176,352,92426,5,8
256,352,92598,1,0
256,272,92770,1,0
336,272,92942,1,0
336,192,93114,1,8
256,192,93287,1,0
176,192,93459,1,0
176,112,93631,1,0
256,112,93803,1,8
336,112,93975,1,0
256,40,94147,5,4
256,352,94492,1,8
256,192,94836,1,0
88,192,95180,1,8
88,192,95353,1,0
56,272,95525,2,0,B|200:272,1,140,0|8
456,272,96214,2,0,B|312:272,1,140,0|8
256,192,96902,5,2
200,32,97247,1,8
256,96,97419,1,0
312,32,97591,1,2
200,360,97935,1,8
256,296,98107,1,0
312,360,98280,1,0
112,192,98624,5,10
184,232,98796,1,0
256,192,98968,1,0
328,232,99141,1,0
400,192,99313,1,8
256,192,99485,5,0
256,192,99657,1,2
400,192,100001,5,10
328,152,100174,1,0
256,192,100346,1,0
184,152,100518,1,0
112,192,100690,1,8
256,192,100862,5,0
256,192,101034,1,2
256,344,101379,6,0,B|256:272,1,70,8|0
256,32,101723,2,0,B|256:104,1,70,2|0
424,192,102068,2,0,B|344:192,1,70,8|0
256,192,102412,1,2
88,192,102756,6,0,B|8:192,2,70,8|0|2
424,192,103445,2,0,B|496:192,2,70,8|0|2
336,224,103961,1,0
256,192,104134,1,8
256,360,104478,1,2
256,280,104650,1,2
176,224,104822,1,2
96,192,104995,1,2
256,192,105167,5,4
256,24,105511,1,8
88,24,105855,1,0
96,192,106200,1,8
176,224,106372,1,0
256,192,106544,1,0
192,344,106888,6,0,B|256:280|320:352,1,140,8|2
320,40,107577,2,0,B|256:104|192:32,1,140,8|2
176,192,108266,1,8
256,192,108438,1,0
336,192,108610,1,0
256,192,108782,1,0
256,192,108955,2,0,B|256:48,1,140,8|2
256,48,109643,5,10
216,120,109815,1,0
256,192,109988,1,0
216,264,110160,1,0
256,336,110332,1,8
256,192,110504,5,0
256,192,110676,1,2
256,336,111021,5,10
296,264,111193,1,0
256,192,111365,1,0
295,115,111537,1,0
256,40,111709,1,8
256,192,111882,5,0
256,192,112054,1,2
256,40,112398,6,0,B|256:112,1,70,8|0
256,352,112742,2,0,B|256:280,1,70,2|0
88,192,113087,2,0,B|168:192,1,70,8|0
256,192,113431,1,2
424,192,113775,6,0,B|504:192,2,70,8|0|2
88,192,114464,2,0,B|16:192,2,70,8|0|2
176,160,114980,1,0
256,192,115153,1,8
256,344,115497,1,2
256,344,115583,1,0
256,344,115669,1,0
256,344,115756,1,0
256,344,115842,1,0
256,344,115928,1,0
256,344,116014,1,0
256,344,116100,1,0
256,344,116186,1,4
216,352,127234,5,4
104,232,127578,1,0
256,152,127922,1,0
408,224,128267,1,0
296,352,128611,1,0
256,152,128955,1,0
296,32,129300,5,0
408,152,129644,1,0
256,232,129988,1,0
104,160,130333,1,0
216,32,130677,1,0
256,232,131021,1,0
40,120,131366,6,0,B|40:264,1,140
474,258,132054,2,0,B|474:114,1,140
192,48,132743,2,0,B|256:0|336:56,1,140
320,336,133432,2,0,B|256:384|176:328,1,140
256,192,134121,5,0
128,104,134465,1,0
128,272,134809,1,0
384,272,135154,1,0
384,104,135498,1,0
256,192,135842,1,0
144,192,136187,6,0,B|-8:192,1,140
368,192,136875,2,0,B|520:192,1,140
256,360,137564,1,2
256,280,137736,1,2
256,192,137908,1,2
256,104,138081,1,2
256,24,138253,5,4
256,360,138597,1,8
256,192,138941,1,0
104,280,139286,2,0,B|24:280,2,70,8|0|0
256,192,139975,1,8
496,280,140319,1,2
256,192,140663,2,0,B|256:48,1,140,8|2
256,192,141352,1,8
256,192,141524,1,0
256,192,141696,2,0,B|256:344,2,140,2|8|0
136,192,142729,5,10
176,88,142902,1,0
256,16,143074,1,0
344,88,143246,1,0
384,192,143418,1,8
256,192,143590,5,0
256,192,143762,1,2
384,192,144107,5,10
344,296,144280,1,0
256,368,144452,1,0
176,296,144623,1,0
136,192,144796,1,8
256,192,144968,5,0
256,192,145140,1,2
136,192,145484,6,0,B|48:192,1,70,10|0
384,192,145829,2,0,B|472:192,1,70
256,368,146173,2,0,B|256:272,1,70,8|0
256,192,146517,1,2
200,112,146862,5,8
312,112,147034,1,0
256,16,147206,1,2
256,368,147550,1,8
200,272,147722,1,0
312,272,147895,1,2
256,368,148067,1,0
256,368,148239,1,8
480,192,148583,5,2
368,192,148756,1,2
256,192,148928,1,2
144,192,149100,1,2
32,192,149272,5,2
480,192,149616,1,2
256,192,149961,1,2
152,48,150305,1,8
256,88,150477,1,0
360,48,150649,1,0
256,304,150994,1,8
32,192,151338,5,2
480,192,151683,1,2
256,304,152027,1,2
256,72,152371,1,2
256,304,152716,1,2
336,352,153060,1,8
256,304,153232,1,0
176,352,153404,1,0
256,72,153749,5,10
360,112,153922,1,0
432,192,154094,1,0
360,280,154266,1,0
256,320,154438,1,8
256,192,154610,5,0
256,192,154782,1,2
256,320,155126,5,10
152,280,155299,1,0
80,192,155471,1,0
152,112,155643,1,0
256,72,155815,1,8
256,192,155987,5,0
256,192,156159,1,2
376,192,156503,6,0,B|464:192,1,70,10|0
128,192,156848,2,0,B|40:192,1,70
256,24,157192,2,0,B|256:104,1,70,8|0
256,192,157536,1,2
312,272,157881,5,8
200,272,158053,1,0
256,368,158225,1,2
256,16,158569,1,8
312,112,158741,1,0
200,112,158914,1,2
256,16,159086,1,0
256,16,159258,1,8
88,192,159602,5,2
200,192,159775,1,2
312,192,159947,1,2
424,192,160119,1,2
256,192,160291,12,0,163735
