osu file format v6

[General]
AudioFilename: Nightcore III - Solo Tu.mp3
AudioLeadIn: 0
PreviewTime: 56057
Countdown: 0
SampleSet: Soft
StackLeniency: 0.7
Mode: 0
LetterboxInBreaks: 1

[Editor]
Bookmarks: 16987,31559,43217,56331,67989
DistanceSpacing: 0.800000011920929
BeatDivisor: 4
GridSize: 8

[Metadata]
Title:Solo Tu (Only You)
Artist:Nightcore
Creator:osuplayer111
Version:Easy
Source:
Tags:Techno Trance

[Difficulty]
HPDrainRate:2
CircleSize:4
OverallDifficulty:2
SliderMultiplier:0.899999999999999
SliderTickRate:2

[Events]
//Background and Video events
0,0,"BG.jpg"
//Break Periods
2,28843,29998
//Storyboard Layer 0 (Background)
//Storyboard Layer 1 (Fail)
//Storyboard Layer 2 (Pass)
//Storyboard Layer 3 (Foreground)
//Storyboard Sound Samples
//Background Colour Transformations
3,100,163,162,255

[TimingPoints]
4600,364.298724954463,4,2,1,20,1,0
4782,-50,4,2,1,20,0,0
4964,-100,4,2,1,45,0,0
5191,-100,4,2,1,70,0,0
5328,-100,4,1,1,85,0,0
54691,-100,4,1,1,50,0,0
56330,-100,4,1,1,85,0,1
67987,-100,4,1,1,85,0,0

[Colours]
Combo1 : 0,0,160
Combo2 : 128,64,64
Combo3 : 128,128,128
Combo4 : 128,128,192
Combo5 : 64,0,128

[HitObjects]
424,192,4782,2,0,B|472:192,6,45,0|0|0|0|0|0|4
136,192,6057,1,0
256,32,6785,1,2
256,352,7514,1,8
256,352,7878,1,0
256,352,8242,6,0,B|304:272|256:176,1,180,2|0
368,80,9700,1,2
256,176,10428,1,8
256,176,10793,1,0
256,176,11157,1,2
152,80,11885,6,0,B|40:80|40:80|0:160,1,180,0|2
64,192,12978,1,2
136,192,13343,2,0,B|208:264|312:184,1,180,2|4
416,288,14800,1,8
280,336,15528,5,2
256,264,15893,1,0
232,192,16257,1,0
256,120,16621,1,2
288,48,16986,1,4
144,48,17714,5,8
88,184,18443,2,0,B|32:264,2,89.9999999999999,2|0|2
232,192,19900,1,0
256,336,20629,1,8
288,192,21357,1,2
256,48,22086,1,8
232,192,22814,5,2
120,104,23543,2,0,B|24:104,1,89.9999999999999,8|2
40,176,24272,2,0,B|40:272,1,89.9999999999999,0|8
40,336,25000,2,0,B|120:376|224:328,1,180,2|4
256,192,26457,1,8
256,48,27004,5,2
256,48,27186,1,0
328,48,27550,1,8
400,48,27915,1,2
472,48,28279,2,0,B|504:96|472:136,1,89.9999999999999,0|4
208,192,31558,5,4
256,248,31922,1,8
304,192,32286,1,0
256,136,32651,1,2
368,48,33379,2,0,B|416:24|464:56,1,89.9999999999999,8|0
480,120,34108,6,0,B|520:168|480:208,1,89.9999999999999,2|0
440,264,34836,1,8
376,296,35201,1,0
304,304,35565,1,2
160,304,36293,1,8
88,288,36658,1,0
24,248,37022,1,2
120,136,37751,5,8
120,136,38115,1,0
120,136,38479,1,2
256,192,39208,1,8
328,192,39572,1,0
328,120,39936,1,2
328,48,40301,6,0,B|424:48,2,89.9999999999999,8|0|2
256,48,41394,1,0
112,48,42122,2,0,B|16:48,2,89.9999999999999,8|0|2
184,48,43215,1,4
184,120,43579,6,0,B|184:216,2,89.9999999999999,8|0|2
320,160,45037,1,8
392,160,45401,1,0
464,160,45765,1,2
392,288,46494,5,8
344,344,46858,2,0,B|240:344,1,89.9999999999999,0|2
200,296,47587,2,0,B|104:296,1,89.9999999999999,0|8
40,296,48315,1,0
40,224,48680,1,2
96,88,49408,6,0,B|136:40|184:96,2,89.9999999999999,8|0|2
200,192,50865,1,8
256,240,51230,1,0
312,192,51594,1,2
256,56,52323,5,8
328,56,52687,2,0,B|432:56,1,89.9999999999999,0|2
440,128,53416,1,0
408,192,53780,1,8
368,256,54144,1,0
320,312,54508,1,2
272,256,54873,6,0,B|232:216|272:160,4,89.9999999999999,0|2|0|2|4
136,312,57059,1,8
56,192,57787,1,2
96,128,58151,2,0,B|152:48,1,89.9999999999999,0|8
256,144,59244,5,2
376,56,59973,1,8
424,192,60702,1,2
424,192,61066,1,0
424,192,61430,1,8
344,312,62159,6,0,B|256:360|160:312,1,180,2|8
256,200,63616,1,2
256,128,63980,1,0
256,56,64344,1,8
256,200,65073,1,4
112,200,65802,6,0,B|32:72,2,135,0|2|0
152,264,67259,1,2
152,264,67623,1,0
152,264,67987,1,4
