osu file format v6

[General]
AudioFilename: Nightcore III - Solo Tu.mp3
AudioLeadIn: 0
PreviewTime: 56057
Countdown: 0
SampleSet: Normal
StackLeniency: 0.3
Mode: 0
LetterboxInBreaks: 1

[Editor]
Bookmarks: 107059,120811,136476,138570
DistanceSpacing: 1
BeatDivisor: 4
GridSize: 16

[Metadata]
Title:Solo Tu (Only You)
Artist:Nightcore
Creator:osuplayer111
Version:Armin's Hard
Source:
Tags:Techno Trance Armin

[Difficulty]
HPDrainRate:8
CircleSize:4
OverallDifficulty:7
SliderMultiplier:1.8
SliderTickRate:2

[Events]
//Background and Video events
0,0,"BG.jpg"
//Break Periods
2,68187,75648
2,107532,112261
//Storyboard Layer 0 (Background)
//Storyboard Layer 1 (Fail)
//Storyboard Layer 2 (Pass)
//Storyboard Layer 3 (Foreground)
//Storyboard Sound Samples
//Background Colour Transformations
3,100,163,162,255

[TimingPoints]
4600,364.298724954463,4,2,0,20,1,0
4964,-100,4,2,0,45,0,0
5191,-100,4,2,0,70,0,0
5328,-100,4,1,0,85,0,0
25365,-100,4,1,0,85,0,0
28643,-100,4,1,0,50,0,0
31558,-100,4,1,0,87,0,0
54417,-200,4,1,0,87,0,0
54873,-100,4,1,0,50,0,0
56330,-100,4,1,0,85,0,1
64709,-100,4,1,0,85,0,1
66439,-100,4,1,0,50,0,1
67987,-100,4,1,0,85,0,0
79645,-100,4,1,0,50,0,0
82559,-100,4,1,0,86,0,0
89026,-200,4,1,0,86,0,0
89481,-100,4,1,0,86,0,0
91120,-100,4,1,0,86,0,0
93853,-100,4,1,0,86,0,0
95674,-100,4,1,0,86,0,0
96676,-100,4,1,0,86,0,0
97131,-100,4,1,0,86,0,0
101048,-100,4,1,0,86,0,0
101503,-100,4,1,0,86,0,0
102505,-100,4,1,0,86,0,0
102960,-100,4,1,0,86,0,0
115164,-100,4,1,0,86,0,0
115711,-100,4,1,0,86,0,0
119171,-100,4,1,0,50,0,0
133379,-100,4,1,0,85,0,0
133743,-100,4,1,0,50,0,0
134199,-100,4,1,0,85,0,0
134472,-100,4,1,0,50,0,0
134927,-100,4,1,0,86,0,0
135110,-100,4,1,0,50,0,0
135656,-100,4,1,0,86,0,0
135929,-100,4,1,0,50,0,0
136385,-100,4,1,0,85,0,0
136476,-100,4,1,0,85,0,1
140483,-100,4,1,0,85,0,1
141940,-100,4,1,0,85,0,0
153142,-200,4,1,0,83,0,0
153598,-100,4,1,0,0,0,0
153689,-100,4,1,0,85,0,0
155146,-100,4,1,0,85,0,0
155601,-100,4,1,0,85,0,0
156967,-100,4,1,0,50,0,0
165802,-200,4,1,0,50,0,0
166166,-200,4,1,0,0,0,0
167623,-100,4,1,0,50,0,0
167987,-100,4,1,0,50,0,1
168079,-100,4,1,0,0,0,1
168261,-100,4,1,0,0,0,0

[Colours]
Combo1 : 208,185,51
Combo2 : 162,80,30
Combo3 : 157,61,171
Combo4 : 181,34,34
Combo5 : 58,128,47

[HitObjects]
96,208,4964,2,0,B|63:214|32:192,4,45,0|0|0|0|4
256,336,5692,1,8
256,336,5875,1,0
326,297,6057,2,0,B|308:252|254:232|205:249|181:303,1,180,0|8
96,320,6604,1,0
112,224,6785,2,0,B|174:137|295:156,1,180,0|8
368,176,7332,5,0
345,89,7514,1,0
256,71,7696,1,0
160,80,7878,2,0,B|128:80|112:48,2,45,8|0|0
206,157,8242,2,0,B|250:234|190:307|119:291,1,180,0|8
192,368,8789,5,0
272,336,8971,2,0,B|352:288|448:336,1,180,0|8
480,256,9518,1,0
400,224,9700,2,0,B|352:128|416:48,1,180,0|8
320,48,10246,1,0
288,128,10428,1,0
208,160,10610,1,0
128,128,10793,1,8
128,128,10884,1,0
128,128,10975,1,0
77,43,11157,6,0,B|-7:112|64:210,1,180,4|8
128,256,11703,1,0
192,320,11885,1,0
256,256,12068,1,0
320,320,12250,1,8
384,256,12432,1,0
453,202,12614,6,0,B|515:111|430:38,1,180,0|8
400,128,13161,1,0
400,128,13343,2,0,B|304:128,1,90
254,198,13707,1,8
192,133,13889,1,0
252,66,14071,1,4
256,208,14253,12,4,16986
256,192,17350,5,10
256,192,17532,1,0
181,239,17714,2,0,B|222:300|303:293|344:226,1,180,6|8
416,192,18261,1,0
416,288,18443,1,2
352,352,18625,1,0
256,368,18807,1,8
160,352,18989,1,0
96,288,19171,1,2
96,192,19354,1,0
176,240,19536,6,0,B|211:286|291:271,1,90,8|0
336,240,19900,2,0,B|298:286|221:271,1,90,6|0
256,192,20264,1,8
256,192,20446,2,0,B|256:80,1,90,0|2
432,96,20993,5,8
349,55,21175,2,0,B|312:122|368:194|447:190,1,180,2|0
464,288,21722,1,8
400,352,21904,1,0
336,288,22086,2,0,B|254:235|162:290,1,180,2|8
96,336,22632,5,0
48,256,22814,2,0,B|114:172|68:80,1,180,6|8
128,16,23361,1,0
192,80,23543,2,0,B|288:128|399:65,1,180,2|8
432,32,24089,1,0
496,96,24272,1,2
432,160,24454,1,0
496,224,24636,1,8
432,288,24818,1,0
368,224,25000,2,0,B|256:240|256:352,1,180,2|8
255,342,25547,6,0,B|253:239|140:221,1,180,4|0
64,256,26093,1,8
32,176,26275,1,0
112,144,26457,2,2,B|107:77|176:64,1,90
208,144,26822,1,8
256,64,27004,5,0
256,64,27186,1,2
304,144,27368,1,0
359,70,27550,2,0,B|404:88|401:147,1,90,8|0
353,219,27915,2,0,B|332:289|387:353|468:331,2,180,6|8|6
256,208,28825,12,0,31558
32,144,31740,5,0
32,144,31922,2,0,B|128:144,1,90,8|0
181,76,32286,1,0
240,144,32468,1,0
176,208,32651,2,0,B|144:288|256:336|352:288|320:208,1,270,8|0
411,218,33379,2,0,B|413:284|379:319,1,90,8|0
322,362,33743,2,0,B|273:386|226:373,1,90
148,346,34108,2,0,B|98:311|94:259,1,90,8|0
144,192,34472,6,0,B|55:148|91:53|178:43,1,180,4|8
368,192,35201,2,0,B|457:148|421:53|333:43,1,180,4|8
256,192,35929,5,0
176,240,36111,2,0,B|211:286|291:271,1,90,0|8
336,240,36475,2,0,B|298:286|221:271,1,90
256,192,36839,1,0
256,192,37021,2,0,B|256:80,1,90,8|0
320,48,37386,1,4
416,64,37569,6,0,B|496:112,2,90,0|8|0
352,128,38115,2,0,B|400:208,2,90,0|0|8
256,128,38661,2,0,B|240:224,2,90
296,47,39208,1,8
216,31,39390,1,0
152,95,39572,2,0,B|95:83|91:18,1,90
4,61,39936,2,0,B|7:127|75:188|144:185,1,180,8|4
256,304,40665,5,8
400,192,41029,1,4
256,80,41394,1,8
112,192,41758,1,0
37,241,41940,2,0,B|78:302|159:295|200:228,1,180,0|0
189,243,42487,2,0,B|230:304|311:297|352:230,1,180,0|0
342,244,43033,2,0,B|383:305|464:298|505:231,1,180,4|0
416,192,43579,5,8
416,192,43762,2,0,B|416:96,1,90
342,50,44126,1,0
342,50,44308,2,0,B|254:2|166:51,1,180,8|0
96,101,44855,1,0
96,101,45038,2,0,B|96:197,1,90,8|0
16,240,45401,1,0
96,288,45583,1,0
176,240,45765,2,0,B|271:304|384:224,1,180,8|0
432,240,46312,5,0
384,320,46494,1,8
304,352,46676,1,0
208,352,46858,1,0
128,320,47040,1,0
80,240,47223,1,8
160,192,47405,1,0
211,265,47587,1,0
301,265,47769,1,0
352,192,47951,1,8
256,192,48133,6,0,B|256:96,3,90,0|0|0|12
80,160,49044,1,4
432,160,49408,1,8
256,272,49773,6,0,B|256:368,1,90
256,144,50137,2,0,B|256:272,1,90,8|0
256,32,50501,2,0,B|256:128,1,90
336,96,50865,6,0,B|377:136|335:175,1,90,8|0
176,96,51230,2,0,B|135:136|177:175,1,90
256,224,51594,2,0,B|256:320,1,90,8|0
344,297,51958,1,0
303,377,52140,1,0
208,377,52323,1,8
167,297,52505,1,0
80,288,52687,6,0,B|0:336,2,90,0|0|8
128,208,53233,2,0,B|48:160,2,90
224,224,53780,2,0,B|240:112,2,90,8|0|0
169,295,54326,1,0
169,295,54508,1,12
256,208,54691,12,6,56330
256,48,56694,5,8
256,48,56877,1,0
334,100,57059,2,0,B|289:160|201:153|170:84,1,180,2|8
96,80,57606,5,0
112,160,57787,1,2
176,208,57969,1,0
256,224,58151,1,8
336,208,58334,1,0
400,160,58516,1,2
416,80,58698,1,0
336,112,58880,6,0,B|301:66|221:81,1,90,8|0
176,112,59244,2,0,B|214:66|291:81,1,90,2|0
256,160,59608,1,8
256,160,59790,2,0,B|256:272,1,90,0|2
191,312,60155,2,0,B|197:362|259:380|316:371|329:286,1,180
400,272,60702,6,0,B|432:256|464:304,2,45,2|0|0
368,192,61066,2,0,B|416:144,2,45,8|0|0
288,176,61430,2,0,B|288:144|272:128,2,45,2|0|0
192,192,61794,5,8
128,256,61977,1,0
64,192,62159,1,6
320,192,62523,1,8
384,256,62706,1,0
448,192,62888,1,6
256,32,63252,5,8
256,32,63435,2,0,B|256:128,1,90,0|2
172,175,63799,1,0
172,175,63981,2,0,B|256:236|344:174,1,180,8|4
256,208,64436,12,4,66530
256,192,66895,5,4
256,192,67259,1,0
256,192,67623,1,0
256,192,67987,1,4
368,160,76548,5,2
368,160,76640,1,0
368,160,76731,1,4
368,160,76913,1,0
448,128,77095,1,8
480,208,77277,1,0
400,240,77459,2,0,B|405:307|336:320,1,90
304,240,77824,1,8
256,320,78006,5,0
256,320,78188,1,0
208,240,78370,1,0
153,314,78552,2,8,B|108:296|111:237,1,90,8|0
159,165,78917,2,0,B|180:95|125:31|44:53,2,180,4|8|4
256,208,79827,12,4,82559
213,317,82742,6,0,B|261:349|311:310,1,90,0|8
256,240,83106,1,0
256,240,83288,2,0,B|255:143|255:143|256:144,1,90
160,128,83652,2,0,B|175:71|207:39|255:39|303:39|335:71|351:135,1,270,8|0
432,144,84381,6,0,B|432:208|352:240,1,90,8|0
298,234,84745,2,0,B|255:250|255:250|189:226,1,90
121,219,85110,2,0,B|81:192|80:142,1,90,8|0
80,143,85474,5,4
256,48,85838,1,8
431,143,86202,1,4
256,240,86567,1,12
80,143,86931,5,0
80,144,87113,2,0,B|80:240,1,90,0|8
48,320,87476,1,0
144,304,87660,2,0,B|239:368|352:288,1,180,4|8
400,352,88206,1,0
448,272,88388,2,0,B|400:176|464:96,1,180,4|8
368,96,88934,5,0
336,176,89116,1,0
256,208,89298,1,0
176,176,89481,1,8
176,176,89572,1,0
176,176,89663,1,0
125,91,89845,2,0,B|41:160|112:258,1,180,0|8
32,304,90392,5,0
112,352,90574,1,0
192,304,90756,1,0
272,352,90938,1,8
352,304,91120,1,0
432,352,91303,2,0,B|485:312|448:266|448:266|421:225|466:186,1,180,4|8
486,33,92031,2,0,B|433:73|470:119|470:119|497:160|452:199,1,180,4|8
368,192,92578,1,0
304,128,92760,6,0,B|224:48,2,90,0|0|8
256,192,93306,2,0,B|144:192,2,90
304,256,93853,2,0,B|224:336,2,90,8|0|4
368,192,94399,5,0
448,240,94581,1,8
384,304,94763,2,0,B|380:366|304:368,1,90
256,320,95128,1,0
336,252,95310,2,0,B|241:188|144:271,1,180,8|0
80,252,95857,5,0
128,172,96039,1,8
208,140,96221,1,0
304,140,96403,1,0
384,172,96585,1,0
432,252,96768,1,8
256,192,97131,6,0,B|208:240|144:208,1,90
256,192,97495,2,0,B|256:96,1,90,8|0
256,192,97860,2,0,B|304:240|368:208,1,90
416,176,98224,1,8
406,264,98406,2,0,B|385:313|317:348,1,90
260,355,98771,2,0,B|203:362|148:323,1,90,0|8
111,273,99135,2,0,B|79:229|91:162,1,90
114,101,99499,2,0,B|148:42|211:40|211:41,1,90,0|8
256,192,100046,5,4
336,144,100228,1,0
416,192,100409,1,8
336,240,100592,2,0,B|336:336,1,90
240,336,100956,1,0
240,336,101138,2,0,B|152:384|64:329,1,180,8|0
160,272,101685,5,0
160,272,101868,2,0,B|160:176,1,90,8|0
80,133,102231,1,0
160,85,102413,1,0
240,133,102595,2,0,B|335:69|448:149,1,180,8|0
400,224,103142,6,0,B|448:304,2,90,0|8|0
320,192,103689,2,0,B|320:288,2,90,0|0|8
240,224,104235,2,0,B|192:304,2,90,0|0|0
320,192,104782,1,8
320,192,104964,1,0
320,192,105146,1,0
320,192,105328,1,0
320,192,105510,1,12
256,208,105601,12,4,107332
128,160,113161,5,4
368,304,113525,1,8
256,64,113889,1,4
144,304,114253,1,8
384,160,114618,1,4
128,160,114982,1,8
256,352,115346,1,4
256,208,115528,12,4,118989
172,120,119354,6,0,B|172:232,1,90,6|0
172,210,119718,2,0,B|258:271|353:202,1,180,8|2
340,210,120264,2,0,B|340:120,1,90,0|8
80,32,120811,5,2
16,96,120994,1,0
80,160,121176,1,8
16,224,121358,1,0
80,288,121540,1,2
144,224,121722,2,0,B|256:240|256:352,1,180,0|8
257,342,122269,6,0,B|259:239|372:221,1,180,6|8
432,288,122814,1,0
496,224,122996,1,2
432,160,123178,1,0
496,96,123360,1,8
432,32,123543,1,0
368,96,123725,5,2
368,96,123907,2,0,B|256:96,1,90,0|8
220,26,124272,1,0
163,96,124454,1,2
220,165,124636,1,0
149,220,124818,2,0,B|167:265|221:285|270:268|294:214,1,180,8|8
373,257,125365,5,0
314,325,125547,1,2
227,347,125729,1,0
140,322,125911,1,8
76,258,126093,1,0
167,102,126457,6,0,B|167:198,1,90,0|8
257,192,126822,2,0,B|257:80,1,90,0|2
346,104,127186,2,0,B|346:216,1,90,0|8
342,283,127550,2,0,B|254:331|166:282,1,180,0|0
80,256,128097,5,8
144,192,128279,1,0
144,192,128461,2,0,B|192:112,1,90,2|0
256,176,128825,1,8
322,114,129008,1,0
321,114,129190,2,0,B|368:192,1,90,2|0
336,272,129554,6,0,B|301:318|221:303,1,90,8|0
176,272,129918,2,0,B|214:318|291:303,1,90,2|0
256,224,130282,1,8
256,128,130465,1,0
256,32,130647,1,0
256,208,130829,12,4,133561
64,192,134290,5,4
448,192,135018,1,4
64,192,135747,1,4
448,192,136476,1,4
288,274,136840,6,0,B|227:185|291:101,1,180,8|0
240,32,137386,1,0
160,80,137569,1,8
80,32,137751,1,0
160,192,138115,1,0
160,192,138297,2,8,B|160:288,1,90,8|0
85,325,138661,2,0,B|123:388|207:385|245:314,1,180,0|8
320,368,139208,5,0
368,288,139390,2,0,B|368:176|464:128,1,180,4|8
448,48,139937,1,0
352,32,140119,2,0,B|256:80|145:17,1,180,0|8
96,48,140665,1,0
75,134,140847,1,0
136,201,141029,1,0
224,190,141211,1,8
245,108,141394,1,0
186,35,141576,1,0
256,208,141758,12,4,145219
400,64,145583,5,8
320,16,145765,1,0
240,48,145947,2,0,B|160:96|64:48,1,180,0|8
32,128,146494,1,0
112,160,146676,2,0,B|160:256|96:336,1,180,0|8
192,336,147222,1,0
224,256,147404,1,0
304,224,147586,1,0
384,256,147769,1,8
384,256,147860,1,0
384,256,147951,1,0
435,341,148133,6,0,B|519:272|448:174,1,180,4|8
384,128,148679,1,0
320,64,148861,1,0
256,128,149044,1,0
192,64,149226,1,8
128,128,149408,1,0
59,182,149590,6,0,B|-3:273|82:346,1,180,0|8
112,256,150137,1,0
112,256,150319,2,0,B|208:256,1,90
258,186,150683,1,8
320,251,150865,1,0
260,318,151047,1,4
258,186,151412,5,8
320,121,151594,1,0
260,54,151776,1,4
112,240,152140,6,0,B|107:307|176:320,1,90,8|0
208,240,152505,1,0
256,320,152687,1,0
256,320,152869,1,8
304,240,153051,1,0
359,314,153233,2,0,B|404:296|401:237,1,90,0|0
352,160,153780,5,0
352,160,153871,1,0
352,160,153962,1,0
304,80,154144,1,0
304,80,154235,1,0
304,80,154326,1,8
208,80,154508,1,0
208,80,154600,1,0
208,80,154691,1,0
160,160,154873,1,0
160,160,154964,1,0
160,160,155055,1,8
179,247,155237,6,0,B|224:307|312:300|343:231,1,180,2|0
416,256,155783,1,2
368,336,155966,1,0
288,368,156148,2,0,B|190:376|144:336|118:302,2,180,6|8|4
256,208,157059,12,4,159791
256,336,160155,6,0,B|256:224,1,90,10|0
256,246,160519,1,6
144,112,160884,1,10
368,112,161248,1,6
398,278,161612,6,0,B|376:326|305:347,1,90,2|0
238,354,161977,2,0,B|171:356|142:290,1,90,2|0
100,257,162341,2,0,B|76:203|96:144,1,90,2|0
89,169,162705,1,6
412,257,163069,6,0,B|436:203|416:144,1,90,10|0
422,169,163433,1,6
100,257,163798,2,0,B|76:203|96:144,1,90,10|0
89,169,164162,1,2
220,46,164527,5,2
327,14,164709,1,2
433,50,164936,1,2
372,144,165164,2,0,B|326:164|278:141,1,90,2|0
335,256,165620,1,2
335,256,165938,1,6
256,208,166166,12,4,168170
