osu file format v6

[General]
AudioFilename: Nightcore III - Solo Tu.mp3
AudioLeadIn: 0
PreviewTime: 56057
Countdown: 0
SampleSet: Soft
StackLeniency: 0.7
Mode: 0
LetterboxInBreaks: 1

[Editor]
Bookmarks: 16987,31559,43217,56331,67989
DistanceSpacing: 0.800000011920929
BeatDivisor: 4
GridSize: 8

[Metadata]
Title:Solo Tu (Only You)
Artist:Nightcore
Creator:osuplayer111
Version:Normal+
Source:
Tags:Techno Trance

[Difficulty]
HPDrainRate:5
CircleSize:4
OverallDifficulty:5
SliderMultiplier:1.4
SliderTickRate:2

[Events]
//Background and Video events
0,0,"BG.jpg"
//Break Periods
2,28843,30358
//Storyboard Layer 0 (Background)
//Storyboard Layer 1 (Fail)
//Storyboard Layer 2 (Pass)
//Storyboard Layer 3 (Foreground)
//Storyboard Sound Samples
//Background Colour Transformations
3,100,163,162,255

[TimingPoints]
4600,364.298724954463,4,2,1,20,1,0
4782,-50,4,2,1,20,0,0
4964,-100,4,2,1,45,0,0
5191,-100,4,2,1,70,0,0
5328,-100,4,1,1,85,0,0
54691,-100,4,1,1,50,0,0
56330,-100,4,1,1,85,0,1
67987,-100,4,1,1,85,0,0

[Colours]
Combo1 : 255,128,0
Combo2 : 255,255,0
Combo3 : 255,0,0
Combo4 : 0,0,255
Combo5 : 255,0,128

[HitObjects]
96,192,4782,2,0,B|24:192,6,70,0|0|0|0|0|0|4
208,192,5692,1,8
256,160,5875,1,0
304,192,6057,1,2
256,296,6421,1,8
256,296,6603,1,0
256,296,6785,1,2
368,296,7150,5,8
472,248,7514,2,0,B|472:104,1,140,0|8
471,108,8060,1,0
471,108,8242,5,2
384,40,8607,1,8
296,104,8971,1,0
208,40,9335,1,8
120,104,9700,1,0
56,192,10064,5,2
56,192,10246,1,0
56,192,10428,1,0
168,192,10793,2,0,B|336:192,1,140,8|0
416,192,11521,5,2
472,192,11703,1,0
472,248,11885,1,0
424,352,12250,1,2
368,352,12432,1,0
312,352,12614,5,2
256,256,12978,1,2
256,144,13343,1,2
256,32,13707,1,8
256,32,13889,1,0
256,32,14071,5,4
168,96,14436,2,0,B|24:96,1,140,8|0
96,184,15164,1,8
96,240,15346,1,0
96,296,15528,5,2
192,240,15893,1,0
256,336,16257,1,8
312,240,16621,1,2
312,240,16804,1,0
312,240,16986,5,4
256,144,17350,1,8
256,32,17714,1,2
368,32,18079,2,0,B|448:32,2,70,8|0|2
256,32,18807,1,8
256,144,19171,1,0
144,144,19536,6,0,B|64:144,2,70,8|0|2
256,144,20264,1,8
368,144,20629,2,0,B|432:152|464:256|368:312,2,210,2|2|8
256,144,22086,1,2
256,256,22450,6,0,B|256:336,2,70,8|0|2
144,256,23179,1,8
32,256,23543,1,2
88,160,23907,1,8
88,48,24272,1,2
184,104,24636,2,0,B|256:104,2,70,8|0|2
256,256,25547,5,2
256,256,25729,1,4
360,296,26093,2,0,B|432:296,2,70,8|0|0
256,336,26822,1,8
256,336,27004,5,2
88,304,27550,1,8
88,192,27915,1,2
88,80,28279,1,8
88,192,28643,1,4
64,192,31558,5,4
144,112,31922,1,8
232,40,32286,2,0,B|304:40,2,70,2|0|8
256,264,33379,1,8
256,152,33743,1,2
360,192,34108,6,0,B|440:232|408:312,1,140,8|2
312,360,34836,1,8
256,264,35201,2,0,B|168:264,2,70,2|0|8
256,96,36111,1,2
256,96,36293,2,0,B|328:48|392:104,1,140,8|0
456,192,37022,1,2
368,336,37569,6,0,B|288:336,1,70,2|8
256,232,38115,1,2
208,336,38479,1,8
48,280,39026,1,2
48,280,39208,1,8
120,192,39572,1,2
48,104,39936,1,8
144,56,40301,6,0,B|296:56,1,140,2|8
256,168,41029,1,2
256,168,41394,1,8
256,336,41940,1,2
256,336,42122,1,8
336,256,42487,2,0,B|496:256,2,140,2|8|4
224,256,43579,5,8
144,336,43944,1,2
64,256,44308,1,8
56,88,44855,2,0,B|144:88,1,70,2|8
240,80,45401,1,2
256,192,45765,1,8
424,192,46312,6,0,B|512:192,3,70,2|8|0|8
464,296,47222,1,2
360,336,47587,1,8
256,296,47951,1,0
152,336,48315,2,0,B|40:336|40:264,1,140,2|8
104,120,49226,5,2
104,120,49408,1,8
176,32,49773,2,0,B|328:32,1,140,2|8
256,192,50683,1,2
256,192,50865,1,8
256,192,51230,2,0,B|400:192,1,140,2|8
480,336,52140,5,2
480,336,52323,1,8
480,336,52687,2,0,B|336:336,2,140,2|8|2
408,256,53780,1,8
320,192,54144,1,2
256,104,54508,1,8
184,192,54873,6,0,B|32:192,4,140,0|2|0|2|4
256,280,56694,1,8
328,192,57059,1,2
440,192,57423,2,0,B|440:104,2,70,8|0|2
440,304,58151,1,8
352,368,58516,1,2
256,304,58880,6,0,B|176:304,2,70,8|0|2
256,192,59609,1,8
256,80,59973,2,0,B|160:16|48:88,2,210,2|2|8
360,32,61430,1,2
464,72,61794,6,0,B|496:152,2,70,8|0|2
360,112,62523,1,8
432,192,62887,1,2
360,280,63252,1,8
296,192,63616,1,2
184,192,63980,2,0,B|32:192,1,140,8|2
112,40,64891,5,2
112,40,65073,1,4
200,104,65437,2,0,B|200:184,2,70,2|0|8
312,104,66166,2,0,B|312:184,2,70,2|0|0
256,208,66621,12,4,67987
