osu file format v9

[General]
AudioFilename: Nightcore III - Solo Tu.mp3
AudioLeadIn: 0
PreviewTime: 56057
Countdown: 0
SampleSet: Soft
StackLeniency: 0.7
Mode: 0
LetterboxInBreaks: 1

[Editor]
Bookmarks: 16987,31559,43217,56331,67989,82561,94218,107333,118991,133563,145220,153963,162707,169993
DistanceSpacing: 1
BeatDivisor: 4
GridSize: 8

[Metadata]
Title:Solo Tu (Only You)
Artist:Nightcore
Creator:osuplayer111
Version:Insane
Source:
Tags:Techno Trance

[Difficulty]
HPDrainRate:7
CircleSize:5
OverallDifficulty:7
ApproachRate:7
SliderMultiplier:1.8
SliderTickRate:1

[Events]
//Background and Video events
0,0,"BG.jpg"
//Break Periods
2,68187,75648
2,107532,111896
//Storyboard Layer 0 (Background)
//Storyboard Layer 1 (Fail)
//Storyboard Layer 2 (Pass)
//Storyboard Layer 3 (Foreground)
//Storyboard Sound Samples
//Background Colour Transformations
3,100,163,162,255

[TimingPoints]
4600,364.298724954463,4,2,0,20,1,0
4964,-100,4,2,0,45,0,0
5191,-100,4,2,0,70,0,0
5328,-100,4,1,0,85,0,0
24909,-200,4,1,0,85,0,0
25365,-100,4,1,0,85,0,0
28643,-100,4,1,0,50,0,0
31558,-100,4,1,0,87,0,0
54417,-200,4,1,0,87,0,0
54873,-100,4,1,0,50,0,0
56330,-100,4,1,0,85,0,1
64253,-200,4,1,0,85,0,1
64709,-100,4,1,0,85,0,1
66439,-100,4,1,0,50,0,1
67987,-100,4,1,0,85,0,0
79645,-100,4,1,0,50,0,0
82559,-100,4,1,0,86,0,0
89026,-200,4,1,0,86,0,0
89481,-100,4,1,0,86,0,0
90665,-200,4,1,0,86,0,0
91120,-100,4,1,0,86,0,0
93397,-200,4,1,0,86,0,0
93853,-100,4,1,0,86,0,0
95219,-200,4,1,0,86,0,0
95674,-100,4,1,0,86,0,0
96676,-200,4,1,0,86,0,0
97131,-100,4,1,0,86,0,0
101048,-200,4,1,0,86,0,0
101503,-100,4,1,0,86,0,0
102505,-200,4,1,0,86,0,0
102960,-100,4,1,0,86,0,0
115164,-200,4,1,0,86,0,0
115711,-100,4,1,0,86,0,0
119171,-100,4,1,0,50,0,0
133379,-100,4,1,0,85,0,0
133743,-100,4,1,0,50,0,0
134199,-100,4,1,0,85,0,0
134472,-100,4,1,0,50,0,0
134927,-100,4,1,0,86,0,0
135110,-100,4,1,0,50,0,0
135656,-100,4,1,0,86,0,0
135929,-100,4,1,0,50,0,0
136385,-100,4,1,0,85,0,0
136476,-100,4,1,0,85,0,1
140028,-200,4,1,0,85,0,1
140483,-100,4,1,0,85,0,1
141485,-200,4,1,0,85,0,1
141940,-100,4,1,0,85,0,0
153142,-200,4,1,0,85,0,0
153598,-100,4,1,0,85,0,0
155146,-200,4,1,0,85,0,0
155601,-100,4,1,0,85,0,0
156967,-100,4,1,0,50,0,0
165802,-200,4,1,0,50,0,0
166166,-200,4,1,0,0,0,0
167623,-100,4,1,0,50,0,0
167987,-100,4,1,1,50,0,1
168079,-100,4,1,1,0,0,1
169991,-100,4,1,1,0,0,0

[Colours]
Combo1 : 192,192,192
Combo2 : 128,255,255
Combo3 : 236,19,176
Combo4 : 173,14,241
Combo5 : 57,19,236

[HitObjects]
256,56,4782,2,0,B|256:32,15,17.5,0|0|0|0|0|0|0|0|0|0|0|0|0|0|0|4
256,192,5692,1,2
184,248,5875,1,0
104,288,6057,2,0,B|48:200|104:104,1,180,2|8
184,104,6603,1,0
256,56,6785,6,0,B|448:56,1,180,2|8
472,136,7332,1,0
408,200,7514,1,2
344,264,7696,2,0,B|344:320,2,45,0|0|2
288,192,8060,1,0
256,280,8242,6,0,B|168:352|72:272,1,180,2|8
40,208,8789,1,0
40,208,8971,1,2
168,80,9335,1,8
256,56,9518,1,0
344,80,9700,1,2
488,192,10064,6,0,B|392:192,1,90,2|0
320,232,10428,1,2
304,232,10519,1,0
288,232,10610,1,0
256,320,10793,1,8
168,320,10975,5,0
168,320,11157,2,0,B|64:320|48:208,1,180,2|8
104,136,11703,1,0
176,80,11885,2,0,B|248:24|248:24|352:24,1,180,2|8
408,80,12432,5,0
408,80,12614,2,0,B|456:176|400:272,2,180,2|8|2
328,120,13525,1,0
264,184,13707,1,2
200,248,13889,5,0
184,248,13980,1,0
168,248,14071,1,4
56,112,14436,1,2
56,112,14618,1,0
56,112,14800,1,2
456,112,15164,5,2
408,192,15346,1,0
328,248,15528,1,2
256,184,15711,2,0,B|256:88,1,90,0|0
328,40,16075,1,0
184,40,16257,1,0
256,256,16439,5,0
256,256,16530,1,0
256,256,16621,1,2
256,344,16804,1,0
256,344,16986,1,4
32,192,17350,1,2
480,192,17714,1,8
184,40,18079,6,0,B|88:40,1,90,2|0
328,40,18443,2,0,B|432:40,1,90
256,120,18807,2,0,B|256:216,1,90,2|0
256,296,19171,1,8
72,296,19536,5,2
160,296,19718,1,0
256,296,19900,2,0,B|344:352|440:280,1,180,2|2
425,289,20446,1,0
425,289,20629,1,8
456,112,20993,5,2
400,40,21175,2,0,B|296:40,1,90,0|2
256,112,21539,1,0
200,40,21722,2,0,B|104:40,1,90,2|0
64,112,22086,1,8
256,368,22450,5,2
256,280,22632,1,0
256,192,22814,1,2
256,16,23179,1,2
256,104,23361,1,0
256,192,23543,1,8
256,104,23907,6,0,B|352:104,1,90,2|0
256,192,24272,2,0,B|160:192,1,90,2|0
256,280,24636,2,0,B|360:280,1,90,2|0
432,280,25000,2,2,B|464:232|424:192,1,90,2|0
480,120,25547,5,2
480,120,25638,1,0
480,120,25729,2,0,B|480:32|352:32|320:32,1,180,4|2
280,96,26275,1,0
216,32,26457,2,0,B|120:32,1,90,2|0
72,104,26822,1,8
16,176,27004,6,0,B|16:280|144:280,1,180
216,328,27550,1,2
256,248,27732,1,0
296,328,27915,2,0,B|480:328,2,180,2|0|8
256,248,28825,5,0
328,192,29008,1,0
256,136,29190,1,0
184,192,29372,1,8
256,248,29554,1,0
328,192,29736,1,0
256,136,29918,1,0
184,192,30100,1,8
96,192,30283,1,0
8,192,30465,5,0
8,192,30556,1,0
8,192,30647,1,0
48,112,30829,1,8
48,24,31011,1,0
48,24,31102,1,0
48,24,31193,1,0
128,64,31375,1,0
208,32,31558,1,4
256,112,31740,6,0,B|352:112,1,90,0|2
280,168,32104,2,0,B|384:168,1,90,0|2
304,224,32468,2,0,B|408:224,1,90,0|8
256,224,33197,6,0,B|160:224,1,90,0|2
224,168,33561,2,0,B|128:168,1,90,0|2
200,112,33926,2,0,B|104:112,1,90,0|8
256,352,34472,5,2
256,32,34836,1,8
408,192,35201,2,0,B|504:192,2,90,2|0|2
144,256,36111,5,0
80,200,36293,1,8
144,136,36476,1,0
208,200,36658,2,0,B|256:120|256:120|304:208,2,180,2|2|4
144,136,37569,5,0
64,88,37751,1,8
144,40,37933,2,0,B|240:40,2,90,0|2|0
64,88,38479,1,2
256,280,39026,6,0,B|256:184,1,90,0|2
312,256,39390,2,0,B|312:144,1,90,0|2
368,232,39754,2,0,B|368:136,1,90,0|8
176,32,40301,5,2
56,336,40665,1,8
456,336,41029,1,2
336,32,41394,1,8
184,192,41940,6,0,B|80:192,1,90,0|8
328,192,42304,2,0,B|424:192,1,90,0|2
418,192,42669,1,0
256,192,42851,5,2
256,192,43033,1,0
256,192,43124,1,0
256,192,43215,1,4
224,272,43397,6,0,B|120:272,1,90,0|2
168,192,43762,2,0,B|64:192,1,90,0|2
112,112,44126,2,0,B|16:112,1,90,0|8
288,112,44855,6,0,B|384:112,1,90,0|2
344,192,45219,2,0,B|440:192,1,90,0|2
400,272,45583,2,0,B|496:272,1,90,0|8
232,360,46312,5,0
280,288,46494,1,2
232,208,46676,1,0
280,136,46858,1,2
232,56,47040,1,0
320,32,47222,2,0,B|368:0|416:40,1,90,2|0
472,88,47587,6,0,B|512:128|472:184,1,90,2|0
416,216,47951,2,0,B|376:176|416:120,1,90,2|0
320,136,48315,1,2
232,136,48497,1,0
232,136,48680,1,2
160,192,48862,1,0
144,192,48953,1,0
128,192,49044,1,4
56,248,49226,6,0,B|56:344,1,90,0|2
56,338,49590,2,0,B|160:338,1,90,0|2
208,272,49955,1,0
256,344,50137,1,8
480,192,50683,6,0,B|384:192,1,90,0|2
390,192,51048,2,0,B|390:91,1,90,0|2
328,32,51412,1,0
256,88,51594,1,8
8,192,52140,6,0,B|104:192,1,90,0|2
168,136,52505,2,0,B|264:136,1,90,0|2
328,192,52869,2,0,B|432:192,1,90,0|2
488,280,53233,2,0,B|384:280,1,90,0|2
328,336,53598,2,0,B|232:336,1,90,0|2
168,280,53962,2,0,B|56:280,1,90,0|2
40,200,54326,1,0
40,104,54508,6,2,B|40:56|88:24,1,90,2|0
160,72,55055,1,0
240,40,55237,1,2
256,128,55419,1,0
280,40,55601,1,2
368,72,55783,1,0
256,128,55966,5,2
256,256,56148,1,0
320,192,56330,2,0,B|416:192,1,90,4|0
192,192,56694,2,0,B|96:192,1,90,2|0
103,193,57059,1,8
256,352,57423,6,0,B|352:352,1,90,2|0
256,296,57787,2,0,B|160:296,1,90,2|0
256,240,58151,2,0,B|360:240,1,90,2|0
256,352,58516,1,8
176,192,58880,5,2
112,128,59062,1,0
176,64,59244,2,0,B|224:8|304:8|352:80,1,180,2|2
400,120,59791,1,0
352,192,59973,1,8
256,344,60337,5,2
256,344,60519,1,0
80,320,60884,2,0,B|32:280|80:232,1,90,0|2
144,192,61248,2,0,B|184:144|128:104,1,90,0|8
304,40,61794,6,0,B|400:48,1,90,2|0
393,47,62159,1,2
472,96,62341,2,0,B|488:192,1,90,0|2
486,184,62705,1,0
400,208,62887,1,8
256,312,63252,6,0,B|216:352|168:312,1,90,2|0
88,312,63616,2,0,B|48:200,1,90,2|0
48,136,63980,2,0,B|88:88|128:144,1,90,2|0
192,192,64344,2,2,B|288:192,1,90,2|0
376,192,64891,5,2
376,192,64982,1,0
376,192,65073,1,4
464,32,65437,1,2
464,32,65620,1,0
464,32,65802,1,8
464,352,66166,1,2
464,352,66348,1,0
464,352,66530,6,0,B|352:352,1,90,2|0
312,288,66895,1,2
256,360,67077,1,0
200,288,67259,1,2
256,216,67441,1,0
256,128,67623,5,0
256,128,67714,1,0
256,128,67805,1,0
256,128,67896,1,0
256,128,67987,1,4
256,296,76548,5,2
256,296,76640,1,0
256,296,76731,2,0,B|160:296,1,90,4|0
96,240,77095,1,2
24,296,77277,1,0
96,352,77459,1,2
24,184,77824,1,8
96,128,78006,6,0,B|96:48|152:40,1,90,0|2
216,32,78370,1,0
256,112,78552,1,2
296,32,78734,1,0
256,112,78916,2,0,B|304:176|216:232|272:288,2,180,2|0|8
344,112,79827,6,0,B|440:112,1,90
480,192,80191,1,0
480,192,80374,1,8
480,192,80556,2,0,B|368:192,1,90
352,272,80920,1,0
352,272,81102,1,8
352,272,81284,2,0,B|448:272,1,90
480,352,81649,5,0
480,352,81831,1,8
480,352,82013,2,0,B|376:352,1,90
304,352,82377,1,0
256,272,82559,1,4
256,184,82742,6,0,B|256:80,1,90,0|2
200,160,83106,2,0,B|200:64,1,90,0|2
144,136,83470,2,0,B|144:32,1,90,0|8
48,296,84199,5,0
64,304,84290,1,0
80,312,84381,1,2
168,344,84563,2,0,B|216:368|272:336,1,90,0|2
256,256,84927,1,0
256,256,85110,2,0,B|192:176,1,90,2|0
280,136,85474,6,0,B|344:216,1,90,2|0
416,160,85838,2,0,B|360:88,1,90,8|0
296,24,86202,1,2
216,64,86385,1,0
136,104,86567,1,8
352,264,87113,5,0
296,320,87295,2,0,B|200:320,1,90,2|0
120,344,87660,2,0,B|24:280|32:176,1,180,2|8
31,195,88206,1,0
96,136,88388,1,4
32,72,88570,5,0
112,32,88753,2,0,B|208:32,1,90,2|0
256,104,89117,2,2,B|360:104,1,90,2|0
480,344,90028,1,0
408,288,90210,2,0,B|304:288,1,90,2|0
256,352,90574,1,0
192,288,90756,2,2,B|88:288,1,90,2|0
32,192,91303,5,2
256,32,91667,1,8
256,352,92031,1,2
480,192,92395,1,8
256,128,92942,5,0
320,192,93124,1,8
192,192,93306,1,0
256,256,93488,2,2,B|256:352,1,90,2|8
257,346,94035,1,0
257,346,94217,1,4
176,296,94399,5,0
160,296,94490,1,0
144,296,94581,1,2
56,272,94763,1,0
16,192,94946,1,2
56,112,95128,1,0
104,192,95310,2,2,B|200:192,1,90,2|0
280,192,95856,5,0
328,112,96038,1,2
376,192,96221,1,0
328,272,96403,1,2
280,192,96585,1,0
376,192,96767,2,2,B|480:192,1,90,2|0
424,112,97314,5,0
376,40,97496,1,2
328,112,97678,1,0
272,40,97860,1,2
224,112,98042,1,0
136,112,98224,1,2
192,40,98406,1,0
104,40,98589,5,2
48,112,98771,1,0
104,184,98953,1,2
104,184,99135,1,0
192,184,99317,1,2
192,184,99499,1,0
256,248,99681,1,2
256,248,99864,1,0
256,248,99955,1,0
256,248,100046,1,4
320,184,100228,5,0
320,184,100410,1,2
408,184,100592,1,0
408,184,100774,1,2
456,112,100957,1,0
408,40,101139,2,2,B|304:40,1,90,2|0
256,104,101685,5,0
256,192,101867,2,0,B|152:192,1,90,2|0
166,192,102232,1,2
166,192,102414,1,0
80,192,102596,2,2,B|32:232|96:280,1,90,2|0
136,336,103142,5,0
200,272,103324,1,2
256,344,103507,1,0
304,272,103689,1,2
368,336,103871,1,0
304,272,104053,1,2
256,344,104235,1,0
200,272,104417,5,2
136,336,104600,1,0
200,272,104782,1,2
256,200,104964,1,0
256,200,105146,1,2
256,112,105328,1,0
256,112,105510,2,0,B|256:16,2,90,2|0|2
96,192,106239,6,0,B|192:192,1,90,2|0
256,248,106603,1,2
416,192,106785,2,0,B|320:192,1,90,0|2
256,136,107150,1,0
256,248,107332,1,4
32,192,112796,5,2
32,192,112978,1,0
32,192,113161,1,4
256,352,113525,1,8
256,32,113889,1,2
480,192,114253,5,8
480,192,114436,1,0
480,192,114618,1,2
256,192,114982,1,8
256,192,115346,2,2,B|256:288,1,90,2|0
256,192,115893,5,2
256,192,115984,1,0
256,192,116075,2,0,B|256:96,1,90,4|0
320,32,116439,2,0,B|424:32,1,90,2|0
192,32,116804,2,0,B|96:32,1,90,2|0
102,32,117168,1,8
102,32,117350,5,2
256,192,117714,2,0,B|256:304,1,90,0|8
344,240,118079,1,0
168,240,118261,1,2
256,128,118625,1,0
256,344,118989,1,4
256,64,119354,5,8
256,344,119718,1,2
256,128,120082,1,8
256,128,120264,1,0
256,128,120446,1,2
400,240,120811,5,8
312,240,120993,2,0,B|208:240,1,90,0|2
222,240,121266,1,0
222,240,121357,1,0
144,288,121539,1,8
144,200,121722,1,0
56,224,121904,6,0,B|8:136|56:48,1,180,2|8
144,32,122450,1,0
200,104,122632,2,0,B|296:104,1,90,2|0
376,64,122997,1,8
464,32,123179,1,0
464,120,123361,2,0,B|504:160|464:216,1,90,2|0
416,272,123725,6,0,B|232:272,1,180,8|0
256,184,124272,1,0
176,224,124454,1,0
256,184,124636,1,0
336,136,124818,1,0
256,296,125182,1,8
304,376,125365,1,0
208,376,125547,1,0
256,184,125911,5,8
256,184,126093,1,0
80,192,126457,2,0,B|0:136,1,90,0|8
80,192,126822,2,0,B|56:104,1,90
80,192,127186,2,0,B|128:96,1,90,0|8
80,192,127550,2,2,B|176:144,1,90,0|2
304,48,128097,5,8
432,176,128461,1,0
256,192,128825,2,0,B|256:288,1,90,8|0
168,280,129190,2,0,B|168:176,1,90
80,192,129554,2,0,B|80:288,1,90,8|0
80,282,129918,1,2
136,112,130283,6,0,B|136:16,1,90,8|0
136,22,130647,1,4
384,24,131011,2,0,B|384:120,1,90,8|0
384,114,131375,1,0
256,352,131740,1,8
256,352,131922,2,0,B|256:248,1,90
312,192,132286,1,0
256,120,132468,1,8
200,192,132651,1,0
256,120,132833,1,2
472,192,133197,5,2
40,192,133561,1,4
256,264,133926,1,2
256,264,134108,1,0
256,264,134290,1,4
192,112,134654,6,0,B|264:40,1,90,2|0
320,112,135018,2,0,B|248:40,1,90,4|0
256,144,135383,1,2
256,144,135565,1,0
256,144,135747,1,4
256,320,136111,5,2
256,232,136293,1,0
256,320,136476,1,4
104,280,136840,2,0,B|8:280,1,90,8|0
16,280,137204,1,2
408,280,137569,6,0,B|504:280,1,90,2|0
448,104,138115,1,0
416,24,138297,1,8
384,104,138479,1,0
352,24,138661,2,0,B|256:24,1,90,2|0
262,24,139026,5,2
224,104,139208,1,0
152,56,139390,2,0,B|112:24|48:72,1,90
40,144,139754,2,0,B|8:192|48:240,1,90,8|0
120,184,140119,2,2,B|216:184,1,90,2|0
256,264,140665,5,0
256,264,140847,1,2
296,184,141029,2,0,B|400:184,1,90,0|8
480,184,141394,1,0
480,184,141576,2,2,B|480:72,1,90,2|0
408,40,142122,5,2
408,40,142213,1,0
408,40,142304,2,0,B|344:8|328:128|304:8|232:40,1,180,4|8
238,37,142851,1,0
238,37,143033,1,2
80,128,143397,5,2
144,192,143579,1,0
80,248,143762,2,0,B|136:328|136:328|240:328,1,180,2|8
256,248,144308,1,0
256,232,144399,1,0
256,216,144490,1,2
256,128,144672,2,0,B|256:24,1,90,0|2
256,38,145037,1,0
256,38,145219,1,4
432,72,145583,5,2
488,144,145765,1,0
432,216,145947,2,0,B|480:264|440:344|352:336,1,180,2|8
344,248,146494,1,0
256,256,146676,1,2
168,248,146858,1,0
256,184,147040,1,2
256,184,147222,2,0,B|256:80,1,90,0|8
80,80,147769,5,2
16,144,147951,1,0
56,224,148133,2,0,B|152:224,2,90,2|0|8
16,304,148680,1,0
72,376,148862,1,2
256,344,149226,5,8
256,344,149408,2,0,B|256:240,1,90,2|0
320,192,149773,1,0
192,192,149955,1,8
368,128,150137,1,0
136,136,150319,1,2
256,32,150683,5,2
256,32,150865,1,0
256,32,151048,1,2
256,344,151412,1,2
256,344,151594,1,0
256,344,151776,1,2
96,192,152140,6,0,B|192:192,1,90,2|0
416,192,152505,2,0,B|320:192,1,90,2|0
256,128,152869,1,2
256,256,153051,1,0
256,128,153233,2,2,B|256:24,1,90,2|0
257,37,153780,5,2
257,37,153871,1,0
257,37,153962,1,4
80,80,154326,1,2
168,80,154508,1,0
122,160,154691,2,0,B|122:256,1,90,2|0
120,336,155055,1,0
200,296,155237,6,2,B|304:296,1,90,2|0
368,248,155783,1,2
368,336,155966,1,0
448,296,156148,2,0,B|512:208|416:112,2,180,2|0|4
264,296,157241,5,2
256,208,157423,1,0
248,120,157605,1,2
72,136,157969,1,2
88,224,158151,1,0
104,312,158334,1,2
368,32,158698,5,2
448,64,158880,1,0
456,152,159062,1,2
376,112,159244,1,0
376,112,159335,1,0
376,112,159426,1,2
336,192,159609,2,0,B|240:192,1,90,0|8
64,192,160155,6,0,B|160:192,2,90,2|0|2
112,368,160884,1,2
112,16,161248,1,2
256,192,161612,5,2
336,152,161794,1,0
416,192,161977,1,2
336,232,162159,1,0
336,232,162250,1,0
336,232,162341,1,2
336,320,162523,2,0,B|448:320,1,90,0|8
248,320,163069,6,0,B|152:320,1,90,2|0
158,320,163434,1,2
264,64,163798,2,0,B|360:64,1,90,2|0
354,64,164162,1,8
480,192,164527,5,2
408,240,164709,1,0
328,192,164891,2,0,B|184:192,1,135,2|0
87,192,165377,1,2
88,192,165620,1,0
255,39,165984,6,0,B|351:39|423:103|439:255|343:351|255:343,1,450,2|0
266,343,167896,1,0
266,343,167987,1,4
256,192,168079,12,0,169991
