osu file format v7

[General]
AudioFilename: Nightcore Rumadai.mp3
AudioLeadIn: 0
PreviewTime: 44817
Countdown: 1
SampleSet: Normal
StackLeniency: 0.7
Mode: 0
LetterboxInBreaks: 1

[Editor]
DistanceSpacing: 0.800000011920929
BeatDivisor: 2
GridSize: 16

[Metadata]
Title:Rumadai
Artist:Nightcore
Creator:vaguito
Version:Normal
Source:
Tags:rumadai, nightcore

[Difficulty]
HPDrainRate:5
CircleSize:4
OverallDifficulty:5
SliderMultiplier:0.999999999999999
SliderTickRate:1

[Events]
//Background and Video events
0,0,"Wallpaper rumadai.jpg"
//Break Periods
2,65738,76545
2,125603,135407
//Storyboard Layer 0 (Background)
//Storyboard Layer 1 (Fail)
//Storyboard Layer 2 (Pass)
//Storyboard Layer 3 (Foreground)
//Storyboard Sound Samples
//Background Colour Transformations
3,100,163,162,255

[TimingPoints]
2829,334.445449882929,4,1,0,49,1,0
45654,-100,4,1,0,50,0,1
65555,-100,4,1,0,51,0,0
88468,-100,4,1,0,50,0,1
108369,-100,4,1,0,50,0,0
136634,-100,4,1,0,50,0,1
158041,-100,4,1,0,50,0,0

[Colours]
Combo1 : 243,155,133
Combo2 : 255,255,17
Combo3 : 255,255,179
Combo4 : 221,83,23

[HitObjects]
256,192,2829,1,0
256,112,3164,1,8
256,32,3498,2,0,B|320:32|352:96,1,99.9999999999999,0|8
400,128,4167,1,0
352,192,4501,1,8
304,256,4836,1,0
240,304,5170,2,0,B|272:368|336:352,1,99.9999999999999,8|0
320,272,5839,5,8
320,192,6174,1,0
240,192,6508,2,0,B|192:144|240:80,1,99.9999999999999,8|0
224,16,7177,1,8
144,16,7511,1,0
144,96,7846,1,8
144,176,8180,6,0,B|192:224|256:176,1,99.9999999999999,0|8
240,112,8849,2,0,B|288:80|336:112,1,99.9999999999999,0|8
336,192,9518,2,0,B|384:224|432:192,1,99.9999999999999,0|8
512,192,10187,2,0,B|544:240|512:304,1,99.9999999999999,0|8
432,288,10856,5,0
352,288,11190,2,0,B|384:240|352:176,1,99.9999999999999,8|0
352,112,11859,1,8
272,112,12194,2,0,B|208:112|192:176,1,99.9999999999999,0|8
112,112,12862,1,0
96,80,13030,1,0
128,48,13197,1,8
256,32,13531,5,0
256,112,13866,1,8
256,192,14200,1,0
256,272,14535,2,0,B|320:272,2,50,0|8|8
176,272,15204,2,0,B|144:224|176:160,1,99.9999999999999,0|8
176,96,15872,2,0,B|240:96,2,50,0|8|8
96,96,16541,5,0
96,176,16876,1,8
176,176,17210,2,0,B|240:176,6,50,0|0|0|0|0|0|4
176,336,18882,5,0
256,336,19217,1,8
336,336,19551,2,0,B|368:288|336:224,1,99.9999999999999,0|8
336,160,20220,1,0
272,112,20555,1,8
208,160,20889,1,0
144,112,21224,1,8
80,160,21558,5,0
128,224,21892,1,8
128,304,22227,2,0,B|176:336|240:304,1,99.9999999999999,0|8
224,224,22896,2,0,B|272:192|320:224,1,99.9999999999999,0|8
400,224,23565,1,0
400,144,23899,5,8
400,64,24234,1,0
320,64,24568,2,0,B|288:112|224:128,1,99.9999999999999,8|0
240,208,25237,1,8
240,288,25571,1,0
160,288,25906,1,8
160,208,26240,2,0,B|176:144|240:128,1,99.9999999999999,0|8
304,128,26909,2,0,B|368:128,4,50
304,48,27912,5,0
272,48,28080,1,8
176,112,28581,2,0,B|176:176|240:192,1,99.9999999999999
304,144,29250,2,0,B|320:80|384:64,1,99.9999999999999,0|8
432,96,29919,2,0,B|496:128|512:176,1,99.9999999999999,0|8
512,240,30588,5,0
432,240,30922,1,8
352,240,31257,2,0,B|336:256|336:256|320:224|320:224|304:256|304:256|288:224|288:224|272:256|272:256|256:224|256:224|240:256|240:256|224:224|224:224|208:256|208:256|192:224|192:224|176:256|176:256|160:224|160:224|144:240,1,200
256,64,32595,5,0
96,64,33264,1,8
96,224,33932,2,0,B|144:208|176:160,1,99.9999999999999,0|8
256,160,34601,1,0
336,160,34936,5,8
416,160,35270,1,0
416,240,35605,1,8
416,320,35939,5,0
384,320,36106,1,8
272,320,36608,1,0
272,288,36775,1,8
160,320,37277,5,0
160,240,37611,1,8
160,160,37946,1,0
240,160,38280,2,0,B|304:160|336:112,1,99.9999999999999,8|0
272,64,38949,2,0,B|224:32|160:64,1,99.9999999999999,8|0
176,144,39618,1,0
176,224,39953,1,8
256,224,40287,6,0,B|304:256|368:224,1,99.9999999999999,0|8
400,160,40956,2,0,B|464:160|496:208,1,99.9999999999999,0|8
480,272,41625,2,0,B|464:320|400:352,1,99.9999999999999,0|8
336,336,42294,1,0
256,336,42628,1,8
256,256,42963,6,0,B|304:256,16,25,0|0|0|0|0|0|0|0|0|0|0|0|0|0|0|0|4
256,48,45638,5,0
256,128,45973,1,8
256,208,46307,1,0
256,288,46641,6,0,B|352:240|352:240|464:288,1,200,8|8
448,192,47645,1,0
448,112,47979,1,8
384,64,48314,1,0
256,64,48815,1,0
256,144,49150,2,8,B|256:208,1,50
256,272,49651,1,0
336,272,49986,1,4
336,32,50989,5,0
256,32,51324,2,0,B|288:80|256:144,1,99.9999999999999,8|0
256,208,51993,1,8
256,288,52327,1,0
256,368,52661,2,0,B|304:336|352:368,1,99.9999999999999,8|0
352,288,53330,1,8
352,208,53665,1,0
352,128,53999,2,0,B|352:64|272:48,1,99.9999999999999,8|0
208,48,54668,2,0,B|160:64|160:144,1,99.9999999999999,8|4
320,192,56340,6,0,B|432:192,2,99.9999999999999,0|8|0
256,192,57344,1,8
192,192,57678,2,0,B|80:192,2,99.9999999999999,0|8|0
256,192,58681,1,8
256,112,59016,1,0
256,32,59350,1,8
320,80,59685,2,0,B|384:96|400:160,1,99.9999999999999,0|8
400,224,60354,1,0
400,304,60688,2,0,B|512:304,2,99.9999999999999,8|0|8
240,304,62026,5,0
240,144,62695,1,8
400,144,63364,1,0
400,304,64033,5,0
368,288,64200,1,8
288,224,64701,2,0,B|352:224,2,50,0|0|8
288,128,65370,1,0
256,128,65538,1,12
256,32,77745,5,0
256,112,78079,1,8
256,192,78414,1,0
256,272,78748,2,0,B|320:272,1,50,8|0
432,272,79417,1,8
400,240,79584,1,0
400,80,80253,5,0
368,112,80420,1,0
288,112,80755,1,8
208,112,81089,1,0
128,80,81424,2,0,B|192:80,5,50,8|0|8|0|8|0
256,80,82594,5,0
288,96,82762,1,0
320,112,82929,1,8
320,224,83430,1,0
240,224,83765,1,8
160,224,84099,2,0,B|176:160|224:144,1,99.9999999999999,0|8
304,144,84768,1,0
304,64,85103,2,0,B|352:32|416:64,1,99.9999999999999,8|0
400,144,85772,6,0,B|432:144,15,25
256,336,88447,5,0
256,256,88782,1,8
256,176,89116,1,0
256,96,89450,6,0,B|352:144|352:144|464:96,1,200,8|8
448,192,90454,1,0
448,272,90788,1,8
384,320,91123,1,0
256,320,91624,1,0
256,240,91959,2,8,B|256:176,1,50,8|8
256,112,92460,1,0
336,112,92795,1,8
336,352,93798,5,0
256,352,94133,2,0,B|288:304|256:240,1,99.9999999999999,8|0
256,176,94802,1,8
256,96,95136,1,0
256,16,95470,2,0,B|304:48|352:16,1,99.9999999999999,8|0
352,96,96139,1,8
352,176,96474,1,0
352,256,96808,2,0,B|352:320|272:336,1,99.9999999999999,8|0
208,336,97477,2,0,B|160:320|160:240,1,99.9999999999999,8|4
320,192,99149,6,0,B|432:192,2,99.9999999999999
192,192,100487,6,0,B|80:192,2,99.9999999999999
256,192,101490,1,0
256,272,101825,1,0
256,352,102159,1,0
320,304,102494,2,0,B|384:288|400:224,1,99.9999999999999
400,160,103163,1,0
400,80,103497,2,0,B|512:80,2,99.9999999999999
240,80,104835,5,0
240,240,105504,1,0
400,240,106173,1,0
400,80,106842,1,0
368,96,107009,1,0
288,160,107343,2,0,B|352:160,2,50
288,256,108179,1,0
256,256,108347,1,0
224,48,109852,6,0,B|288:48,1,50
304,80,110186,2,8,B|368:80,1,50
384,48,110520,2,0,B|448:48,1,50
480,48,110855,2,0,B|528:48,3,25
512,144,111524,6,0,B|512:208,1,50
464,192,111858,2,8,B|400:192,1,50
368,192,112193,2,0,B|416:192,3,25
288,192,112862,6,0,B|288:128,1,50
288,96,113196,2,8,B|352:96,1,50
384,96,113531,2,0,B|432:96,3,25
416,176,114032,6,8,B|480:176,2,50
240,176,115203,6,0,B|240:240,1,50
240,272,115537,2,8,B|304:272,1,50
336,272,115872,2,0,B|400:272,1,50
432,272,116206,2,0,B|480:272,3,25
432,176,116875,6,0,B|496:176,1,50
480,128,117209,2,8,B|480:64,1,50
448,48,117544,2,0,B|496:48,3,25
400,112,118213,6,0,B|336:112,1,50
336,144,118547,2,8,B|336:208,1,50
336,240,118882,2,0,B|384:240,3,25
336,320,119383,6,0,B|336:384,2,50,8|0|12
256,192,120554,12,0,121223
256,192,121892,12,0,122561
256,32,123229,5,0
256,192,123898,1,8
256,352,124567,1,0
224,336,124734,1,8
160,288,125069,1,0
160,208,125403,1,8
256,336,136607,5,0
256,256,136942,1,0
256,176,137276,1,0
256,96,137611,6,0,B|160:144|160:144|48:96,1,200
64,192,138614,1,0
64,272,138948,1,0
128,320,139283,1,0
256,320,139784,1,0
256,240,140119,2,0,B|256:176,1,50
256,112,140621,5,0
176,112,140955,1,0
176,352,141958,1,0
256,352,142293,2,0,B|224:304|256:240,1,99.9999999999999
256,176,142962,1,0
256,96,143296,1,0
256,16,143631,2,0,B|208:48|160:16,1,99.9999999999999
160,96,144299,1,0
160,176,144634,1,0
160,256,144968,2,0,B|160:320|240:336,1,99.9999999999999
304,336,145637,2,0,B|352:320|352:240,1,99.9999999999999
192,192,147309,6,0,B|80:192,2,99.9999999999999
320,192,148647,6,0,B|432:192,2,99.9999999999999
256,192,149651,1,0
256,272,149985,1,0
256,352,150320,1,0
192,304,150654,2,0,B|128:288|112:224,1,99.9999999999999
112,160,151323,1,0
112,80,151657,2,0,B|0:80,2,99.9999999999999
272,80,152995,5,0
272,240,153664,1,0
112,240,154333,1,0
112,80,155002,1,0
144,96,155169,1,0
224,160,155503,6,0,B|160:160,2,50
224,256,156340,1,0
256,256,156507,1,0
256,192,157008,12,0,158012
