osu file format v7

[General]
AudioFilename: Music_Nightcore II- Ravers Fantasy.mp3
AudioLeadIn: 0
PreviewTime: 49770
Countdown: 0
SampleSet: Normal
StackLeniency: 0.7
Mode: 0
LetterboxInBreaks: 0
EpilepsyWarning: 1

[Editor]
Bookmarks: 93367
DistanceSpacing: 1.39999997615814
BeatDivisor: 2
GridSize: 8

[Metadata]
Title:Ravers Fantasy
Artist:Nightcore
Creator:LoweH
Version:Easy
Source:
Tags:trance music Tune Up lissette deadbeat lizbeth nachopiggy

[Difficulty]
HPDrainRate:4
CircleSize:3
OverallDifficulty:2
SliderMultiplier:1.4
SliderTickRate:2

[Events]
//Background and Video events
0,0,"reisen-nightcore.jpg"
//Break Periods
2,11654,13089
2,25855,36875
2,84119,93730
//Storyboard Layer 0 (Background)
//Storyboard Layer 1 (Fail)
//Storyboard Layer 2 (Pass)
//Storyboard Layer 3 (Foreground)
Sprite,Foreground,Centre,"konachancom-43594-reisen_udongein_inaba-touhou4.jpg",320,240 M,0,39832,,320,240 S,0,39832,,0.624 F,0,39832,40543,1,0
Sprite,Foreground,Centre,"konachancom-43594-reisen_udongein_inaba-touhou4.jpg",320,240 S,0,41254,,0.6240001 F,0,41254,41965,1,0
Sprite,Foreground,Centre,"konachancom-43594-reisen_udongein_inaba-touhou4.jpg",320,240 S,0,42675,,0.624 F,0,42675,43386,1,0
//Storyboard Sound Samples
//Background Colour Transformations
3,100,163,162,255

[TimingPoints]
2934,710.059171597633,4,2,0,100,1,0
25606,-100,4,1,0,44,0,0
29881,-100,4,1,0,96,0,0
32750,710.689961504294,4,1,0,96,1,0
38411,-100,4,1,0,91,0,0
49784,-100,4,1,0,91,0,1
82481,-100,4,1,0,85,0,1
82837,-100,4,1,0,81,0,1
83192,-100,4,1,0,54,0,1
83903,-100,4,1,0,95,0,0
95276,-100,4,1,0,71,0,0
95276,-100,4,1,0,71,0,0
105925,-100,4,1,0,0,0,0
106620,-100,4,1,0,94,0,0
117667,-100,4,1,0,60,0,0
118377,-100,4,1,0,56,0,0
119088,-100,4,1,0,51,0,0
119799,-100,4,1,0,48,0,0
120510,-100,4,1,0,46,0,0
121221,-100,4,1,0,40,0,0
121931,-100,4,1,0,39,0,0
122642,-100,4,1,0,34,0,0
123353,-100,4,1,0,31,0,0
124064,-100,4,1,0,27,0,0
124775,-100,4,1,0,24,0,0
125486,-100,4,1,0,20,0,0
125486,-100,4,1,0,18,0,0
126196,-100,4,1,0,14,0,0
126907,-100,4,1,0,11,0,0
127973,-100,4,1,0,9,0,0
130106,-100,4,1,0,6,0,0
130817,-100,4,1,0,0,0,0
132268,710.059171597633,4,2,0,100,1,0
152135,710.689961504294,4,1,0,96,1,0

[Colours]
Combo1 : 255,0,255
Combo2 : 145,28,157
Combo3 : 255,255,255
Combo4 : 0,0,255

[HitObjects]
64,48,3289,2,0,B|208:112|8:176|184:232,1,210
304,112,5064,1,2
480,24,5774,1,2
472,120,6129,6,0,B|336:152|504:264|288:248,1,210
144,272,7904,1,2
136,72,8614,1,2
232,72,8969,6,0,B|232:256,1,140
240,312,10034,2,0,B|424:344|448:136,1,280,0|2
408,296,14649,5,0
400,200,15005,1,2
376,104,15360,2,0,B|320:32|312:208|208:56,1,140,2|0
168,144,16425,1,0
80,176,16780,1,0
216,312,17490,5,0
248,216,17845,1,2
272,120,18200,2,0,B|376:152|288:40|408:112|328:-32|480:40,1,210,2|0
432,24,19620,1,0
432,24,19975,1,0
448,120,20330,6,0,B|448:264,1,140
352,256,21395,2,0,B|352:112,1,140
256,120,22460,2,2,B|256:224,1,70
120,152,24235,6,0,B|192:104,1,70
120,152,24945,2,0,B|88:240,1,70
120,152,25655,1,4
104,80,38435,5,0
200,80,38790,2,0,B|304:80|288:56|288:224,1,210
384,224,40212,1,8
432,304,40567,1,0
352,360,40922,1,8
256,360,41278,6,0,B|144:360|160:384|160:216,1,210
160,128,42699,1,0
256,128,43055,1,8
352,128,43410,2,0,B|352:248,2,70,0|8|0
344,32,44476,5,0
248,0,44831,1,0
152,8,45187,1,8
104,96,45542,1,0
184,152,45897,1,8
272,112,46253,2,0,B|320:176|304:248,1,140,0|8
208,240,47319,2,0,B|184:304|216:384,1,140,0|8
304,344,48385,2,0,B|304:256,3,70
400,296,49806,6,0,B|480:232|320:216|432:144,1,140,4|0
408,80,50872,2,8,B|384:24|312:120,1,70
272,136,51583,2,0,B|272:192|272:272|224:272|144:272|96:272|96:192|96:128,1,350
192,136,53715,1,8
240,48,54070,2,0,B|288:-48|288:160|376:16,1,140,8|0
352,152,55136,6,0,B|352:224,2,70,0|4|0
448,128,56202,1,0
368,64,56558,1,8
272,80,56913,2,0,B|224:152,1,70,8|0
272,232,57624,2,0,B|328:280,1,70
272,360,58334,6,8,B|184:392,1,70
144,312,59045,2,8,B|112:232,1,70
128,152,59756,5,0
224,152,60111,1,8
320,152,60466,1,0
417,151,60822,1,8
448,240,61177,6,0,L|344:336|288:296,1,210
192,264,62598,2,0,B|128:216,1,70,8|0
120,128,63309,2,0,B|232:128,1,70
288,128,64020,2,0,B|288:304|368:304|360:104,1,280,0|8
456,144,65797,1,0
448,48,66152,5,0
351,31,66507,1,0
253,29,66863,2,0,B|101:29,1,140,4|0
160,120,67929,1,8
168,216,68284,2,0,B|112:272|264:280|152:336,1,140,8|0
264,328,69350,2,8,B|368:328,1,70
304,232,70061,2,8,B|400:232,1,70
352,136,70771,6,0,B|440:136,1,70,0|8
376,48,71482,2,0,B|464:48,1,70,0|8
376,48,72193,1,0
280,32,72548,6,4,B|64:32,1,210,4|8
40,128,73970,2,4,B|264:128,1,210,12|8
280,224,75391,2,12,B|56:224,1,210,12|8
40,320,76812,2,12,B|312:320,1,210,12|8
344,320,78234,5,12
432,272,78589,1,0
440,176,78944,2,0,B|424:120|328:136,1,70
288,144,79655,1,0
192,168,80010,1,0
112,104,80366,6,0,B|88:56|128:32,1,70
216,16,81076,1,8
312,8,81432,1,0
400,48,81787,1,8
424,144,82142,1,0
416,240,82498,5,8
328,280,82853,1,8
232,280,83208,2,0,B|232:192,1,70
312,152,83919,1,4
40,72,95290,6,0,B|40:152,2,70
136,72,96356,2,0,B|216:56|288:112|240:232,1,210,8|0
152,192,97778,2,0,B|136:280|160:328|264:344,1,210,8|0
344,320,99199,1,8
432,280,99554,6,0,B|432:200,1,70
432,112,100265,2,0,B|432:32,1,70,0|8
240,64,101331,5,0
144,64,101686,2,0,B|88:112,1,70,0|8
152,184,102397,2,0,B|216:232,1,70
120,272,103108,2,0,B|64:328,1,70,0|8
168,336,103818,2,0,B|272:336,1,70
336,336,104529,1,0
421,287,104885,1,4
256,192,105240,12,0,106306
224,96,107017,6,0,B|160:152|184:240,1,140,0|8
280,224,108083,1,0
376,224,108438,2,0,B|440:224|432:168,1,70
416,96,109149,2,0,B|392:48|336:72,1,70,8|0
264,64,109859,1,0
168,64,110215,1,0
104,144,110570,6,0,B|56:200|56:200|72:288,1,140,8|0
168,256,111636,1,0
168,256,111991,1,8
264,224,112347,1,0
264,224,112702,1,0
352,176,113057,1,0
352,176,113413,1,8
440,128,113768,6,0,B|424:56|256:32|128:40|48:80|56:176,1,420
72,216,116256,6,0,B|152:216,1,70
200,136,116966,2,0,B|280:104,1,70
336,48,117677,2,4,B|424:96,1,70
480,128,118388,2,0,B|432:208,1,70
344,184,119098,6,0,B|344:280,1,70
440,280,119809,2,0,B|376:352,1,70
296,336,120520,2,0,B|208:336,1,70
160,264,121230,2,0,B|160:168,1,70
256,176,121941,6,0,B|352:176,1,70
336,80,122652,2,0,B|256:40,1,70
176,56,123362,2,0,B|112:96,1,70
112,192,124073,2,0,B|112:272,1,70
208,272,124784,6,0,B|440:272|376:360|264:128,1,280
248,104,126561,2,0,B|336:104,1,70
416,104,127271,2,0,B|416:184,1,70
320,184,127982,6,0,B|320:264,1,70
248,184,128693,2,0,B|248:264,1,70
176,184,129403,6,0,B|176:272,1,70
104,184,130114,2,0,B|104:272,1,70
112,352,130825,2,0,B|200:416|216:304|280:424|320:296|392:400,1,280
