osu file format v7

[General]
AudioFilename: Nightcore - Rainbow.mp3
AudioLeadIn: 0
PreviewTime: 44140
Countdown: 0
SampleSet: Soft
StackLeniency: 0.7
Mode: 0
LetterboxInBreaks: 1

[Editor]
DistanceSpacing: 0.800000011920929
BeatDivisor: 2
GridSize: 16

[Metadata]
Title:Rainbow
Artist:Nightcore
Creator:vaguito
Version:Hard
Source:
Tags:koakuma

[Difficulty]
HPDrainRate:3
CircleSize:3
OverallDifficulty:4
SliderMultiplier:1.6
SliderTickRate:2

[Events]
//Background and Video events
0,0,"Sun.jpg"
//Break Periods
2,121527,136336
//Storyboard Layer 0 (Background)
//Storyboard Layer 1 (Fail)
//Storyboard Layer 2 (Pass)
//Storyboard Layer 3 (Foreground)
//Storyboard Sound Samples
//Background Colour Transformations
3,100,163,162,255

[TimingPoints]
218,340.193910529001,4,2,0,100,1,0
45415,-100,4,2,0,100,0,1
67187,-100,4,2,0,100,0,0
98656,-100,4,2,0,100,0,0
99505,-100,4,2,0,100,0,0
99846,-100,4,2,0,100,0,0
109371,-100,4,2,0,100,0,0
109542,-100,4,2,0,100,0,0
110440,-100,4,2,0,100,0,1
110732,-100,4,2,0,100,0,1
120428,-100,4,2,0,100,0,0
137656,-100,4,2,0,100,0,1
160230,-100,4,2,0,100,0,0

[Colours]
Combo1 : 220,197,163
Combo2 : 175,221,254
Combo3 : 165,216,218

[HitObjects]
48,192,558,1,0
256,32,1238,1,0
368,96,1578,1,8
448,160,1918,1,8
368,224,2089,1,8
240,224,2429,2,2,B|256:96|192:72,1,160
144,48,2939,5,0
64,96,3279,1,8
128,176,3449,1,8
368,80,4130,1,0
400,176,4470,1,0
368,272,4640,2,2,B|464:256|480:240,1,80,2|8
128,288,5661,6,8,B|16:304|16:368,2,120
352,176,6851,2,8,B|304:96,1,80
240,0,7362,1,0
192,48,7532,1,0
112,288,8212,1,0
160,256,8382,1,0
288,256,8722,2,0,B|464:256,1,160
256,192,9403,12,0,10593
256,192,11104,5,0
256,192,11444,2,2,B|256:64,6,80
256,320,12805,5,0
384,320,13145,1,0
384,192,13485,2,8,B|288:176|288:224|192:192,1,160
96,192,14165,2,8,B|80:96|192:16,1,160
272,48,14846,1,0
400,48,15186,1,0
400,176,15526,6,8,B|384:272|240:320,1,160
192,224,16207,2,8,B|272:240|344:320,1,160
448,304,16887,1,0
448,176,17227,1,0
368,80,17567,1,0
256,32,17908,1,0
144,96,18248,6,2,B|144:0,2,80
144,224,18928,2,8,B|224:160|368:224,1,160
400,272,19609,2,8,B|320:336|200:272,1,160
192,176,20289,1,0
304,112,20629,1,0
432,112,20969,6,0,B|448:176|416:176|432:304,1,160
304,272,21650,1,0
176,256,21990,1,0
112,144,22330,2,2,B|208:144,6,80,2|2|2|2|2|2|4
112,48,23691,5,8
208,48,23861,1,8
464,48,24541,1,8
464,112,24711,1,8
464,240,25052,1,8
400,240,25222,1,8
144,240,25902,5,8
144,176,26072,1,8
144,48,26412,1,8
208,48,26583,1,8
496,192,27433,1,8
368,192,27773,1,8
240,192,28113,1,8
112,192,28454,1,8
112,320,28794,1,8
240,320,29134,5,8
240,192,29474,1,8
368,176,29814,6,8,B|352:256|400:256|368:368,1,160
256,320,30495,5,0
256,192,30835,1,0
256,64,31175,1,0
384,64,31515,1,0
384,192,31856,2,8,B|176:192,1,160
96,192,32536,5,2
96,256,32706,1,2
96,320,32876,1,2
160,320,33046,1,2
224,320,33216,1,2
288,320,33386,1,2
352,320,33557,1,2
416,320,33727,1,2
416,256,33897,1,2
416,128,34237,5,0
416,0,34577,1,0
288,0,34917,2,8,B|244:74|205:24|149:108,1,160
64,176,35598,2,8,B|96:96|32:96|64:0,1,160
192,32,36278,1,0
288,112,36618,1,0
384,208,36958,2,8,B|400:128|352:128|384:32,1,160
512,48,37639,5,0
400,112,37979,1,0
288,176,38319,1,0
176,240,38659,1,0
48,240,39000,2,8,B|80:160|32:160|48:64,1,160
160,32,39680,1,0
272,80,40020,1,0
192,176,40360,1,0
96,272,40701,5,0
192,352,41041,1,0
304,304,41381,1,0
400,224,41721,1,0
448,112,42061,2,0,B|288:80|288:144|96:112,1,320
48,312,45123,6,8,B|80:216,1,80
128,256,45463,2,8,B|160:160,1,80
208,208,45803,2,8,B|240:112,1,80
256,80,46144,1,2
448,48,46484,6,8,B|416:144,1,80
368,96,46824,2,8,B|336:192,1,80
288,144,47164,2,8,B|256:240,1,80
240,272,47504,1,2
240,144,47845,6,8,B|320:112|320:176|432:144,1,160
400,16,48525,1,0
272,16,48865,1,0
144,16,49205,1,0
144,144,49546,2,0,B|224:112|224:176|320:144,1,160
288,272,50226,5,0
160,272,50566,1,0
32,272,50906,1,0
32,144,51247,1,0
160,144,51587,2,8,B|240:112|240:176|352:144,1,160
448,144,52267,2,8,B|432:224|480:224|448:320,1,160
320,304,52948,1,0
256,192,53118,12,0,54649
48,96,54989,5,8
176,48,55329,1,4
432,32,56009,6,8,B|528:32,1,80
512,96,56349,2,8,B|512:192,1,80
448,176,56690,2,8,B|352:176,1,80
304,176,57030,1,0
176,176,57370,6,8,B|176:80,1,80
176,32,57710,2,8,B|80:32,1,80
96,96,58050,2,8,B|192:96,1,80
240,96,58391,1,0
240,224,58731,6,8,B|320:192|320:256|432:224,1,160
400,96,59411,1,0
272,96,59751,1,0
144,96,60092,1,0
144,224,60432,6,8,B|224:192|224:256|336:224,1,160
432,224,61112,1,0
432,96,61452,1,0
304,96,61793,1,0
176,96,62133,1,0
176,224,62473,2,8,B|256:256|256:192|352:224,1,160
336,96,63153,1,0
464,96,63494,1,0
256,192,63834,12,0,66896
256,192,67236,5,0
256,64,67576,1,0
384,64,67916,1,8
384,128,68086,1,8
384,192,68256,1,8
256,192,68596,5,0
256,320,68937,1,0
384,320,69277,2,8,B|480:320,2,80
384,192,69957,5,0
256,192,70297,1,0
256,64,70638,1,8
320,64,70808,1,8
384,64,70978,1,8
384,192,71318,5,0
256,192,71658,1,0
128,192,71998,2,8,B|32:192,2,80
256,192,72679,5,0
256,320,73019,1,0
384,320,73359,1,8
384,256,73529,1,8
384,192,73699,1,8
256,192,74040,6,8,B|288:272|224:272|256:384,1,160
128,352,74720,1,0
128,224,75060,1,0
128,96,75400,6,8,B|208:64|208:128|304:96,1,160
288,224,76081,1,0
416,224,76421,1,0
416,96,76761,5,0
288,96,77101,1,0
160,96,77442,1,0
160,224,77782,1,4
288,224,78122,2,8,B|320:304|256:304|288:416,1,160
416,384,78802,5,0
416,256,79142,1,0
288,256,79483,2,8,B|208:288|208:224|112:256,1,160
48,160,80163,6,8,B|80:80|16:80|48:-16,1,160
176,0,80843,1,0
176,128,81184,1,0
304,128,81524,1,0
432,128,81864,1,0
432,256,82204,2,8,B|336:224|336:288|256:256,1,160
272,128,82885,1,0
144,128,83225,1,0
464,336,84245,5,0
464,208,84586,1,0
464,80,84926,1,0
336,80,85266,1,0
208,80,85606,2,8,B|240:160|176:160|208:256,1,160,4|8
336,240,86287,1,0
336,368,86627,1,0
208,368,86967,2,8,B|128:336|128:400|16:368,1,160
48,240,87647,2,8,B|16:160|80:160|48:64,1,160
432,96,89008,5,8
176,96,89688,1,8
304,320,90369,1,8
304,192,90709,1,8
304,64,91049,1,8
48,64,91730,5,8
48,320,92410,1,8
304,320,93090,1,8
304,192,93431,1,8
304,64,93771,1,8
48,64,94451,6,2,B|112:128,1,80
192,208,94962,2,2,B|128:272,1,80
240,336,95472,1,0
352,288,95812,2,2,B|288:224,1,80
384,144,96322,2,2,B|448:80,1,80
320,32,96833,5,0
192,32,97173,1,0
192,160,97513,1,0
320,160,97853,2,8,B|320:336,1,160
256,320,98363,2,8,B|80:320,3,160
464,64,100575,5,0
336,64,100915,1,8
48,320,101935,1,0
176,320,102276,1,8
464,64,103296,1,0
336,64,103636,1,8
480,240,104997,6,8,B|-32:240,1,480
0,128,106358,2,8,B|496:128,1,480
256,192,107549,12,0,109080
176,48,109420,6,2,B|304:48,4,80
48,48,110440,1,4
48,176,110781,1,0
176,176,111121,1,0
304,176,111461,6,8,B|336:272|272:272|304:368,1,160
416,336,112141,1,0
416,208,112481,2,8,B|384:128|448:128|416:32,1,160
288,64,113162,1,0
160,64,113502,5,0
160,192,113842,1,0
288,192,114182,2,8,B|320:272|256:272|288:384,1,160
416,352,114863,1,0
416,224,115203,1,0
416,96,115543,1,0
288,96,115883,6,8,B|320:176|256:176|288:272,1,160
272,352,116564,1,0
272,224,116904,2,8,B|512:224,1,160
432,96,117584,2,8,B|240:96,1,160
256,192,118265,12,0,119796
256,192,120136,6,2,B|464:192,3,160
416,192,121327,1,0
416,320,137656,6,8,B|384:224,1,80
336,272,137996,2,8,B|304:176,1,80
256,224,138336,2,8,B|224:128,1,80
208,96,138676,1,2
64,48,139017,6,8,B|96:144,1,80
144,96,139357,2,8,B|176:192,1,80
224,144,139697,2,8,B|256:240,1,80
272,272,140037,1,2
400,272,140377,6,8,B|432:192|368:192|400:80,1,160
272,128,141058,1,0
144,128,141398,1,0
16,128,141738,1,0
16,256,142078,2,8,B|96:288|96:224|192:256,1,160
304,256,142759,5,0
304,128,143099,1,0
432,128,143439,1,0
432,256,143779,1,0
304,256,144120,2,8,B|224:224|224:288|112:256,1,160
16,256,144800,2,8,B|32:176|-16:176|16:80,1,160
144,96,145480,1,0
256,192,145650,12,0,147181
208,96,148542,6,8,B|112:96,1,80
64,96,148882,2,8,B|64:192,1,80
64,240,149222,2,8,B|160:240,1,80
208,240,149563,1,2
336,240,149903,6,8,B|336:144,1,80
400,160,150243,2,8,B|496:160,1,80
480,96,150583,2,8,B|384:96,1,80
336,96,150923,1,2
208,96,151264,6,8,B|128:64|128:128|16:96,1,160
48,224,151944,1,0
176,224,152284,1,0
304,224,152624,1,0
304,352,152965,6,8,B|224:320|224:384|112:352,1,160
144,240,153645,1,0
144,112,153985,1,0
272,112,154325,1,0
400,112,154666,1,0
400,240,155006,2,8,B|320:272|320:208|224:240,1,160
112,240,155686,1,0
112,112,156026,1,0
256,192,156367,12,4,158067
