osu file format v7

[General]
AudioFilename: Nightcore - Rainbow.mp3
AudioLeadIn: 0
PreviewTime: 44140
Countdown: 0
SampleSet: Soft
StackLeniency: 0.7
Mode: 0
LetterboxInBreaks: 1

[Editor]
DistanceSpacing: 0.800000011920929
BeatDivisor: 4
GridSize: 32

[Metadata]
Title:Rainbow
Artist:Nightcore
Creator:vaguito
Version:Hard+
Source:
Tags:koakuma

[Difficulty]
HPDrainRate:6
CircleSize:5
OverallDifficulty:4
SliderMultiplier:1.6
SliderTickRate:2

[Events]
//Background and Video events
0,0,"Rain.jpg"
//Break Periods
2,42771,43803
2,121527,136336
//Storyboard Layer 0 (Background)
//Storyboard Layer 1 (Fail)
//Storyboard Layer 2 (Pass)
//Storyboard Layer 3 (Foreground)
//Storyboard Sound Samples
//Background Colour Transformations
3,100,163,162,255

[TimingPoints]
218,340.193910529001,4,2,0,100,1,0
45123,-100,4,2,0,100,0,1
66895,-100,4,2,0,100,0,0
77782,-100,4,2,0,100,0,0
88158,-100,4,2,0,100,0,0
88668,-100,4,2,0,100,0,0
98364,-100,4,2,0,100,0,0
99213,-100,4,2,0,100,0,0
110440,-100,4,2,0,100,0,1
110781,-100,4,2,0,100,0,1
121327,-100,4,2,0,100,0,0
137655,-100,4,2,0,100,0,1
159938,-100,4,2,0,100,0,0

[Colours]
Combo1 : 220,197,163
Combo2 : 175,221,254
Combo3 : 165,216,218

[HitObjects]
224,256,558,1,0
224,352,898,1,0
320,352,1238,1,0
384,288,1578,1,0
384,192,1918,1,2
352,160,2089,1,8
256,160,2429,2,0,B|240:240|144:288,1,160
128,320,2939,1,0
32,320,3279,5,2
64,288,3449,1,8
64,192,3790,2,0,B|176:224|208:320,1,160
191,283,4300,1,0
192,284,4470,1,0
288,288,4810,5,8
288,192,5150,1,0
288,32,5661,2,8,B|384:32,5,80
192,96,6851,5,0
160,128,7021,1,0
63,161,7362,1,0
64,160,7532,2,8,B|224:112|224:176|416:160,1,320
379,162,8382,1,0
384,256,8722,1,2
416,288,8892,1,8
256,192,9063,12,0,10764
224,192,11104,5,0
224,192,11274,2,2,B|288:192,14,40
128,192,12805,5,0
128,288,13145,1,0
224,288,13485,2,8,B|320:272|320:320|416:288,1,160
480,288,14165,2,8,B|464:160|512:160|480:32,1,240
448,64,14846,1,8
416,96,15016,1,8
374,97,15186,1,0
288,96,15526,6,0,B|320:176|272:176|288:336,1,240
224,320,16207,2,8,B|144:288|144:336|32:320,1,160
32,224,16887,2,0,B|0:144|32:64|160:32,1,240
160,64,17567,1,8
192,96,17737,1,8
224,64,17908,1,8
320,64,18248,6,2,B|320:128,4,40,2|2|2|2|2
416,64,18928,2,8,B|432:128|400:128|416:240,1,160
320,224,19609,2,0,B|240:192|240:240|80:224,1,240
83,225,20289,1,8
84,225,20459,1,8
84,225,20629,1,8
82,129,20969,6,0,B|98:193|66:193|82:321,1,160
192,288,21650,1,0
192,192,21990,1,8
288,192,22330,2,2,B|352:192,12,40
288,128,23606,5,8
288,64,23861,1,8
160,64,24541,1,8
128,96,24711,1,8
128,160,24967,1,8
128,224,25222,1,8
192,320,25902,1,8
224,352,26072,1,8
288,352,26327,1,8
352,352,26583,1,8
352,192,27433,1,8
352,128,27688,1,8
416,128,27943,1,8
480,224,28624,5,8
448,256,28794,1,8
448,320,29049,1,8
384,320,29304,1,8
320,224,29984,1,8
288,192,30155,1,8
288,128,30410,1,8
288,64,30665,1,8
160,64,31345,5,8
128,96,31515,1,8
128,160,31770,1,8
128,224,32026,6,0,B|208:208|208:256|384:224,1,240
448,224,32876,2,0,B|432:144|480:144|448:48,1,160
352,64,33557,2,0,B|272:80|272:32|176:64,1,160
192,160,34237,5,8
288,160,34577,1,0
288,64,34917,2,8,B|208:96|208:32|112:64,1,160
128,160,35598,2,0,B|160:240|96:240|128:336,1,160
224,320,36278,1,8
320,320,36618,1,0
320,224,36958,2,8,B|304:144|352:144|320:48,1,160
224,64,37639,2,0,B|144:80|144:32|48:64,1,160
64,160,38319,2,8,B|160:128|160:176|256:160,1,160
320,160,39000,2,0,B|352:240|304:240|320:336,1,160
318,317,39510,1,0
318,317,39680,1,0
416,320,40020,5,0
448,288,40190,1,8
256,128,40871,1,0
224,96,41041,1,8
320,96,41381,1,8
288,64,41551,1,8
160,64,41891,2,0,B|128:256|352:256,1,320
320,160,45123,6,8,B|320:112,2,40
256,128,45463,2,8,B|256:64,2,40
192,160,45803,2,8,B|192:112,2,40
256,192,46144,1,2
320,288,46484,6,8,B|320:336,2,40
256,320,46824,2,8,B|256:384,2,40
192,288,47164,2,8,B|192:352,2,40
256,256,47504,1,2
256,96,47845,6,0,B|336:64|336:128|448:96,1,160
416,192,48525,1,0
416,288,48865,1,0
320,288,49205,1,0
320,192,49546,2,8,B|240:224|240:160|144:192,1,160
320,96,50226,6,8,B|400:64|400:128|512:96,1,160
320,0,50906,6,8,B|240:-16|240:32|144:0,1,160
64,32,51587,1,8
96,64,51757,1,8
64,96,51927,1,8
64,192,52267,1,0
64,288,52607,2,8,B|144:256|144:320|256:288,1,160
320,288,53288,2,0,B|304:208|352:208|320:112,1,160
416,128,53968,1,0
416,32,54308,1,8
256,192,54478,12,0,55669
288,128,56009,6,8,B|352:128,2,40
320,192,56349,2,8,B|384:192,2,40
288,256,56690,2,8,B|352:256,2,40
256,192,57030,1,2
160,128,57370,6,8,B|96:128,2,40
128,192,57710,2,8,B|64:192,2,40
160,256,58050,2,8,B|96:256,2,40
192,192,58391,1,2
256,96,58731,6,0,B|336:64|336:128|448:96,1,160
416,192,59411,1,0
416,288,59751,1,0
320,288,60092,1,0
164,281,60432,6,8,B|244:249|244:313|356:281,1,160
320,192,61112,6,8,B|240:224|240:160|128:192,1,160
160,96,61793,6,8,B|240:64|240:128|352:96,1,160
416,96,62473,1,8
448,128,62643,1,8
416,160,62813,1,8
416,256,63153,1,0
320,256,63494,2,8,B|352:176|288:176|320:80,1,160
224,96,64174,2,0,B|144:128|144:64|48:96,1,160
64,192,64854,1,8
160,192,65195,1,8
256,192,65365,12,0,66896
256,192,67236,5,0
256,128,67406,1,0
256,128,67491,1,0
352,128,67746,1,8
384,160,67916,1,8
352,192,68086,1,8
384,224,68256,1,8
256,192,68596,5,0
256,256,68767,1,0
256,256,68852,1,0
288,320,69107,2,8,B|320:352,2,40
224,320,69447,2,8,B|192:352,2,40
256,192,69957,5,0
192,192,70127,1,0
192,192,70212,1,0
128,96,70468,1,8
160,64,70638,1,8
192,96,70808,1,8
224,64,70978,1,8
256,192,71318,5,0
320,192,71488,1,0
320,192,71573,1,0
384,160,71828,2,8,B|416:128,2,40
384,224,72169,2,8,B|416:256,2,40
256,192,72679,5,0
192,192,72849,1,0
192,192,72934,1,0
96,256,73189,1,8
64,224,73359,1,8
96,192,73529,1,8
64,160,73699,1,8
192,128,74040,6,2,B|272:96|272:160|384:128,1,160
448,128,74720,6,2,B|416:208|480:208|448:304,1,160
352,288,75400,6,2,B|272:320|272:256|176:288,1,160
192,192,76081,6,2,B|160:112|224:112|192:16,1,160
96,32,76761,5,0
96,128,77101,1,0
96,224,77442,1,0
96,320,77782,5,4
160,320,77952,2,8,B|224:320,2,40
160,320,78292,2,8,B|160:384,2,40
160,224,78802,2,0,B|240:192|240:256|352:224,1,160
384,224,79313,2,8,B|448:224,2,40
384,224,79653,2,8,B|384:288,2,40
384,128,80163,5,0
288,128,80503,1,0
224,128,80673,2,8,B|224:64,2,40
224,128,81014,2,8,B|160:128,2,40
224,224,81524,2,0,B|224:320,2,80
288,224,82034,2,8,B|352:224,2,40
288,224,82374,2,8,B|288:160,2,40
288,288,82715,5,8
320,320,82885,1,8
352,352,83055,1,8
480,352,83565,1,0
480,256,83905,1,0
384,256,84245,2,8,B|304:288|304:224|208:256,1,160
224,160,84926,1,0
224,64,85266,1,0
128,64,85606,6,8,B|160:144|96:144|128:240,1,160
224,224,86287,2,0,B|256:128|192:128|224:48,1,160
320,64,86967,1,8
416,64,87307,1,8
416,160,87647,1,0
416,256,87988,1,0
416,320,88158,2,2,B|480:320,6,40
320,320,89008,5,0
224,320,89348,1,0
224,224,89688,2,8,B|144:192|144:256|32:224,1,160
64,128,90369,2,0,B|96:208|32:208|64:304,1,160
160,288,91049,1,8
256,288,91389,1,8
352,288,91730,2,0,B|320:208|384:208|352:112,1,160
352,32,92410,1,8
256,32,92750,1,8
160,32,93090,1,0
160,128,93431,1,0
160,224,93771,6,0,B|256:224,1,80
240,224,94111,1,8
320,224,94451,1,0
416,224,94791,1,0
416,128,95132,1,0
416,128,95302,2,8,B|320:128,1,80
320,32,95812,2,0,B|240:64|240:0|144:32,1,160
160,128,96492,6,0,B|192:208|128:208|160:320,1,160
256,288,97173,1,8
352,288,97513,1,8
352,192,97853,1,0
256,192,98193,1,0
192,192,98363,2,2,B|192:256,10,40
192,96,99554,6,8,B|288:96,3,80
384,96,100575,1,0
384,192,100915,2,8,B|288:192,3,80
192,192,101935,1,0
192,96,102276,2,8,B|192:0,3,80
448,32,103636,5,0
448,128,103977,1,0
448,224,104317,1,0
448,320,104657,1,0
352,320,104997,2,8,B|160:144,1,240
160,320,106358,2,8,B|352:144,1,240
256,192,107549,12,0,109080
256,192,109250,6,2,B|256:128,4,40
256,192,109760,6,8,B|352:192,4,80
160,192,110781,5,0
64,192,111121,1,0
64,288,111461,1,8
160,288,111801,2,0,B|256:256|256:320|352:288,1,160
320,192,112481,2,0,B|288:112|352:112|320:16,1,160
416,32,113162,1,8
416,96,113332,2,8,B|352:96,2,40
416,96,113672,2,8,B|480:96,2,40
416,192,114182,5,0
416,288,114523,1,8
416,352,114693,2,8,B|480:352,2,40
416,352,115033,2,8,B|352:352,2,40
288,352,115543,1,8
256,320,115713,1,8
224,352,115883,5,8
128,352,116224,1,0
128,256,116564,2,0,B|96:176|160:176|128:64,1,160
224,96,117244,2,8,B|256:176|192:176|224:272,1,160
218,252,117754,1,8
320,256,118095,1,0
256,192,118435,12,0,119796
256,192,120136,6,2,B|256:128,12,40
256,192,121327,5,0
256,128,137656,5,0
256,64,137826,2,8,B|256:0,2,40
256,64,138166,2,8,B|192:64,2,40
352,64,138676,1,0
448,64,139017,1,0
448,128,139187,2,8,B|512:128,2,40
448,128,139527,2,8,B|448:192,2,40
352,128,140037,5,0
352,224,140377,1,0
352,288,140547,2,8,B|416:288,2,40
352,288,140888,2,8,B|352:352,2,40
256,288,141398,1,0
160,288,141738,1,0
160,192,142078,6,8,B|240:160|240:224|352:192,1,160
320,96,142759,1,0
416,96,143099,1,0
416,192,143439,2,8,B|336:224|336:160|224:192,1,160
160,192,144120,2,0,B|192:112|128:112|160:16,1,160
256,32,144800,1,8
288,64,144970,1,8
288,160,145310,1,0
256,192,145650,12,0,147181
256,192,148542,5,0
256,96,148882,1,0
352,96,149222,1,8
448,96,149563,2,0,B|480:176|416:176|448:272,1,160
448,320,150073,2,8,B|512:320,2,40
448,320,150413,2,8,B|384:320,2,40
448,224,150923,1,0
448,160,151264,1,0
448,96,151434,2,8,B|512:96,2,40
448,96,151774,2,8,B|448:32,2,40
352,96,152284,5,0
352,192,152624,1,0
256,192,152965,1,0
256,288,153305,2,8,B|336:240|336:320|448:288,1,160
384,96,153985,2,8,B|320:128|320:48|208:96,1,160
231,87,154495,1,8
230,88,154666,1,8
128,96,155006,5,0
96,128,155176,1,0
64,160,155346,1,0
64,256,155686,1,8
32,288,155856,1,8
128,288,156196,2,0,B|208:256|208:320|320:288,1,160
256,192,156877,6,8,B|320:192,2,40
256,192,157217,2,8,B|192:192,2,40
256,192,157557,2,8,B|256:128,2,40
256,272,157897,1,0
256,320,158067,1,0
256,192,158238,12,4,159939
