osu file format v14

[General]
AudioFilename: Nightcore - Not Over [HQ] (ConfusedGamer69).mp3
AudioLeadIn: 0
PreviewTime: -1
Countdown: 1
SampleSet: Soft
StackLeniency: 0.7
Mode: 0
LetterboxInBreaks: 1
WidescreenStoryboard: 1

[Editor]
DistanceSpacing: 0.8
BeatDivisor: 4
GridSize: 16
TimelineZoom: 2.799999

[Metadata]
Title:Not Over (HQ)
TitleUnicode:Not Over (HQ)
Artist:Nightcore
ArtistUnicode:Nightcore
Creator:Sakyu Neko
Version:Normal
Source:
Tags:Nightcore
BeatmapID:1028219
BeatmapSetID:481813

[Difficulty]
HPDrainRate:4
CircleSize:4
OverallDifficulty:4
ApproachRate:4
SliderMultiplier:1.2
SliderTickRate:2

[Events]
//Background and Video events
0,0,"cute_unifrom_anime_girl_kawaii_hd_wallpaper_164886_by_blaria95-d9gv7sl.jpg",0,0
//Break Periods
//Storyboard Layer 0 (Background)
//Storyboard Layer 1 (Fail)
//Storyboard Layer 2 (Pass)
//Storyboard Layer 3 (Foreground)
//Storyboard Sound Samples

[TimingPoints]
1629,352.941176470588,4,2,0,80,1,0

[Colours]
Combo1 : 202,255,255
Combo2 : 174,49,242
Combo3 : 79,174,172
Combo4 : 13,18,240
Combo5 : 122,175,254

[HitObjects]
80,224,5599,5,0,0:0:0:0:
160,192,6305,1,0,0:0:0:0:
160,192,6746,1,0,0:0:0:0:
224,192,7011,1,0,0:0:0:0:
320,240,7628,1,0,0:0:0:0:
320,240,7981,1,0,0:0:0:0:
368,208,8334,1,0,0:0:0:0:
144,304,9746,1,0,0:0:0:0:
224,224,11334,1,0,0:0:0:0:
352,256,11776,1,0,0:0:0:0:
352,256,12040,1,0,0:0:0:0:
384,224,12393,1,0,0:0:0:0:
176,208,13099,1,0,0:0:0:0:
176,208,13628,1,0,0:0:0:0:
304,256,14334,1,0,0:0:0:0:
432,304,14776,1,0,0:0:0:0:
480,288,15128,1,0,0:0:0:0:
464,192,15923,1,0,0:0:0:0:
272,176,16805,1,0,0:0:0:0:
160,256,17246,1,0,0:0:0:0:
160,256,17511,1,0,0:0:0:0:
320,272,17864,1,0,0:0:0:0:
416,224,18658,1,0,0:0:0:0:
416,224,19099,1,0,0:0:0:0:
416,224,19276,1,0,0:0:0:0:
224,224,20423,1,0,0:0:0:0:
224,224,20599,1,0,0:0:0:0:
224,208,20776,1,0,0:0:0:0:
128,288,22187,2,0,P|64:224|112:160,2,180
128,144,23070,2,0,L|320:80,1,180
400,128,24305,2,0,P|448:176|400:224,3,150
128,192,25364,1,0,0:0:0:0:
128,192,25717,1,0,0:0:0:0:
320,224,26246,1,0,0:0:0:0:
400,240,26776,1,0,0:0:0:0:
272,320,27393,1,0,0:0:0:0:
112,336,27923,2,0,P|32:192|224:96,3,420
368,160,31187,1,0,0:0:0:0:
368,160,31628,1,0,0:0:0:0:
208,192,32511,1,0,0:0:0:0:
208,192,32864,1,0,0:0:0:0:
208,192,33128,1,0,0:0:0:0:
176,336,33570,6,0,L|64:224|64:224,3,150
176,192,34805,2,0,L|256:144,1,90
320,128,35599,6,0,P|432:144|432:240,1,210
128,128,38864,1,0,0:0:0:0:
224,144,39393,1,0,0:0:0:0:
224,144,39570,1,0,0:0:0:0:
224,144,39746,1,0,0:0:0:0:
400,224,40276,1,0,0:0:0:0:
224,288,40893,1,0,0:0:0:0:
224,288,41070,1,0,0:0:0:0:
144,288,42923,2,0,L|288:160,3,180
128,192,44246,2,0,P|112:128|240:64,1,210
256,224,44776,2,0,L|400:288,5,150
112,144,46364,1,0,0:0:0:0:
112,144,46540,1,0,0:0:0:0:
352,208,47158,1,0,0:0:0:0:
352,208,47246,1,0,0:0:0:0:
352,208,47334,1,0,0:0:0:0:
208,272,47952,1,0,0:0:0:0:
224,192,48658,1,0,0:0:0:0:
96,272,48834,2,0,L|176:240,1,60
240,208,49099,2,0,L|352:112,7,120
128,208,51128,2,0,L|208:208,1,60
192,240,52099,6,0,L|304:160,6,120
112,176,54128,1,0,0:0:0:0:
144,288,55099,2,0,L|304:160,4,180
128,192,57658,1,0,0:0:0:0:
128,192,57923,1,0,0:0:0:0:
320,272,58276,1,0,0:0:0:0:
320,272,58540,1,0,0:0:0:0:
464,144,59070,1,0,0:0:0:0:
288,144,59599,1,0,0:0:0:0:
288,144,59687,1,0,0:0:0:0:
112,304,59952,6,0,L|192:224,1,90
256,192,60305,2,0,P|384:192|400:224,5,180
128,256,62334,2,0,L|272:176,2,150
288,176,63128,2,0,L|416:288,4,150
112,256,64540,2,0,L|192:160,3,120
144,224,68511,1,0,0:0:0:0:
144,224,68687,1,0,0:0:0:0:
144,224,68952,1,0,0:0:0:0:
336,240,69217,1,0,0:0:0:0:
192,336,69834,1,0,0:0:0:0:
192,336,70187,1,0,0:0:0:0:
192,320,70540,1,0,0:0:0:0:
176,320,70893,1,0,0:0:0:0:
160,304,71158,1,0,0:0:0:0:
240,208,71511,1,0,0:0:0:0:
240,208,71776,1,0,0:0:0:0:
368,208,72217,1,0,0:0:0:0:
352,304,72658,1,0,0:0:0:0:
304,304,72923,1,0,0:0:0:0:
224,288,73276,1,0,0:0:0:0:
176,288,73628,1,0,0:0:0:0:
128,240,73717,1,0,0:0:0:0:
192,176,74158,1,0,0:0:0:0:
192,176,74334,1,0,0:0:0:0:
192,176,74511,1,0,0:0:0:0:
320,176,74864,1,0,0:0:0:0:
176,272,75128,2,0,B|144:176|240:128|288:128,5,210
416,224,77158,2,0,P|176:208|48:208,2,360
112,176,79981,1,0,0:0:0:0:
112,176,80334,1,0,0:0:0:0:
112,176,80687,1,0,0:0:0:0:
304,256,81040,1,0,0:0:0:0:
304,256,81305,1,0,0:0:0:0:
384,192,81923,1,0,0:0:0:0:
384,192,82187,1,0,0:0:0:0:
240,176,82628,1,0,0:0:0:0:
240,176,82805,1,0,0:0:0:0:
96,192,83158,1,0,0:0:0:0:
96,192,83334,1,0,0:0:0:0:
208,256,83776,1,0,0:0:0:0:
208,256,84040,1,0,0:0:0:0:
288,304,84393,1,0,0:0:0:0:
368,224,84746,1,0,0:0:0:0:
112,240,84834,2,0,L|288:128,5,180
320,160,87040,2,0,L|464:304,6,180
112,176,90217,1,0,0:0:0:0:
112,176,90570,1,0,0:0:0:0:
272,176,90923,1,0,0:0:0:0:
272,176,91187,1,0,0:0:0:0:
272,176,91452,1,0,0:0:0:0:
320,288,91893,2,0,L|496:160,3,210
80,176,93746,1,0,0:0:0:0:
80,176,94011,1,0,0:0:0:0:
224,224,94364,1,0,0:0:0:0:
368,240,94717,1,0,0:0:0:0:
368,320,94981,1,0,0:0:0:0:
240,320,95246,1,0,0:0:0:0:
176,256,95599,1,0,0:0:0:0:
176,192,95864,1,0,0:0:0:0:
320,160,96128,1,0,0:0:0:0:
320,160,96305,1,0,0:0:0:0:
416,224,96570,1,0,0:0:0:0:
416,224,97011,1,0,0:0:0:0:
144,240,97452,1,0,0:0:0:0:
128,208,97717,1,0,0:0:0:0:
160,160,97981,1,0,0:0:0:0:
224,144,98246,1,0,0:0:0:0:
288,192,98599,1,0,0:0:0:0:
320,288,98952,1,0,0:0:0:0:
320,288,99128,1,0,0:0:0:0:
416,288,99393,1,0,0:0:0:0:
416,288,99570,1,0,0:0:0:0:
160,192,100276,1,0,0:0:0:0:
336,192,100717,1,0,0:0:0:0:
336,192,100893,1,0,0:0:0:0:
176,288,101158,2,0,P|48:160|144:112,2,330
192,160,103011,1,0,0:0:0:0:
192,160,103276,1,0,0:0:0:0:
336,240,103628,1,0,0:0:0:0:
336,240,103805,1,0,0:0:0:0:
336,240,104158,1,0,0:0:0:0:
160,288,104423,1,0,0:0:0:0:
160,288,104599,1,0,0:0:0:0:
96,176,105040,1,0,0:0:0:0:
80,176,105217,1,0,0:0:0:0:
96,288,106628,2,0,P|224:144|208:112,2,240
320,112,108040,2,0,P|160:208|272:256,2,390
464,256,110158,1,0,0:0:0:0:
272,336,110334,1,0,0:0:0:0:
144,288,110687,1,0,0:0:0:0:
144,208,110952,1,0,0:0:0:0:
256,128,111393,1,0,0:0:0:0:
352,144,111658,1,0,0:0:0:0:
336,224,112011,1,0,0:0:0:0:
224,272,112540,1,0,0:0:0:0:
112,224,115893,1,0,0:0:0:0:
320,224,116070,1,0,0:0:0:0:
448,224,116776,1,0,0:0:0:0:
384,160,117393,1,0,0:0:0:0:
144,192,118628,1,0,0:0:0:0:
208,256,119334,1,0,0:0:0:0:
272,256,119952,1,0,0:0:0:0:
112,224,120393,5,0,0:0:0:0:
224,272,120834,1,0,0:0:0:0:
352,256,121364,1,0,0:0:0:0:
272,192,121981,1,0,0:0:0:0:
160,192,122511,1,0,0:0:0:0:
144,256,123305,1,0,0:0:0:0:
128,288,123658,2,0,P|80:192|224:112,4,300
144,160,127099,1,0,0:0:0:0:
208,224,127540,1,0,0:0:0:0:
240,256,127893,1,0,0:0:0:0:
336,288,128070,1,0,0:0:0:0:
352,288,128423,1,0,0:0:0:0:
352,288,128776,1,0,0:0:0:0:
352,288,129128,1,0,0:0:0:0:
160,304,129393,2,0,P|48:208|112:112,4,270
112,160,132217,1,0,0:0:0:0:
192,208,132746,1,0,0:0:0:0:
240,272,133187,1,0,0:0:0:0:
400,272,133717,1,0,0:0:0:0:
400,272,134334,1,0,0:0:0:0:
400,256,134599,1,0,0:0:0:0:
160,288,135040,2,0,P|96:224|144:128,1,210
224,128,135658,2,0,L|336:80,1,120
416,144,136011,2,0,B|480:224|368:320|368:352|208:336,4,360
112,144,140158,1,0,0:0:0:0:
112,144,140334,1,0,0:0:0:0:
272,224,140776,1,0,0:0:0:0:
272,224,140952,1,0,0:0:0:0:
176,288,141393,1,0,0:0:0:0:
176,288,141658,1,0,0:0:0:0:
336,144,142187,1,0,0:0:0:0:
336,144,142364,1,0,0:0:0:0:
336,144,142540,1,0,0:0:0:0:
336,144,142717,1,0,0:0:0:0:
144,288,145276,2,0,P|80:160|256:32,3,390
256,128,148452,1,0,0:0:0:0:
256,128,148628,1,0,0:0:0:0:
240,240,149070,1,0,0:0:0:0:
80,256,149511,1,0,0:0:0:0:
80,256,149687,1,0,0:0:0:0:
368,288,150040,1,0,0:0:0:0:
368,288,150305,1,0,0:0:0:0:
208,304,150481,2,0,P|96:192|352:208,2,630
128,288,153570,6,0,L|240:192,1,120
272,192,153923,2,0,L|448:320,3,210
64,272,155070,2,0,L|176:176,3,120
192,128,156393,1,0,0:0:0:0:
352,208,157099,1,0,0:0:0:0:
352,208,157364,1,0,0:0:0:0:
176,272,157981,1,0,0:0:0:0:
208,192,158511,1,0,0:0:0:0:
208,192,158687,1,0,0:0:0:0:
144,272,158952,2,0,P|160:64|352:320,1,780
96,160,161246,1,0,0:0:0:0:
96,160,161334,1,0,0:0:0:0:
240,240,161511,1,0,0:0:0:0:
240,240,161864,1,0,0:0:0:0:
144,288,162040,2,0,P|224:208|240:208,1,120
304,208,162305,2,0,L|464:336,3,180
224,208,164158,1,0,0:0:0:0:
112,288,164599,2,0,L|208:224,1,90
288,160,164952,2,0,L|416:304,4,180
240,192,167334,1,0,0:0:0:0:
240,192,167511,1,0,0:0:0:0:
240,192,167599,1,0,0:0:0:0:
96,272,168217,1,0,0:0:0:0:
96,272,168481,1,0,0:0:0:0:
256,320,168570,1,0,0:0:0:0:
448,288,169099,1,0,0:0:0:0:
416,208,169452,1,0,0:0:0:0:
304,144,169628,1,0,0:0:0:0:
192,144,170070,1,0,0:0:0:0:
192,256,170423,1,0,0:0:0:0:
192,256,170511,1,0,0:0:0:0:
272,304,170776,1,0,0:0:0:0:
272,304,171040,1,0,0:0:0:0:
144,304,171570,2,0,P|96:176|224:80,2,300
272,192,173334,1,0,0:0:0:0:
272,192,173511,1,0,0:0:0:0:
272,192,173776,1,0,0:0:0:0:
128,240,174393,1,0,0:0:0:0:
192,304,174658,1,0,0:0:0:0:
288,304,174834,1,0,0:0:0:0:
336,256,175187,1,0,0:0:0:0:
352,192,175540,1,0,0:0:0:0:
192,160,176070,1,0,0:0:0:0:
272,208,176423,1,0,0:0:0:0:
272,208,176599,1,0,0:0:0:0:
288,320,176776,2,0,P|432:192|368:96,2,330
96,144,178981,1,0,0:0:0:0:
96,144,179070,1,0,0:0:0:0:
304,192,179334,1,0,0:0:0:0:
304,192,179511,1,0,0:0:0:0:
176,320,180040,1,0,0:0:0:0:
176,320,180217,1,0,0:0:0:0:
320,320,180658,1,0,0:0:0:0:
320,320,180834,1,0,0:0:0:0:
192,208,181452,1,0,0:0:0:0:
192,208,181717,1,0,0:0:0:0:
192,208,181981,1,0,0:0:0:0:
192,208,182246,1,0,0:0:0:0:
192,208,182423,1,0,0:0:0:0:
336,192,182864,1,0,0:0:0:0:
320,288,183393,1,0,0:0:0:0:
256,192,183923,12,0,185246,0:0:0:0:
80,160,185687,5,0,0:0:0:0:
80,160,185864,1,0,0:0:0:0:
240,224,186128,1,0,0:0:0:0:
240,224,186305,1,0,0:0:0:0:
336,256,186834,1,0,0:0:0:0:
336,256,187011,1,0,0:0:0:0:
368,192,187540,1,0,0:0:0:0:
368,192,187628,1,0,0:0:0:0:
176,288,187981,2,0,P|112:208|176:64,2,270
80,288,189305,2,0,L|160:224,1,90
192,224,189570,2,0,L|288:192,1,90
352,208,189746,2,0,L|432:272|432:272,1,90
192,160,190364,1,0,0:0:0:0:
80,288,192481,2,0,L|176:224,1,90
240,224,192834,6,0,L|352:224,1,90
416,256,193099,2,0,L|464:336,1,90
224,192,195570,5,0,0:0:0:0:
144,256,196540,1,0,0:0:0:0:
256,288,197246,1,0,0:0:0:0:
320,224,197952,1,0,0:0:0:0:
240,192,198658,1,0,0:0:0:0:
256,192,199011,12,0,201746,0:0:0:0:
336,224,204481,5,0,0:0:0:0:
