osu file format v13

[General]
AudioFilename: Nightcore - Make A Move.mp3
AudioLeadIn: 0
PreviewTime: 39505
Countdown: 0
SampleSet: Normal
StackLeniency: 0.7
Mode: 3
LetterboxInBreaks: 0
SpecialStyle: 0
WidescreenStoryboard: 1

[Editor]
DistanceSpacing: 1.2
BeatDivisor: 4
GridSize: 4
TimelineZoom: 0.9999996

[Metadata]
Title:Nightcore - Make A Move
TitleUnicode:Nightcore - Make A Move
Artist:
ArtistUnicode:
Creator:mike91lau
Version:4K SHD
Source:
Tags:mania
BeatmapID:500840
BeatmapSetID:206778

[Difficulty]
HPDrainRate:8.5
CircleSize:4
OverallDifficulty:8.5
ApproachRate:5
SliderMultiplier:1.4
SliderTickRate:1

[Events]
//Background and Video events
0,0,"45423807.jpg",0,0
//Break Periods
//Storyboard Layer 0 (Background)
//Storyboard Layer 1 (Fail)
//Storyboard Layer 2 (Pass)
//Storyboard Layer 3 (Foreground)
//Storyboard Sound Samples
Sample,10172,0,"drum_cabasa.wav",15
Sample,11357,0,"drum_cabasa.wav",15
Sample,12542,0,"drum_cabasa.wav",15
Sample,13727,0,"drum_cabasa.wav",15
Sample,14912,0,"drum_cabasa.wav",15
Sample,16098,0,"drum_cabasa.wav",15
Sample,17283,0,"drum_cabasa.wav",15
Sample,26246,0,"drum_openhh.wav",15
Sample,26838,0,"drum_openhh.wav",15
Sample,27431,0,"drum_openhh.wav",20
Sample,34764,0,"drum_snare.wav",10
Sample,59505,0,"drum_cabasa.wav",15
Sample,60542,0,"drum_cabasa.wav",15
Sample,61875,0,"drum_cabasa.wav",15
Sample,62912,0,"drum_cabasa.wav",15
Sample,64246,0,"drum_cabasa.wav",15
Sample,65283,0,"drum_cabasa.wav",15
Sample,65875,0,"drum_openhh.wav",20
Sample,111579,0,"drum_openhh.wav",8
Sample,112172,0,"drum_openhh.wav",8
Sample,112764,0,"drum_openhh.wav",8
Sample,113357,0,"drum_openhh.wav",8
Sample,113949,0,"drum_openhh.wav",8
Sample,114542,0,"drum_openhh.wav",8
//Background Colour Transformations
3,100,163,162,255

[TimingPoints]
987,296.296296296296,4,1,0,100,1,0
27061,-111.111111111111,4,1,0,100,0,0
28246,-90.9090909090909,4,1,0,100,0,0
30616,-95.2380952380952,4,1,0,100,0,0
39505,-111.111111111111,4,1,0,100,0,0
40098,-95.2380952380952,4,1,0,100,0,1
48986,-100,4,1,0,100,0,0
51949,-95.2380952380952,4,1,0,100,0,0
58468,-105.263157894737,4,1,0,100,0,0
59061,-95.2380952380952,4,1,0,100,0,0
66172,-90.9090909090909,4,1,0,100,0,0
68542,-95.2380952380952,4,1,0,100,0,0
79801,-111.111111111111,4,1,0,100,0,0
80394,-95.2380952380952,4,1,0,100,0,1
88986,-100,4,1,0,100,0,0
98764,-200,4,1,0,100,0,0
98838,-100,4,1,0,100,0,0
98912,-200,4,1,0,100,0,0
98986,-100,4,1,0,100,0,0
99061,-200,4,1,0,100,0,0
99209,-100,4,1,0,100,0,0
101135,-200,4,1,0,100,0,0
101209,-100,4,1,0,100,0,0
101283,-200,4,1,0,100,0,0
101357,-100,4,1,0,100,0,0
101431,-200,4,1,0,100,0,0
101579,-100,4,1,0,100,0,0
103505,-200,4,1,0,100,0,0
103579,-100,4,1,0,100,0,0
103653,-200,4,1,0,100,0,0
103727,-100,4,1,0,100,0,0
103801,-200,4,1,0,100,0,0
103949,-100,4,1,0,100,0,0
105875,-200,4,1,0,100,0,0
105949,-100,4,1,0,100,0,0
106024,-200,4,1,0,100,0,0
106098,-100,4,1,0,100,0,0
106172,-200,4,1,0,100,0,0
106320,-100,4,1,0,100,0,0
115949,-83.3333333333333,4,1,0,100,0,0
116246,-500,4,1,0,100,0,0
117135,-83.3333333333333,4,1,0,100,0,0
117431,-500,4,1,0,100,0,0
118320,-95.2380952380952,4,1,0,100,0,0
129579,-100,4,1,0,100,0,0
130172,-95.2380952380952,4,1,0,100,0,1
138764,-100,4,1,0,100,0,0
139653,-105.263157894737,4,1,0,100,0,0

[HitObjects]
64,192,8394,5,0,0:0:0:10:drum_kick.wav
320,192,8394,1,0,0:0:0:10:drum_kick.wav
192,192,8468,1,0,0:0:0:10:drum_closehh.wav
320,192,8542,1,0,0:0:0:10:drum_closehh.wav
448,192,8690,1,0,0:0:0:10:drum_kick.wav
192,192,8690,1,0,0:0:0:10:drum_kick.wav
320,192,8764,1,0,0:0:0:10:drum_closehh.wav
192,192,8838,1,0,0:0:0:10:drum_closehh.wav
448,192,8986,1,0,0:0:0:10:drum_kick.wav
64,192,8986,1,0,0:0:0:10:drum_kick.wav
192,192,9061,1,0,0:0:0:10:drum_closehh.wav
320,192,9135,1,0,0:0:0:10:drum_closehh.wav
64,192,9283,1,0,0:0:0:10:drum_kick.wav
448,192,9283,1,0,0:0:0:10:drum_kick.wav
192,192,9431,1,0,0:0:0:10:drum_closehh.wav
448,192,9431,1,0,0:0:0:10:drum_kick.wav
64,192,9579,1,0,0:0:0:10:drum_kick.wav
448,192,9579,1,0,0:0:0:10:drum_kick.wav
64,192,9727,1,0,0:0:0:10:drum_kick.wav
320,192,9727,1,0,0:0:0:8:drum_closehh.wav
192,192,9875,1,0,0:0:0:10:drum_snare.wav
448,192,9875,1,0,0:0:0:10:drum_openhh.wav
320,192,9949,1,0,0:0:0:10:drum_closehh.wav
64,192,10024,1,0,0:0:0:8:drum_closehh.wav
320,192,10098,1,0,0:0:0:10:drum_closehh.wav
192,192,10172,1,0,0:0:0:10:drum_kick.wav
64,192,10172,1,0,0:0:0:10:drum_kick.wav
448,192,10246,1,0,0:0:0:8:drum_closehh.wav
64,192,10320,1,0,0:0:0:8:drum_closehh.wav
192,192,10394,1,0,0:0:0:8:drum_closehh.wav
448,192,10468,1,0,0:0:0:10:drum_kick.wav
320,192,10468,1,0,0:0:0:10:drum_kick.wav
192,192,10616,1,0,0:0:0:10:drum_kick.wav
320,192,10616,1,0,0:0:0:10:drum_closehh.wav
64,192,10764,1,0,0:0:0:10:drum_kick.wav
192,192,10764,1,0,0:0:0:10:drum_kick.wav
192,192,10912,1,0,0:0:0:10:drum_closehh.wav
320,192,10912,1,0,0:0:0:10:drum_kick.wav
448,192,11061,1,0,0:0:0:10:drum_snare.wav
64,192,11061,1,0,0:0:0:10:drum_openhh.wav
192,192,11135,1,0,0:0:0:10:drum_closehh.wav
64,192,11209,1,0,0:0:0:10:drum_closehh.wav
320,192,11283,1,0,0:0:0:10:drum_closehh.wav
64,192,11357,1,0,0:0:0:10:drum_cabasa.wav
448,192,11357,1,0,0:0:0:10:drum_kick.wav
320,192,11431,1,0,0:0:0:10:drum_closehh.wav
448,192,11505,1,0,0:0:0:10:drum_closehh.wav
192,192,11579,1,0,0:0:0:10:drum_closehh.wav
64,192,11653,1,0,0:0:0:10:drum_kick.wav
320,192,11653,1,0,0:0:0:10:drum_kick.wav
192,192,11727,1,0,0:0:0:10:drum_closehh.wav
448,192,11801,1,0,0:0:0:10:drum_closehh.wav
320,192,11949,1,0,0:0:0:10:drum_kick.wav
192,192,11949,1,0,0:0:0:10:drum_kick.wav
64,192,12024,1,0,0:0:0:10:drum_closehh.wav
448,192,12098,1,0,0:0:0:10:drum_closehh.wav
64,192,12246,1,0,0:0:0:10:drum_openhh.wav
192,192,12246,1,0,0:0:0:10:drum_snare.wav
320,192,12320,1,0,0:0:0:10:drum_closehh.wav
448,192,12394,1,0,0:0:0:10:drum_closehh.wav
448,192,12542,1,0,0:0:0:10:drum_kick.wav
320,192,12542,1,0,0:0:0:10:drum_kick.wav
192,192,12616,1,0,0:0:0:10:drum_closehh.wav
64,192,12690,1,0,0:0:0:10:drum_closehh.wav
192,192,12838,1,0,0:0:0:10:drum_kick.wav
448,192,12838,1,0,0:0:0:10:drum_kick.wav
320,192,12912,1,0,0:0:0:10:drum_closehh.wav
448,192,12986,1,0,0:0:0:10:drum_closehh.wav
192,192,13061,1,0,0:0:0:10:drum_closehh.wav
64,192,13135,1,0,0:0:0:10:drum_kick.wav
320,192,13135,1,0,0:0:0:10:drum_kick.wav
192,192,13209,1,0,0:0:0:10:drum_closehh.wav
64,192,13283,1,0,0:0:0:10:drum_closehh.wav
192,192,13357,1,0,0:0:0:10:drum_closehh.wav
320,192,13431,1,0,0:0:0:10:drum_closehh.wav
448,192,13431,1,0,0:0:0:10:drum_openhh.wav
64,192,13505,1,0,0:0:0:10:drum_closehh.wav
192,192,13579,1,0,0:0:0:10:drum_closehh.wav
320,192,13653,1,0,0:0:0:10:drum_closehh.wav
64,192,13727,1,0,0:0:0:10:drum_cabasa.wav
448,192,13727,1,0,0:0:0:10:drum_cabasa.wav
192,192,13801,1,0,0:0:0:10:drum_closehh.wav
320,192,13875,1,0,0:0:0:10:drum_closehh.wav
192,192,13949,1,0,0:0:0:10:drum_closehh.wav
64,192,14024,1,0,0:0:0:10:drum_kick.wav
448,192,14024,1,0,0:0:0:10:drum_kick.wav
192,192,14172,1,0,0:0:0:10:drum_closehh.wav
320,192,14246,1,0,0:0:0:10:drum_closehh.wav
64,192,14320,1,0,0:0:0:10:drum_kick.wav
448,192,14320,1,0,0:0:0:10:drum_kick.wav
192,192,14468,1,0,0:0:0:10:drum_closehh.wav
448,192,14542,1,0,0:0:0:10:drum_closehh.wav
192,192,14616,1,0,0:0:0:10:drum_openhh.wav
64,192,14616,1,0,0:0:0:10:drum_snare.wav
448,192,14764,1,0,0:0:0:10:drum_closehh.wav
64,192,14838,1,0,0:0:0:10:drum_closehh.wav
192,192,14912,1,0,0:0:0:10:drum_kick.wav
320,192,14912,1,0,0:0:0:10:drum_kick.wav
64,192,15061,1,0,0:0:0:10:drum_closehh.wav
192,192,15135,1,0,0:0:0:10:drum_closehh.wav
448,192,15209,1,0,0:0:0:10:drum_kick.wav
320,192,15209,1,0,0:0:0:10:drum_kick.wav
320,192,15357,1,0,0:0:0:10:drum_closehh.wav
192,192,15431,1,0,0:0:0:10:drum_closehh.wav
448,192,15505,1,0,0:0:0:10:drum_kick.wav
64,192,15505,1,0,0:0:0:10:drum_kick.wav
192,192,15653,1,0,0:0:0:10:drum_closehh.wav
448,192,15727,1,0,0:0:0:10:drum_closehh.wav
320,192,15801,1,0,0:0:0:10:drum_openhh.wav
64,192,15801,1,0,0:0:0:10:drum_closehh.wav
448,192,15949,1,0,0:0:0:10:drum_closehh.wav
192,192,15949,1,0,0:0:0:10:drum_kick.wav
320,192,16098,1,0,0:0:0:10:drum_cabasa.wav
64,192,16098,1,0,0:0:0:10:drum_kick.wav
192,192,16246,1,0,0:0:0:10:drum_kick.wav
448,192,16246,1,0,0:0:0:10:drum_closehh.wav
64,192,16394,1,0,0:0:0:10:drum_kick.wav
320,192,16394,1,0,0:0:0:10:drum_kick.wav
192,192,16542,1,0,0:0:0:10:drum_closehh.wav
320,192,16616,1,0,0:0:0:10:drum_closehh.wav
64,192,16690,1,0,0:0:0:10:drum_kick.wav
448,192,16690,1,0,0:0:0:10:drum_kick.wav
448,192,16838,1,0,0:0:0:10:drum_openhh.wav
192,192,16986,1,0,0:0:0:10:drum_openhh.wav
320,192,16986,1,0,0:0:0:10:drum_snare.wav
64,192,17135,1,0,0:0:0:10:drum_closehh.wav
192,192,17209,1,0,0:0:0:10:drum_closehh.wav
64,192,17283,1,0,0:0:0:10:drum_kick.wav
320,192,17283,1,0,0:0:0:10:drum_kick.wav
320,192,17431,1,0,0:0:0:10:drum_closehh.wav
448,192,17579,1,0,0:0:0:10:drum_kick.wav
192,192,17579,1,0,0:0:0:10:drum_kick.wav
64,192,17727,1,0,0:0:0:10:drum_kick.wav
320,192,17875,1,0,0:0:0:10:drum_kick.wav
192,192,17875,1,0,0:0:0:10:drum_kick.wav
448,192,18024,128,0,18172:0:0:0:10:drum_clap.wav
64,192,18172,128,0,18320:0:0:0:10:drum_kick.wav
192,192,18172,1,0,0:0:0:10:drum_kick.wav
192,192,18394,128,0,18542:0:0:0:10:drum_kick.wav
320,192,18394,1,0,0:0:0:10:drum_kick.wav
448,192,18616,1,0,0:0:0:10:drum_kick.wav
320,192,18616,128,0,18764:0:0:0:10:drum_kick.wav
64,192,18764,1,0,0:0:0:10:drum_kick.wav
192,192,18764,1,0,0:0:0:10:drum_crash.wav
448,192,18838,1,0,0:0:0:10:drum_closehh.wav
320,192,18912,1,0,0:0:0:10:drum_closehh.wav
192,192,18986,1,0,0:0:0:10:drum_closehh.wav
64,192,19061,1,0,0:0:0:10:drum_kick.wav
320,192,19061,1,0,0:0:0:10:drum_openhh.wav
192,192,19209,1,0,0:0:0:10:drum_kick.wav
448,192,19357,1,0,0:0:0:10:drum_snare.wav
64,192,19357,1,0,0:0:0:10:drum_snare.wav
192,192,19431,1,0,0:0:0:10:drum_closehh.wav
320,192,19505,1,0,0:0:0:10:drum_closehh.wav
448,192,19579,1,0,0:0:0:10:drum_closehh.wav
320,192,19653,1,0,0:0:0:10:drum_openhh.wav
64,192,19653,1,0,0:0:0:10:drum_kick.wav
192,192,19801,1,0,0:0:0:10:drum_kick.wav
448,192,19949,1,0,0:0:0:10:drum_kick.wav
64,192,19949,1,0,0:0:0:10:drum_kick.wav
320,192,20024,1,0,0:0:0:10:drum_closehh.wav
64,192,20172,1,0,0:0:0:10:drum_closehh.wav
448,192,20246,1,0,0:0:0:10:drum_openhh.wav
320,192,20246,1,0,0:0:0:10:drum_kick.wav
192,192,20320,1,0,0:0:0:10:drum_closehh.wav
64,192,20468,1,0,0:0:0:10:drum_closehh.wav
192,192,20542,1,0,0:0:0:10:drum_snare.wav
448,192,20542,1,0,0:0:0:10:drum_snare.wav
320,192,20690,1,0,0:0:0:10:drum_kick.wav
192,192,20838,1,0,0:0:0:10:drum_openhh.wav
64,192,20838,1,0,0:0:0:10:drum_kick.wav
320,192,20986,1,0,0:0:0:10:drum_kick.wav
64,192,21135,1,0,0:0:0:10:drum_kick.wav
448,192,21135,1,0,0:0:0:10:drum_kick.wav
192,192,21209,1,0,0:0:0:10:drum_closehh.wav
320,192,21283,1,0,0:0:0:10:drum_closehh.wav
448,192,21431,1,0,0:0:0:10:drum_kick.wav
192,192,21431,1,0,0:0:0:10:drum_openhh.wav
320,192,21579,1,0,0:0:0:10:drum_kick.wav
64,192,21727,1,0,0:0:0:10:drum_snare.wav
448,192,21727,1,0,0:0:0:10:drum_snare.wav
320,192,21801,1,0,0:0:0:10:drum_closehh.wav
192,192,21875,1,0,0:0:0:10:drum_closehh.wav
64,192,22024,1,0,0:0:0:10:drum_kick.wav
448,192,22024,1,0,0:0:0:10:drum_openhh.wav
320,192,22172,1,0,0:0:0:10:drum_kick.wav
64,192,22320,1,0,0:0:0:10:drum_kick.wav
448,192,22320,1,0,0:0:0:10:drum_kick.wav
192,192,22394,1,0,0:0:0:10:drum_closehh.wav
448,192,22468,1,0,0:0:0:10:drum_closehh.wav
320,192,22542,1,0,0:0:0:10:drum_closehh.wav
64,192,22616,1,0,0:0:0:10:drum_closehh.wav
192,192,22690,1,0,0:0:0:10:drum_closehh.wav
448,192,22764,1,0,0:0:0:10:drum_closehh.wav
320,192,22838,1,0,0:0:0:10:drum_closehh.wav
64,192,22912,1,0,0:0:0:10:drum_snare.wav
448,192,22912,1,0,0:0:0:10:drum_snare.wav
192,192,22986,1,0,0:0:0:10:drum_closehh.wav
448,192,23061,1,0,0:0:0:10:drum_closehh.wav
320,192,23135,1,0,0:0:0:10:drum_closehh.wav
64,192,23209,1,0,0:0:0:10:drum_closehh.wav
192,192,23283,1,0,0:0:0:10:drum_closehh.wav
448,192,23357,1,0,0:0:0:10:drum_closehh.wav
320,192,23431,1,0,0:0:0:10:drum_closehh.wav
448,192,23505,1,0,0:0:0:10:drum_kick.wav
64,192,23505,1,0,0:0:0:10:drum_kick.wav
192,192,23653,1,0,0:0:0:10:drum_closehh.wav
320,192,23653,128,0,23801:0:0:0:10:drum_closehh.wav
64,192,23801,128,0,23949:0:0:0:10:drum_openhh.wav
448,192,23801,1,0,0:0:0:10:drum_kick.wav
192,192,23949,128,0,24098:0:0:0:10:drum_closehh.wav
320,192,23949,1,0,0:0:0:10:drum_closehh.wav
448,192,24098,1,0,0:0:0:10:drum_snare.wav
64,192,24098,1,0,0:0:0:10:drum_snare.wav
320,192,24246,128,0,24394:0:0:0:10:drum_closehh.wav
64,192,24246,1,0,0:0:0:10:drum_closehh.wav
448,192,24394,1,0,0:0:0:10:drum_kick.wav
192,192,24394,128,0,24542:0:0:0:10:drum_kick.wav
64,192,24542,1,0,0:0:0:10:drum_closehh.wav
320,192,24542,128,0,24690:0:0:0:10:drum_closehh.wav
192,192,24690,1,0,0:0:0:10:drum_kick.wav
448,192,24690,1,0,0:0:0:10:drum_kick.wav
192,192,24838,128,0,24986:0:0:0:10:drum_closehh.wav
64,192,24838,1,0,0:0:0:10:drum_closehh.wav
320,192,24986,128,0,25135:0:0:0:10:drum_openhh.wav
448,192,24986,1,0,0:0:0:10:drum_kick.wav
64,192,25135,5,0,0:0:0:10:drum_closehh.wav
192,192,25135,128,0,25283:0:0:0:10:drum_closehh.wav
448,192,25283,1,0,0:0:0:10:drum_snare.wav
320,192,25283,1,0,0:0:0:10:drum_snare.wav
448,192,25431,1,0,0:0:0:10:drum_closehh.wav
64,192,25431,128,0,25579:0:0:0:10:drum_closehh.wav
192,192,25579,128,0,25727:0:0:0:10:drum_closehh.wav
320,192,25579,1,0,0:0:0:10:drum_closehh.wav
448,192,25727,128,0,25875:0:0:0:10:drum_closehh.wav
64,192,25727,1,0,0:0:0:10:drum_closehh.wav
192,192,25875,1,0,0:0:0:10:drum_kick.wav
320,192,25875,1,0,0:0:0:10:drum_kick.wav
64,192,26024,1,0,0:0:0:10:drum_kick.wav
192,192,26246,1,0,0:0:0:10:drum_closehh.wav
448,192,26320,1,0,0:0:0:10:drum_kick.wav
320,192,26468,1,0,0:0:0:10:drum_kick.wav
192,192,26616,1,0,0:0:0:10:drum_kick.wav
320,192,26838,1,0,0:0:0:10:drum_closehh.wav
64,192,26912,1,0,0:0:0:10:drum_kick.wav
192,192,27061,1,0,0:0:0:10:drum_kick.wav
320,192,27209,1,0,0:0:0:10:drum_kick.wav
192,192,27431,1,0,0:0:0:10:drum_closehh.wav
448,192,27505,1,0,0:0:0:10:drum_kick.wav
320,192,27653,1,0,0:0:0:10:drum_kick.wav
192,192,27801,1,0,0:0:0:10:drum_kick.wav
64,192,28246,128,0,28542:0:0:0:10:drum_snare.wav
320,192,28246,1,0,0:0:0:10:drum_kick.wav
192,192,28394,1,0,0:0:0:10:drum_kick.wav
448,192,28394,1,0,0:0:0:10:drum_kick.wav
320,192,28542,1,0,0:0:0:10:drum_kick.wav
448,192,28542,1,0,0:0:0:10:drum_kick.wav
192,192,28690,128,0,28986:0:0:0:10:drum_snare.wav
64,192,28690,1,0,0:0:0:10:drum_kick.wav
320,192,28838,1,0,0:0:0:10:drum_kick.wav
448,192,28838,1,0,0:0:0:10:drum_kick.wav
64,192,28986,1,0,0:0:0:10:drum_kick.wav
448,192,28986,1,0,0:0:0:10:drum_kick.wav
320,192,29135,128,0,29431:0:0:0:10:drum_snare.wav
192,192,29135,1,0,0:0:0:10:drum_kick.wav
64,192,29283,1,0,0:0:0:10:drum_kick.wav
448,192,29283,1,0,0:0:0:10:drum_kick.wav
64,192,29431,1,0,0:0:0:10:drum_kick.wav
448,192,29431,1,0,0:0:0:10:drum_kick.wav
448,192,29579,128,0,29875:0:0:0:10:drum_snare.wav
192,192,29579,1,0,0:0:0:10:drum_kick.wav
64,192,29727,1,0,0:0:0:10:drum_kick.wav
320,192,29727,1,0,0:0:0:10:drum_kick.wav
192,192,29875,1,0,0:0:0:10:drum_kick.wav
64,192,29875,1,0,0:0:0:10:drum_kick.wav
320,192,30024,1,0,0:0:0:10:drum_snare.wav
448,192,30024,1,0,0:0:0:10:drum_snare.wav
192,192,30098,1,0,0:0:0:10:drum_closehh.wav
64,192,30172,1,0,0:0:0:10:drum_closehh.wav
448,192,30246,1,0,0:0:0:10:drum_closehh.wav
320,192,30320,1,0,0:0:0:10:drum_closehh.wav
192,192,30394,1,0,0:0:0:10:drum_closehh.wav
64,192,30468,1,0,0:0:0:10:drum_closehh.wav
448,192,30542,1,0,0:0:0:10:drum_closehh.wav
320,192,30616,1,0,0:0:0:10:drum_kick.wav
192,192,30616,1,0,0:0:0:10:drum_kick.wav
64,192,30764,1,0,0:0:0:10:drum_openhh.wav
448,192,30912,1,0,0:0:0:10:drum_kick.wav
320,192,30912,1,0,0:0:0:10:drum_kick.wav
192,192,31061,1,0,0:0:0:10:drum_closehh.wav
320,192,31209,1,0,0:0:0:10:drum_snare.wav
64,192,31209,1,0,0:0:0:10:drum_snare.wav
192,192,31283,1,0,0:0:0:10:drum_closehh.wav
448,192,31357,1,0,0:0:0:10:drum_closehh.wav
64,192,31431,1,0,0:0:0:10:drum_closehh.wav
448,192,31505,1,0,0:0:0:10:drum_closehh.wav
320,192,31579,1,0,0:0:0:10:drum_closehh.wav
192,192,31653,1,0,0:0:0:10:drum_closehh.wav
320,192,31727,1,0,0:0:0:10:drum_closehh.wav
448,192,31801,1,0,0:0:0:10:drum_kick.wav
64,192,31801,1,0,0:0:0:10:drum_kick.wav
320,192,31949,1,0,0:0:0:10:drum_closehh.wav
64,192,32098,1,0,0:0:0:10:drum_kick.wav
192,192,32098,1,0,0:0:0:10:drum_kick.wav
448,192,32246,1,0,0:0:0:10:drum_openhh.wav
320,192,32394,1,0,0:0:0:10:drum_snare.wav
192,192,32394,1,0,0:0:0:10:drum_snare.wav
64,192,32468,1,0,0:0:0:10:drum_closehh.wav
448,192,32542,1,0,0:0:0:10:drum_closehh.wav
64,192,32616,1,0,0:0:0:10:drum_closehh.wav
320,192,32690,1,0,0:0:0:10:drum_closehh.wav
448,192,32764,1,0,0:0:0:10:drum_closehh.wav
64,192,32838,1,0,0:0:0:10:drum_closehh.wav
192,192,32912,1,0,0:0:0:10:drum_closehh.wav
320,192,32986,1,0,0:0:0:10:drum_kick.wav
448,192,32986,1,0,0:0:0:10:drum_kick.wav
64,192,33135,1,0,0:0:0:10:drum_closehh.wav
192,192,33283,1,0,0:0:0:10:drum_kick.wav
320,192,33283,1,0,0:0:0:10:drum_kick.wav
448,192,33431,1,0,0:0:0:10:drum_openhh.wav
64,192,33579,1,0,0:0:0:10:drum_snare.wav
320,192,33579,1,0,0:0:0:10:drum_snare.wav
448,192,33653,1,0,0:0:0:10:drum_closehh.wav
192,192,33727,1,0,0:0:0:10:drum_closehh.wav
320,192,33801,1,0,0:0:0:10:drum_closehh.wav
64,192,33875,1,0,0:0:0:10:drum_closehh.wav
192,192,33949,1,0,0:0:0:10:drum_closehh.wav
320,192,34024,1,0,0:0:0:10:drum_closehh.wav
448,192,34098,1,0,0:0:0:10:drum_closehh.wav
64,192,34172,128,0,34468:0:0:0:10:drum_kick.wav
192,192,34172,1,0,0:0:0:10:drum_kick.wav
192,192,34320,128,0,34468:0:0:0:10:drum_openhh.wav
320,192,34320,1,0,0:0:0:10:drum_closehh.wav
448,192,34468,128,0,34764:0:0:0:10:drum_kick.wav
320,192,34468,1,0,0:0:0:10:drum_kick.wav
320,192,34616,128,0,34764:0:0:0:10:drum_openhh.wav
192,192,34616,1,0,0:0:0:10:drum_closehh.wav
64,192,34764,1,0,0:0:0:10:drum_snare.wav
192,192,34838,1,0,0:0:0:10:drum_closehh.wav
320,192,34912,1,0,0:0:0:10:drum_closehh.wav
64,192,34986,1,0,0:0:0:10:drum_closehh.wav
448,192,35061,1,0,0:0:0:10:drum_closehh.wav
320,192,35135,1,0,0:0:0:10:drum_closehh.wav
192,192,35209,1,0,0:0:0:10:drum_closehh.wav
448,192,35283,1,0,0:0:0:10:drum_closehh.wav
64,192,35357,1,0,0:0:0:10:drum_kick.wav
320,192,35357,1,0,0:0:0:10:drum_kick.wav
192,192,35505,1,0,0:0:0:10:drum_closehh.wav
448,192,35653,1,0,0:0:0:10:drum_kick.wav
320,192,35653,1,0,0:0:0:10:drum_kick.wav
192,192,35801,1,0,0:0:0:10:drum_closehh.wav
64,192,35949,1,0,0:0:0:10:drum_snare.wav
448,192,35949,1,0,0:0:0:10:drum_snare.wav
192,192,36024,1,0,0:0:0:10:drum_closehh.wav
320,192,36098,1,0,0:0:0:10:drum_closehh.wav
64,192,36172,1,0,0:0:0:10:drum_closehh.wav
448,192,36246,1,0,0:0:0:10:drum_closehh.wav
320,192,36320,1,0,0:0:0:10:drum_closehh.wav
192,192,36394,1,0,0:0:0:10:drum_closehh.wav
448,192,36468,1,0,0:0:0:10:drum_closehh.wav
64,192,36542,1,0,0:0:0:10:drum_kick.wav
320,192,36542,1,0,0:0:0:10:drum_kick.wav
192,192,36690,1,0,0:0:0:10:drum_closehh.wav
448,192,36838,1,0,0:0:0:10:drum_kick.wav
320,192,36838,1,0,0:0:0:10:drum_kick.wav
64,192,36986,1,0,0:0:0:10:drum_closehh.wav
192,192,37135,1,0,0:0:0:10:drum_snare.wav
448,192,37135,1,0,0:0:0:10:drum_snare.wav
320,192,37209,1,0,0:0:0:10:drum_closehh.wav
64,192,37283,1,0,0:0:0:10:drum_closehh.wav
448,192,37357,1,0,0:0:0:10:drum_closehh.wav
64,192,37431,1,0,0:0:0:10:drum_closehh.wav
192,192,37505,1,0,0:0:0:10:drum_closehh.wav
448,192,37579,1,0,0:0:0:10:drum_closehh.wav
64,192,37653,1,0,0:0:0:10:drum_closehh.wav
320,192,37727,1,0,0:0:0:10:drum_crash.wav
192,192,37727,1,0,0:0:0:10:drum_snare.wav
64,192,37875,1,0,0:0:0:10:drum_closehh.wav
192,192,37949,1,0,0:0:0:10:drum_closehh.wav
448,192,38024,1,0,0:0:0:10:drum_kick.wav
64,192,38024,1,0,0:0:0:10:drum_kick.wav
448,192,38172,1,0,0:0:0:10:drum_closehh.wav
192,192,38246,1,0,0:0:0:10:drum_closehh.wav
320,192,38320,1,0,0:0:0:10:drum_kick.wav
64,192,38320,1,0,0:0:0:10:drum_crash.wav
448,192,38468,1,0,0:0:0:10:drum_closehh.wav
192,192,38542,1,0,0:0:0:10:drum_closehh.wav
320,192,38616,1,0,0:0:0:10:drum_kick.wav
64,192,38616,1,0,0:0:0:10:drum_kick.wav
192,192,38764,1,0,0:0:0:10:drum_closehh.wav
320,192,38838,1,0,0:0:0:10:drum_closehh.wav
448,192,38912,1,0,0:0:0:10:drum_kick.wav
64,192,38912,1,0,0:0:0:10:drum_crash.wav
192,192,39061,1,0,0:0:0:10:drum_kick.wav
320,192,39061,1,0,0:0:0:10:drum_kick.wav
64,192,39209,1,0,0:0:0:10:drum_crash.wav
448,192,39209,1,0,0:0:0:10:drum_kick.wav
192,192,39357,1,0,0:0:0:10:drum_kick.wav
320,192,39357,1,0,0:0:0:10:drum_kick.wav
64,192,39505,1,0,0:0:0:10:drum_kick.wav
448,192,39505,1,0,0:0:0:10:drum_snare.wav
192,192,39579,1,0,0:0:0:10:drum_closehh.wav
320,192,39727,1,0,0:0:0:10:drum_kick.wav
64,192,39727,1,0,0:0:0:10:drum_kick.wav
448,192,39875,1,0,0:0:0:10:drum_closehh.wav
64,192,39949,1,0,0:0:0:10:drum_kick.wav
320,192,39949,1,0,0:0:0:10:drum_kick.wav
64,192,40098,1,0,0:0:0:10:drum_kick.wav
448,192,40098,1,0,0:0:0:10:drum_crash.wav
192,192,40098,1,0,0:0:0:10:drum_kick.wav
320,192,40172,1,0,0:0:0:10:drum_closehh.wav
192,192,40246,1,0,0:0:0:10:drum_closehh.wav
320,192,40394,1,0,0:0:0:10:drum_snare.wav
64,192,40394,1,0,0:0:0:10:drum_snare.wav
192,192,40542,1,0,0:0:0:10:drum_closehh.wav
448,192,40690,1,0,0:0:0:10:drum_kick.wav
64,192,40690,1,0,0:0:0:10:drum_kick.wav
320,192,40764,1,0,0:0:0:10:drum_closehh.wav
192,192,40838,1,0,0:0:0:10:drum_closehh.wav
320,192,40986,1,0,0:0:0:10:drum_snare.wav
448,192,40986,1,0,0:0:0:10:drum_snare.wav
192,192,41135,1,0,0:0:0:0:
64,192,41283,128,0,41579:0:0:0:0:
320,192,41283,1,0,0:0:0:0:
192,192,41431,128,0,41727:0:0:0:0:
320,192,41579,128,0,41875:0:0:0:0:
448,192,41579,1,0,0:0:0:0:
448,192,41727,128,0,42024:0:0:0:0:
64,192,41875,1,0,0:0:0:0:
192,192,42024,1,0,0:0:0:0:
320,192,42172,1,0,0:0:0:0:
64,192,42172,1,0,0:0:0:0:
192,192,42320,1,0,0:0:0:0:
448,192,42468,1,0,0:0:0:0:
64,192,42468,1,0,0:0:0:0:
320,192,42542,1,0,0:0:0:0:
192,192,42616,1,0,0:0:0:0:
64,192,42764,1,0,0:0:0:0:
448,192,42764,1,0,0:0:0:0:
192,192,42912,1,0,0:0:0:0:
64,192,43061,1,0,0:0:0:0:
448,192,43061,1,0,0:0:0:0:
192,192,43135,1,0,0:0:0:0:
320,192,43209,1,0,0:0:0:0:
64,192,43357,1,0,0:0:0:0:
448,192,43357,1,0,0:0:0:0:
320,192,43505,1,0,0:0:0:0:
448,192,43653,128,0,43949:0:0:0:0:
192,192,43653,1,0,0:0:0:0:
320,192,43801,128,0,44098:0:0:0:0:
192,192,43949,128,0,44246:0:0:0:0:
64,192,43949,1,0,0:0:0:0:
64,192,44098,128,0,44394:0:0:0:0:
448,192,44246,1,0,0:0:0:0:
320,192,44394,1,0,0:0:0:0:
192,192,44468,1,0,0:0:0:0:
448,192,44542,1,0,0:0:0:0:
64,192,44542,1,0,0:0:0:0:
320,192,44690,1,0,0:0:0:0:
448,192,44764,1,0,0:0:0:0:
64,192,44838,1,0,0:0:0:0:
192,192,44838,1,0,0:0:0:0:
448,192,44986,1,0,0:0:0:0:
64,192,45135,1,0,0:0:0:0:
320,192,45135,1,0,0:0:0:0:
448,192,45283,1,0,0:0:0:0:
320,192,45431,1,0,0:0:0:0:
64,192,45431,1,0,0:0:0:0:
192,192,45505,1,0,0:0:0:0:
64,192,45579,1,0,0:0:0:0:
448,192,45727,1,0,0:0:0:0:
320,192,45727,1,0,0:0:0:0:
192,192,45875,1,0,0:0:0:0:
320,192,46024,1,0,0:0:0:0:
64,192,46024,128,0,46320:0:0:0:0:
448,192,46098,1,0,0:0:0:0:
192,192,46172,128,0,46468:0:0:0:0:
320,192,46320,128,0,46616:0:0:0:0:
448,192,46320,1,0,0:0:0:0:
448,192,46468,128,0,46764:0:0:0:0:
64,192,46616,1,0,0:0:0:0:
192,192,46764,1,0,0:0:0:0:
448,192,46912,1,0,0:0:0:0:
192,192,46912,1,0,0:0:0:0:
64,192,47061,1,0,0:0:0:0:
320,192,47061,1,0,0:0:0:0:
448,192,47209,1,0,0:0:0:0:
192,192,47209,1,0,0:0:0:0:
320,192,47357,1,0,0:0:0:0:
192,192,47505,1,0,0:0:0:0:
448,192,47505,1,0,0:0:0:0:
64,192,47653,1,0,0:0:0:0:
192,192,47801,1,0,0:0:0:0:
320,192,47801,1,0,0:0:0:0:
64,192,47875,1,0,0:0:0:0:
448,192,47949,1,0,0:0:0:0:
320,192,48098,1,0,0:0:0:0:
192,192,48098,1,0,0:0:0:0:
448,192,48172,1,0,0:0:0:0:
64,192,48246,1,0,0:0:0:0:
192,192,48394,1,0,0:0:0:0:
320,192,48394,1,0,0:0:0:0:
448,192,48542,1,0,0:0:0:0:
320,192,48542,1,0,0:0:0:0:
320,192,48690,1,0,0:0:0:0:
192,192,48690,1,0,0:0:0:0:
64,192,48838,1,0,0:0:0:0:
192,192,48838,1,0,0:0:0:0:
192,192,48986,1,0,0:0:0:0:
320,192,48986,1,0,0:0:0:0:
64,192,49579,1,0,0:0:0:0:
448,192,49579,1,0,0:0:0:0:
192,192,49579,1,0,0:0:0:0:
320,192,49727,1,0,0:0:0:0:
192,192,49875,128,0,50468:0:0:0:0:
448,192,49875,1,0,0:0:0:0:
320,192,50024,1,0,0:0:0:0:
64,192,50172,1,0,0:0:0:0:
320,192,50320,1,0,0:0:0:0:
448,192,50468,128,0,51061:0:0:0:0:
64,192,50468,1,0,0:0:0:0:
320,192,50616,1,0,0:0:0:0:
64,192,50764,1,0,0:0:0:0:
320,192,50912,1,0,0:0:0:0:
192,192,51061,128,0,51653:0:0:0:0:
64,192,51061,1,0,0:0:0:0:
320,192,51209,1,0,0:0:0:0:
448,192,51357,1,0,0:0:0:0:
64,192,51505,1,0,0:0:0:0:
320,192,51505,1,0,0:0:0:0:
64,192,51653,128,0,52246:0:0:0:0:
448,192,51653,1,0,0:0:0:0:
320,192,51801,1,0,0:0:0:0:
192,192,51949,1,0,0:0:0:0:
448,192,51949,1,0,0:0:0:0:
320,192,52098,1,0,0:0:0:0:
320,192,52246,128,0,52838:0:0:0:0:
192,192,52246,1,0,0:0:0:0:
448,192,52394,1,0,0:0:0:0:
192,192,52542,1,0,0:0:0:0:
64,192,52542,1,0,0:0:0:0:
448,192,52690,1,0,0:0:0:0:
448,192,52838,128,0,53431:0:0:0:0:
192,192,52838,1,0,0:0:0:0:
64,192,52986,1,0,0:0:0:0:
320,192,53135,1,0,0:0:0:0:
192,192,53135,1,0,0:0:0:0:
64,192,53283,1,0,0:0:0:0:
64,192,53431,128,0,54024:0:0:0:0:
320,192,53431,1,0,0:0:0:0:
192,192,53579,1,0,0:0:0:0:
448,192,53727,1,0,0:0:0:0:
320,192,53727,1,0,0:0:0:0:
192,192,53875,1,0,0:0:0:0:
320,192,54024,128,0,54616:0:0:0:0:
448,192,54024,1,0,0:0:0:0:
192,192,54172,1,0,0:0:0:0:
64,192,54320,1,0,0:0:0:0:
448,192,54320,1,0,0:0:0:0:
192,192,54468,1,0,0:0:0:0:
448,192,54616,128,0,55209:0:0:0:0:
64,192,54616,1,0,0:0:0:0:
192,192,54764,1,0,0:0:0:0:
320,192,54912,1,0,0:0:0:0:
64,192,54912,1,0,0:0:0:0:
192,192,55061,1,0,0:0:0:0:
64,192,55209,128,0,55801:0:0:0:0:
320,192,55209,1,0,0:0:0:0:
192,192,55357,1,0,0:0:0:0:
448,192,55505,1,0,0:0:0:0:
320,192,55505,1,0,0:0:0:0:
192,192,55653,1,0,0:0:0:0:
320,192,55801,128,0,56394:0:0:0:0:
448,192,55801,1,0,0:0:0:0:
192,192,55949,1,0,0:0:0:0:
64,192,56098,1,0,0:0:0:0:
448,192,56098,1,0,0:0:0:0:
192,192,56246,1,0,0:0:0:0:
448,192,56394,128,0,56986:0:0:0:0:
64,192,56394,1,0,0:0:0:0:
192,192,56542,1,0,0:0:0:0:
320,192,56690,1,0,0:0:0:0:
64,192,56690,1,0,0:0:0:0:
192,192,56838,1,0,0:0:0:0:
192,192,56986,128,0,57579:0:0:0:0:
320,192,56986,1,0,0:0:0:0:
64,192,57135,1,0,0:0:0:0:
448,192,57283,1,0,0:0:0:0:
320,192,57283,1,0,0:0:0:0:
64,192,57431,1,0,0:0:0:0:
64,192,57579,128,0,58172:0:0:0:0:
448,192,57579,1,0,0:0:0:0:
320,192,57727,1,0,0:0:0:0:
192,192,57875,1,0,0:0:0:0:
448,192,57875,1,0,0:0:0:0:
320,192,58024,1,0,0:0:0:0:
320,192,58172,128,0,58764:0:0:0:0:
448,192,58172,1,0,0:0:0:0:
64,192,58320,1,0,0:0:0:0:
192,192,58468,1,0,0:0:0:0:
448,192,58468,1,0,0:0:0:0:
64,192,59061,1,0,0:0:0:0:
192,192,59061,1,0,0:0:0:0:
320,192,59135,1,0,0:0:0:0:
448,192,59135,1,0,0:0:0:0:
64,192,59209,1,0,0:0:0:0:
192,192,59209,1,0,0:0:0:0:
320,192,59283,1,0,0:0:0:0:
448,192,59283,1,0,0:0:0:0:
192,192,59357,1,0,0:0:0:0:
64,192,59357,128,0,59653:0:0:0:0:
320,192,59505,1,0,0:0:0:15:drum_cabasa.wav
192,192,59653,1,0,0:0:0:0:
448,192,59653,1,0,0:0:0:0:
320,192,59801,1,0,0:0:0:0:
448,192,59801,1,0,0:0:0:0:
320,192,60098,1,0,0:0:0:0:
448,192,60098,1,0,0:0:0:0:
64,192,60246,128,0,60838:0:0:0:0:
192,192,60246,128,0,60542:0:0:0:0:
448,192,60838,128,0,61431:0:0:0:0:
320,192,60838,128,0,61135:0:0:0:0:
64,192,61431,1,0,0:0:0:0:
192,192,61431,1,0,0:0:0:0:
320,192,61505,1,0,0:0:0:0:
448,192,61505,1,0,0:0:0:0:
64,192,61579,1,0,0:0:0:0:
192,192,61579,1,0,0:0:0:0:
320,192,61653,1,0,0:0:0:0:
448,192,61653,1,0,0:0:0:0:
192,192,61727,1,0,0:0:0:0:
64,192,61727,128,0,62024:0:0:0:0:
320,192,61875,1,0,0:0:0:15:drum_cabasa.wav
448,192,62024,5,0,0:0:0:0:
192,192,62024,1,0,0:0:0:0:
64,192,62172,1,0,0:0:0:0:
320,192,62172,1,0,0:0:0:0:
192,192,62468,5,0,0:0:0:0:
64,192,62468,1,0,0:0:0:0:
320,192,62616,1,0,0:0:0:0:
448,192,62616,1,0,0:0:0:0:
192,192,62912,1,0,0:0:0:15:drum_cabasa.wav
64,192,63209,5,0,0:0:0:0:
192,192,63209,1,0,0:0:0:0:
192,192,63431,1,0,0:0:0:0:
320,192,63431,1,0,0:0:0:0:
448,192,63653,1,0,0:0:0:0:
320,192,63653,1,0,0:0:0:0:
64,192,63801,1,0,0:0:0:0:
320,192,63801,1,0,0:0:0:0:
192,192,63875,1,0,0:0:0:0:
448,192,63875,1,0,0:0:0:0:
320,192,63949,1,0,0:0:0:0:
64,192,63949,1,0,0:0:0:0:
448,192,64024,1,0,0:0:0:0:
192,192,64024,1,0,0:0:0:0:
64,192,64098,128,0,64394:0:0:0:0:
320,192,64098,1,0,0:0:0:0:
192,192,64246,1,0,0:0:0:15:drum_cabasa.wav
320,192,64394,1,0,0:0:0:0:
448,192,64394,1,0,0:0:0:0:
448,192,64542,128,0,64838:0:0:0:0:
192,192,64542,1,0,0:0:0:0:
320,192,64838,1,0,0:0:0:0:
64,192,64838,1,0,0:0:0:0:
192,192,64912,1,0,0:0:0:0:
320,192,64986,1,0,0:0:0:0:
64,192,64986,128,0,65579:0:0:0:0:
320,192,65283,1,0,0:0:0:15:drum_cabasa.wav
448,192,65579,1,0,0:0:0:0:
192,192,65579,1,0,0:0:0:0:
320,192,65875,1,0,0:0:0:15:drum_closehh.wav
192,192,66024,1,0,0:0:0:0:
64,192,66172,1,0,0:0:0:0:
320,192,66172,1,0,0:0:0:0:
192,192,66320,128,0,66468:0:0:0:0:
448,192,66320,1,0,0:0:0:0:
448,192,66468,1,0,0:0:0:0:
64,192,66468,1,0,0:0:0:0:
320,192,66616,128,0,66764:0:0:0:0:
64,192,66616,1,0,0:0:0:0:
192,192,66764,1,0,0:0:0:0:
448,192,66764,1,0,0:0:0:0:
64,192,66912,128,0,67061:0:0:0:0:
320,192,66912,1,0,0:0:0:0:
192,192,67061,1,0,0:0:0:0:
448,192,67061,1,0,0:0:0:0:
320,192,67209,128,0,67357:0:0:0:0:
64,192,67209,1,0,0:0:0:0:
192,192,67357,1,0,0:0:0:0:
448,192,67357,1,0,0:0:0:0:
64,192,67431,1,0,0:0:0:0:
192,192,67505,1,0,0:0:0:0:
320,192,67579,1,0,0:0:0:0:
448,192,67653,1,0,0:0:0:0:
192,192,67801,1,0,0:0:0:0:
64,192,67801,1,0,0:0:0:0:
320,192,67949,1,0,0:0:0:0:
192,192,67949,1,0,0:0:0:0:
448,192,68098,1,0,0:0:0:0:
320,192,68098,1,0,0:0:0:0:
320,192,68246,1,0,0:0:0:0:
192,192,68246,1,0,0:0:0:0:
64,192,68394,1,0,0:0:0:0:
192,192,68394,1,0,0:0:0:0:
320,192,68542,1,0,0:0:0:0:
448,192,68542,1,0,0:0:0:0:
320,192,68690,1,0,0:0:0:0:
448,192,68690,1,0,0:0:0:0:
320,192,68838,1,0,0:0:0:0:
448,192,68838,1,0,0:0:0:0:
192,192,68986,1,0,0:0:0:0:
320,192,68986,1,0,0:0:0:0:
192,192,69135,1,0,0:0:0:0:
320,192,69135,1,0,0:0:0:0:
192,192,69283,1,0,0:0:0:0:
320,192,69283,1,0,0:0:0:0:
192,192,69431,1,0,0:0:0:0:
64,192,69431,1,0,0:0:0:0:
192,192,69579,1,0,0:0:0:0:
64,192,69579,1,0,0:0:0:0:
192,192,69727,1,0,0:0:0:0:
64,192,69727,1,0,0:0:0:0:
448,192,69727,1,0,0:0:0:0:
448,192,69875,1,0,0:0:0:0:
320,192,69875,1,0,0:0:0:0:
320,192,70024,1,0,0:0:0:0:
192,192,70024,1,0,0:0:0:0:
192,192,70172,1,0,0:0:0:0:
64,192,70172,1,0,0:0:0:0:
448,192,70320,1,0,0:0:0:0:
320,192,70320,1,0,0:0:0:0:
64,192,70468,1,0,0:0:0:0:
192,192,70468,1,0,0:0:0:0:
320,192,70616,1,0,0:0:0:0:
448,192,70616,1,0,0:0:0:0:
192,192,70764,1,0,0:0:0:0:
64,192,70764,1,0,0:0:0:0:
448,192,70912,128,0,71209:0:0:0:0:
320,192,70912,1,0,0:0:0:0:
64,192,70912,1,0,0:0:0:0:
320,192,71061,128,0,71357:0:0:0:0:
192,192,71209,128,0,71505:0:0:0:0:
64,192,71209,1,0,0:0:0:0:
64,192,71357,128,0,71653:0:0:0:0:
448,192,71505,1,0,0:0:0:0:
320,192,71653,1,0,0:0:0:0:
192,192,71801,1,0,0:0:0:0:
64,192,71949,1,0,0:0:0:0:
448,192,72024,1,0,0:0:0:0:
64,192,72098,128,0,72394:0:0:0:0:
192,192,72098,1,0,0:0:0:0:
320,192,72098,1,0,0:0:0:0:
192,192,72246,128,0,72542:0:0:0:0:
320,192,72394,128,0,72690:0:0:0:0:
448,192,72394,1,0,0:0:0:0:
448,192,72542,128,0,72838:0:0:0:0:
64,192,72690,1,0,0:0:0:0:
192,192,72838,1,0,0:0:0:0:
320,192,72986,1,0,0:0:0:0:
448,192,73135,1,0,0:0:0:0:
64,192,73209,1,0,0:0:0:0:
192,192,73283,1,0,0:0:0:0:
320,192,73283,1,0,0:0:0:0:
448,192,73283,1,0,0:0:0:0:
448,192,73431,1,0,0:0:0:0:
192,192,73579,1,0,0:0:0:0:
320,192,73579,1,0,0:0:0:0:
64,192,73579,1,0,0:0:0:0:
448,192,73727,1,0,0:0:0:0:
64,192,73875,1,0,0:0:0:0:
192,192,73875,1,0,0:0:0:0:
320,192,74024,1,0,0:0:0:0:
192,192,74024,1,0,0:0:0:0:
448,192,74172,1,0,0:0:0:0:
320,192,74172,1,0,0:0:0:0:
320,192,74320,1,0,0:0:0:0:
192,192,74320,1,0,0:0:0:0:
448,192,74394,1,0,0:0:0:0:
64,192,74468,1,0,0:0:0:0:
192,192,74468,1,0,0:0:0:0:
320,192,74468,1,0,0:0:0:0:
320,192,74616,1,0,0:0:0:0:
448,192,74764,1,0,0:0:0:0:
64,192,74764,1,0,0:0:0:0:
192,192,74764,1,0,0:0:0:0:
192,192,74912,1,0,0:0:0:0:
64,192,75061,1,0,0:0:0:0:
320,192,75061,1,0,0:0:0:0:
448,192,75209,1,0,0:0:0:0:
192,192,75283,1,0,0:0:0:0:
64,192,75357,1,0,0:0:0:0:
320,192,75431,1,0,0:0:0:0:
192,192,75505,1,0,0:0:0:0:
448,192,75579,1,0,0:0:0:0:
64,192,75653,1,0,0:0:0:0:
192,192,75653,1,0,0:0:0:0:
320,192,75653,1,0,0:0:0:0:
192,192,75801,1,0,0:0:0:0:
64,192,75949,1,0,0:0:0:0:
320,192,75949,1,0,0:0:0:0:
448,192,75949,1,0,0:0:0:0:
192,192,76098,1,0,0:0:0:0:
448,192,76246,1,0,0:0:0:0:
320,192,76246,1,0,0:0:0:0:
320,192,76394,1,0,0:0:0:0:
192,192,76394,1,0,0:0:0:0:
192,192,76542,1,0,0:0:0:0:
64,192,76542,1,0,0:0:0:0:
192,192,76690,1,0,0:0:0:0:
320,192,76690,1,0,0:0:0:0:
64,192,76764,1,0,0:0:0:0:
448,192,76838,1,0,0:0:0:0:
320,192,76838,1,0,0:0:0:0:
192,192,76838,1,0,0:0:0:0:
64,192,76986,1,0,0:0:0:0:
192,192,77135,1,0,0:0:0:0:
320,192,77135,1,0,0:0:0:0:
448,192,77135,1,0,0:0:0:0:
448,192,77283,1,0,0:0:0:0:
64,192,77431,1,0,0:0:0:0:
448,192,77431,1,0,0:0:0:0:
192,192,77505,1,0,0:0:0:0:
320,192,77579,1,0,0:0:0:0:
448,192,77653,1,0,0:0:0:0:
64,192,77727,1,0,0:0:0:0:
320,192,77801,1,0,0:0:0:0:
192,192,77875,1,0,0:0:0:0:
448,192,77949,1,0,0:0:0:0:
320,192,78024,1,0,0:0:0:0:
64,192,78024,128,0,78320:0:0:0:0:
192,192,78024,1,0,0:0:0:0:
448,192,78172,1,0,0:0:0:0:
192,192,78320,1,0,0:0:0:0:
448,192,78320,128,0,78616:0:0:0:0:
320,192,78468,1,0,0:0:0:0:
192,192,78616,128,0,78912:0:0:0:0:
64,192,78616,1,0,0:0:0:0:
448,192,78764,1,0,0:0:0:0:
320,192,78912,128,0,79209:0:0:0:0:
64,192,78912,1,0,0:0:0:0:
448,192,79061,1,0,0:0:0:0:
64,192,79209,128,0,79505:0:0:0:0:
192,192,79209,1,0,0:0:0:0:
448,192,79357,1,0,0:0:0:0:
192,192,79505,128,0,79801:0:0:0:0:
320,192,79505,1,0,0:0:0:0:
448,192,79653,1,0,0:0:0:0:
64,192,79801,1,0,0:0:0:0:
320,192,79801,1,0,0:0:0:0:
448,192,79875,1,0,0:0:0:0:
192,192,80024,1,0,0:0:0:0:
448,192,80024,1,0,0:0:0:0:
64,192,80172,1,0,0:0:0:0:
320,192,80246,1,0,0:0:0:0:
448,192,80246,1,0,0:0:0:0:
64,192,80394,1,0,0:0:0:0:
192,192,80394,1,0,0:0:0:0:
448,192,80468,1,0,0:0:0:0:
320,192,80542,1,0,0:0:0:0:
192,192,80616,1,0,0:0:0:0:
64,192,80690,1,0,0:0:0:0:
448,192,80690,1,0,0:0:0:0:
320,192,80764,1,0,0:0:0:0:
192,192,80838,1,0,0:0:0:0:
64,192,80912,1,0,0:0:0:0:
320,192,80986,1,0,0:0:0:0:
448,192,81061,1,0,0:0:0:0:
64,192,81135,1,0,0:0:0:0:
192,192,81209,1,0,0:0:0:0:
320,192,81283,1,0,0:0:0:0:
448,192,81283,1,0,0:0:0:0:
64,192,81357,1,0,0:0:0:0:
448,192,81431,1,0,0:0:0:0:
320,192,81505,1,0,0:0:0:0:
192,192,81579,1,0,0:0:0:0:
64,192,81653,1,0,0:0:0:0:
448,192,81727,1,0,0:0:0:0:
320,192,81801,1,0,0:0:0:0:
448,192,81875,1,0,0:0:0:0:
64,192,81875,1,0,0:0:0:0:
192,192,81949,1,0,0:0:0:0:
320,192,82024,1,0,0:0:0:0:
448,192,82098,1,0,0:0:0:0:
320,192,82172,1,0,0:0:0:0:
64,192,82246,1,0,0:0:0:0:
192,192,82320,1,0,0:0:0:0:
320,192,82394,1,0,0:0:0:0:
192,192,82468,1,0,0:0:0:0:
448,192,82468,1,0,0:0:0:0:
64,192,82542,1,0,0:0:0:0:
192,192,82616,1,0,0:0:0:0:
320,192,82690,1,0,0:0:0:0:
64,192,82764,1,0,0:0:0:0:
192,192,82838,1,0,0:0:0:0:
448,192,82912,1,0,0:0:0:0:
320,192,82986,1,0,0:0:0:0:
192,192,83061,1,0,0:0:0:0:
448,192,83061,1,0,0:0:0:0:
64,192,83135,1,0,0:0:0:0:
192,192,83209,1,0,0:0:0:0:
448,192,83283,1,0,0:0:0:0:
320,192,83357,1,0,0:0:0:0:
192,192,83431,1,0,0:0:0:0:
64,192,83505,1,0,0:0:0:0:
192,192,83579,1,0,0:0:0:0:
320,192,83653,1,0,0:0:0:0:
448,192,83653,1,0,0:0:0:0:
64,192,83727,1,0,0:0:0:0:
192,192,83801,1,0,0:0:0:0:
320,192,83875,1,0,0:0:0:0:
64,192,83949,1,0,0:0:0:0:
192,192,84024,1,0,0:0:0:0:
320,192,84098,1,0,0:0:0:0:
448,192,84172,1,0,0:0:0:0:
192,192,84246,1,0,0:0:0:0:
320,192,84246,1,0,0:0:0:0:
64,192,84320,1,0,0:0:0:0:
448,192,84394,1,0,0:0:0:0:
320,192,84468,1,0,0:0:0:0:
192,192,84542,1,0,0:0:0:0:
64,192,84616,1,0,0:0:0:0:
448,192,84690,1,0,0:0:0:0:
320,192,84764,1,0,0:0:0:0:
192,192,84838,1,0,0:0:0:0:
64,192,84838,1,0,0:0:0:0:
320,192,84912,1,0,0:0:0:0:
448,192,84986,1,0,0:0:0:0:
64,192,85061,1,0,0:0:0:0:
192,192,85135,1,0,0:0:0:0:
320,192,85209,1,0,0:0:0:0:
448,192,85283,1,0,0:0:0:0:
64,192,85357,1,0,0:0:0:0:
448,192,85431,1,0,0:0:0:0:
192,192,85431,1,0,0:0:0:0:
320,192,85505,1,0,0:0:0:0:
192,192,85579,1,0,0:0:0:0:
448,192,85653,1,0,0:0:0:0:
320,192,85727,1,0,0:0:0:0:
192,192,85801,1,0,0:0:0:0:
448,192,85875,1,0,0:0:0:0:
64,192,85949,1,0,0:0:0:0:
192,192,86024,1,0,0:0:0:0:
320,192,86024,1,0,0:0:0:0:
448,192,86098,1,0,0:0:0:0:
320,192,86172,1,0,0:0:0:0:
192,192,86246,1,0,0:0:0:0:
64,192,86320,1,0,0:0:0:0:
448,192,86394,1,0,0:0:0:0:
64,192,86468,1,0,0:0:0:0:
192,192,86542,1,0,0:0:0:0:
64,192,86616,1,0,0:0:0:0:
448,192,86616,1,0,0:0:0:0:
320,192,86690,1,0,0:0:0:0:
192,192,86764,1,0,0:0:0:0:
320,192,86838,1,0,0:0:0:0:
448,192,86912,1,0,0:0:0:0:
64,192,86986,1,0,0:0:0:0:
192,192,87061,1,0,0:0:0:0:
320,192,87135,1,0,0:0:0:0:
64,192,87209,1,0,0:0:0:0:
448,192,87209,1,0,0:0:0:0:
192,192,87283,1,0,0:0:0:0:
320,192,87357,1,0,0:0:0:0:
64,192,87431,1,0,0:0:0:0:
448,192,87505,1,0,0:0:0:0:
320,192,87579,1,0,0:0:0:0:
192,192,87653,1,0,0:0:0:0:
448,192,87727,1,0,0:0:0:0:
192,192,87801,1,0,0:0:0:0:
64,192,87801,1,0,0:0:0:0:
448,192,87875,1,0,0:0:0:0:
320,192,87949,1,0,0:0:0:0:
192,192,88024,1,0,0:0:0:0:
448,192,88098,1,0,0:0:0:0:
64,192,88172,1,0,0:0:0:0:
192,192,88246,1,0,0:0:0:0:
320,192,88320,1,0,0:0:0:0:
448,192,88394,1,0,0:0:0:0:
192,192,88394,1,0,0:0:0:0:
320,192,88468,1,0,0:0:0:0:
192,192,88542,1,0,0:0:0:0:
448,192,88616,1,0,0:0:0:0:
64,192,88690,1,0,0:0:0:0:
192,192,88764,1,0,0:0:0:0:
448,192,88838,1,0,0:0:0:0:
320,192,88912,1,0,0:0:0:0:
64,192,88986,1,0,0:0:0:0:
192,192,88986,1,0,0:0:0:0:
320,192,89135,1,0,0:0:0:0:
448,192,89135,1,0,0:0:0:0:
192,192,89283,1,0,0:0:0:0:
64,192,89283,1,0,0:0:0:0:
320,192,89431,1,0,0:0:0:0:
192,192,89431,1,0,0:0:0:0:
448,192,89579,1,0,0:0:0:0:
320,192,89579,1,0,0:0:0:0:
192,192,89727,1,0,0:0:0:0:
320,192,89727,1,0,0:0:0:0:
192,192,89875,1,0,0:0:0:0:
64,192,89875,1,0,0:0:0:0:
448,192,89875,1,0,0:0:0:0:
320,192,90098,1,0,0:0:0:0:
192,192,90098,1,0,0:0:0:0:
64,192,90320,1,0,0:0:0:0:
448,192,90320,1,0,0:0:0:0:
192,192,90468,1,0,0:0:0:0:
320,192,90468,1,0,0:0:0:0:
448,192,90468,1,0,0:0:0:0:
64,192,90616,1,0,0:0:0:0:
192,192,90690,1,0,0:0:0:0:
320,192,90764,1,0,0:0:0:0:
448,192,90838,1,0,0:0:0:0:
64,192,90912,1,0,0:0:0:0:
192,192,90986,1,0,0:0:0:0:
448,192,91061,1,0,0:0:0:0:
320,192,91061,1,0,0:0:0:0:
64,192,91283,1,0,0:0:0:0:
192,192,91283,1,0,0:0:0:0:
448,192,91505,1,0,0:0:0:0:
320,192,91505,1,0,0:0:0:0:
192,192,91653,1,0,0:0:0:0:
64,192,91653,1,0,0:0:0:0:
320,192,91653,1,0,0:0:0:0:
448,192,91801,1,0,0:0:0:0:
320,192,91875,1,0,0:0:0:0:
192,192,91949,1,0,0:0:0:0:
64,192,92024,1,0,0:0:0:0:
448,192,92098,1,0,0:0:0:0:
320,192,92172,1,0,0:0:0:0:
192,192,92246,1,0,0:0:0:0:
64,192,92246,1,0,0:0:0:0:
320,192,92468,1,0,0:0:0:0:
448,192,92468,1,0,0:0:0:0:
192,192,92690,1,0,0:0:0:0:
64,192,92690,1,0,0:0:0:0:
448,192,92838,1,0,0:0:0:0:
320,192,92838,1,0,0:0:0:0:
192,192,92838,1,0,0:0:0:0:
192,192,92986,1,0,0:0:0:0:
64,192,93135,1,0,0:0:0:0:
448,192,93135,1,0,0:0:0:0:
320,192,93283,1,0,0:0:0:0:
192,192,93431,1,0,0:0:0:0:
320,192,93431,1,0,0:0:0:0:
64,192,93653,1,0,0:0:0:0:
192,192,93653,1,0,0:0:0:0:
448,192,93875,1,0,0:0:0:0:
320,192,93875,1,0,0:0:0:0:
64,192,94024,1,0,0:0:0:0:
192,192,94024,1,0,0:0:0:0:
320,192,94024,1,0,0:0:0:0:
320,192,94172,1,0,0:0:0:0:
64,192,94320,1,0,0:0:0:0:
448,192,94320,1,0,0:0:0:0:
192,192,94468,1,0,0:0:0:0:
320,192,94616,1,0,0:0:0:0:
192,192,94616,1,0,0:0:0:0:
64,192,94616,1,0,0:0:0:0:
192,192,94838,1,0,0:0:0:0:
320,192,94838,1,0,0:0:0:0:
64,192,95061,1,0,0:0:0:0:
192,192,95061,1,0,0:0:0:0:
448,192,95209,1,0,0:0:0:0:
320,192,95209,1,0,0:0:0:0:
192,192,95209,1,0,0:0:0:0:
64,192,95357,1,0,0:0:0:0:
192,192,95431,1,0,0:0:0:0:
320,192,95505,1,0,0:0:0:0:
448,192,95579,1,0,0:0:0:0:
64,192,95653,1,0,0:0:0:0:
192,192,95727,1,0,0:0:0:0:
448,192,95801,1,0,0:0:0:0:
320,192,95801,1,0,0:0:0:0:
192,192,96024,1,0,0:0:0:0:
64,192,96024,1,0,0:0:0:0:
320,192,96246,1,0,0:0:0:0:
448,192,96246,1,0,0:0:0:0:
64,192,96394,1,0,0:0:0:0:
320,192,96394,1,0,0:0:0:0:
192,192,96394,1,0,0:0:0:0:
448,192,96542,1,0,0:0:0:0:
320,192,96616,1,0,0:0:0:0:
192,192,96690,1,0,0:0:0:0:
64,192,96764,1,0,0:0:0:0:
448,192,96838,1,0,0:0:0:0:
320,192,96912,1,0,0:0:0:0:
64,192,96986,5,0,0:0:0:0:
192,192,96986,1,0,0:0:0:0:
320,192,97209,1,0,0:0:0:0:
448,192,97209,1,0,0:0:0:0:
64,192,97431,1,0,0:0:0:0:
192,192,97431,1,0,0:0:0:0:
448,192,97579,1,0,0:0:0:0:
320,192,97579,1,0,0:0:0:0:
192,192,97579,1,0,0:0:0:0:
192,192,97727,1,0,0:0:0:0:
448,192,97875,1,0,0:0:0:0:
64,192,97875,1,0,0:0:0:0:
320,192,98024,1,0,0:0:0:0:
64,192,98172,5,0,0:0:0:0:
192,192,98209,1,0,0:0:0:0:
320,192,98246,1,0,0:0:0:0:
448,192,98283,1,0,0:0:0:0:
448,192,98468,1,0,0:0:0:0:
320,192,98505,1,0,0:0:0:0:
192,192,98542,1,0,0:0:0:0:
64,192,98579,1,0,0:0:0:0:
448,192,98616,128,0,98764:0:0:0:0:
320,192,98764,1,0,0:0:0:0:
192,192,98764,1,0,0:0:0:0:
320,192,98912,1,0,0:0:0:0:
192,192,98912,1,0,0:0:0:0:
320,192,99061,1,0,0:0:0:0:
192,192,99061,1,0,0:0:0:0:
64,192,99209,1,0,0:0:0:0:
448,192,99209,1,0,0:0:0:0:
320,192,99357,1,0,0:0:0:0:
192,192,99505,128,0,99801:0:0:0:0:
64,192,99505,1,0,0:0:0:0:
320,192,99653,128,0,99949:0:0:0:0:
64,192,99653,1,0,0:0:0:0:
448,192,99801,128,0,100098:0:0:0:0:
64,192,99801,1,0,0:0:0:0:
64,192,99949,1,0,0:0:0:0:
192,192,99949,1,0,0:0:0:0:
192,192,100098,1,0,0:0:0:0:
64,192,100246,1,0,0:0:0:0:
320,192,100246,1,0,0:0:0:0:
448,192,100394,1,0,0:0:0:0:
64,192,100542,1,0,0:0:0:0:
320,192,100542,1,0,0:0:0:0:
192,192,100542,1,0,0:0:0:0:
448,192,100838,1,0,0:0:0:0:
320,192,100912,1,0,0:0:0:0:
192,192,100986,1,0,0:0:0:0:
64,192,101061,1,0,0:0:0:0:
320,192,101135,1,0,0:0:0:0:
192,192,101135,1,0,0:0:0:0:
192,192,101283,1,0,0:0:0:0:
320,192,101283,1,0,0:0:0:0:
192,192,101431,1,0,0:0:0:0:
320,192,101431,1,0,0:0:0:0:
448,192,101579,1,0,0:0:0:0:
64,192,101579,1,0,0:0:0:0:
192,192,101727,1,0,0:0:0:0:
320,192,101875,128,0,102172:0:0:0:0:
448,192,101875,1,0,0:0:0:0:
192,192,102024,128,0,102320:0:0:0:0:
448,192,102024,1,0,0:0:0:0:
64,192,102172,128,0,102468:0:0:0:0:
448,192,102172,1,0,0:0:0:0:
320,192,102320,1,0,0:0:0:0:
448,192,102320,1,0,0:0:0:0:
320,192,102468,1,0,0:0:0:0:
448,192,102616,1,0,0:0:0:0:
192,192,102616,1,0,0:0:0:0:
64,192,102764,1,0,0:0:0:0:
192,192,102912,1,0,0:0:0:0:
320,192,102912,1,0,0:0:0:0:
448,192,102912,1,0,0:0:0:0:
64,192,103209,1,0,0:0:0:0:
192,192,103283,1,0,0:0:0:0:
320,192,103357,1,0,0:0:0:0:
448,192,103432,1,0,0:0:0:0:
192,192,103506,1,0,0:0:0:0:
320,192,103506,1,0,0:0:0:0:
320,192,103654,1,0,0:0:0:0:
192,192,103654,1,0,0:0:0:0:
320,192,103802,1,0,0:0:0:0:
192,192,103802,1,0,0:0:0:0:
64,192,103950,1,0,0:0:0:0:
448,192,103950,1,0,0:0:0:0:
320,192,104098,1,0,0:0:0:0:
192,192,104246,128,0,104543:0:0:0:0:
64,192,104246,1,0,0:0:0:0:
320,192,104395,128,0,104691:0:0:0:0:
64,192,104395,1,0,0:0:0:0:
448,192,104543,128,0,104839:0:0:0:0:
64,192,104543,1,0,0:0:0:0:
192,192,104691,1,0,0:0:0:0:
64,192,104691,1,0,0:0:0:0:
192,192,104838,1,0,0:0:0:0:
320,192,104987,1,0,0:0:0:0:
64,192,104987,1,0,0:0:0:0:
448,192,105135,1,0,0:0:0:0:
192,192,105283,1,0,0:0:0:0:
320,192,105283,1,0,0:0:0:0:
64,192,105283,1,0,0:0:0:0:
448,192,105579,1,0,0:0:0:0:
320,192,105653,1,0,0:0:0:0:
192,192,105727,1,0,0:0:0:0:
64,192,105802,1,0,0:0:0:0:
192,192,105876,1,0,0:0:0:0:
320,192,105876,1,0,0:0:0:0:
320,192,106024,1,0,0:0:0:0:
192,192,106024,1,0,0:0:0:0:
320,192,106172,1,0,0:0:0:0:
192,192,106172,1,0,0:0:0:0:
64,192,106320,1,0,0:0:0:0:
448,192,106320,1,0,0:0:0:0:
192,192,106468,1,0,0:0:0:0:
448,192,106616,1,0,0:0:0:0:
320,192,106616,128,0,106913:0:0:0:0:
448,192,106765,1,0,0:0:0:0:
192,192,106765,128,0,107061:0:0:0:0:
448,192,106913,1,0,0:0:0:0:
64,192,106913,128,0,107209:0:0:0:0:
448,192,107061,1,0,0:0:0:0:
320,192,107061,1,0,0:0:0:0:
320,192,107209,1,0,0:0:0:0:
448,192,107357,1,0,0:0:0:0:
192,192,107357,1,0,0:0:0:0:
64,192,107505,1,0,0:0:0:0:
448,192,107653,1,0,0:0:0:0:
192,192,107653,1,0,0:0:0:0:
320,192,107653,1,0,0:0:0:0:
64,192,107949,128,0,108246:0:0:0:0:
320,192,108098,1,0,0:0:0:0:
448,192,108246,1,0,0:0:0:0:
192,192,108246,1,0,0:0:0:0:
320,192,108320,1,0,0:0:0:0:
64,192,108394,1,0,0:0:0:0:
448,192,108394,1,0,0:0:0:0:
320,192,108468,1,0,0:0:0:0:
64,192,108542,128,0,108838:0:0:0:0:
448,192,108542,1,0,0:0:0:0:
192,192,108542,1,0,0:0:0:0:
320,192,108690,1,0,0:0:0:0:
192,192,108838,1,0,0:0:0:0:
320,192,108838,1,0,0:0:0:0:
448,192,108838,128,0,112394:0:0:0:0:
64,192,111209,1,0,0:0:0:0:
192,192,111357,1,0,0:0:0:0:
64,192,111579,1,0,0:0:0:8:drum_openhh.wav
320,192,111653,1,0,0:0:0:0:
192,192,111801,1,0,0:0:0:0:
64,192,111949,1,0,0:0:0:0:
320,192,112172,1,0,0:0:0:8:drum_openhh.wav
64,192,112246,1,0,0:0:0:0:
192,192,112394,1,0,0:0:0:0:
320,192,112542,1,0,0:0:0:0:
64,192,112764,1,0,0:0:0:8:drum_openhh.wav
448,192,112838,1,0,0:0:0:0:
320,192,112986,1,0,0:0:0:0:
192,192,113135,1,0,0:0:0:0:
448,192,113357,1,0,0:0:0:8:drum_openhh.wav
64,192,113431,1,0,0:0:0:0:
192,192,113579,1,0,0:0:0:0:
320,192,113727,1,0,0:0:0:0:
64,192,113949,1,0,0:0:0:8:drum_openhh.wav
448,192,114024,1,0,0:0:0:0:
320,192,114172,1,0,0:0:0:0:
192,192,114320,1,0,0:0:0:0:
448,192,114542,1,0,0:0:0:8:drum_openhh.wav
320,192,114616,1,0,0:0:0:0:
64,192,114764,1,0,0:0:0:0:
192,192,114764,1,0,0:0:0:0:
64,192,115061,1,0,0:0:0:0:
192,192,115061,1,0,0:0:0:0:
192,192,115357,1,0,0:0:0:0:
320,192,115357,1,0,0:0:0:0:
192,192,115653,1,0,0:0:0:0:
320,192,115653,1,0,0:0:0:0:
64,192,115949,1,0,0:0:0:0:
320,192,115949,1,0,0:0:0:0:
448,192,115949,1,0,0:0:0:0:
192,192,116098,1,0,0:0:0:0:
64,192,116098,1,0,0:0:0:0:
448,192,116098,1,0,0:0:0:0:
448,192,116246,1,0,0:0:0:0:
64,192,116246,1,0,0:0:0:0:
320,192,116246,1,0,0:0:0:0:
64,192,117135,1,0,0:0:0:0:
192,192,117135,1,0,0:0:0:0:
320,192,117135,1,0,0:0:0:0:
448,192,117283,1,0,0:0:0:0:
320,192,117283,1,0,0:0:0:0:
192,192,117283,1,0,0:0:0:0:
64,192,117431,1,0,0:0:0:0:
192,192,117431,1,0,0:0:0:0:
320,192,117431,1,0,0:0:0:0:
448,192,118320,1,0,0:0:0:0:
192,192,118320,1,0,0:0:0:0:
320,192,118320,1,0,0:0:0:0:
64,192,118468,1,0,0:0:0:0:
192,192,118468,1,0,0:0:0:0:
320,192,118468,1,0,0:0:0:0:
448,192,118616,1,0,0:0:0:0:
320,192,118616,1,0,0:0:0:0:
192,192,118616,1,0,0:0:0:0:
64,192,118764,1,0,0:0:0:0:
320,192,118764,1,0,0:0:0:0:
448,192,118764,1,0,0:0:0:0:
64,192,118912,1,0,0:0:0:0:
192,192,118912,1,0,0:0:0:0:
448,192,118912,1,0,0:0:0:0:
64,192,119061,1,0,0:0:0:0:
320,192,119061,1,0,0:0:0:0:
448,192,119061,1,0,0:0:0:0:
192,192,119209,1,0,0:0:0:0:
64,192,119209,1,0,0:0:0:0:
448,192,119209,1,0,0:0:0:0:
320,192,119357,1,0,0:0:0:0:
448,192,119357,1,0,0:0:0:0:
64,192,119357,1,0,0:0:0:0:
64,192,119505,1,0,0:0:0:0:
192,192,119505,1,0,0:0:0:0:
448,192,119505,1,0,0:0:0:0:
64,192,119653,1,0,0:0:0:0:
192,192,119690,1,0,0:0:0:0:
320,192,119727,1,0,0:0:0:0:
448,192,119764,1,0,0:0:0:0:
64,192,119801,1,0,0:0:0:0:
192,192,119801,1,0,0:0:0:0:
448,192,119949,1,0,0:0:0:0:
320,192,119949,1,0,0:0:0:0:
192,192,120098,1,0,0:0:0:0:
64,192,120098,1,0,0:0:0:0:
320,192,120246,1,0,0:0:0:0:
448,192,120246,1,0,0:0:0:0:
192,192,120320,1,0,0:0:0:0:
64,192,120394,1,0,0:0:0:0:
448,192,120468,1,0,0:0:0:0:
320,192,120542,1,0,0:0:0:0:
64,192,120616,1,0,0:0:0:0:
192,192,120690,1,0,0:0:0:0:
448,192,120690,1,0,0:0:0:0:
64,192,120838,1,0,0:0:0:0:
320,192,120838,1,0,0:0:0:0:
320,192,120986,1,0,0:0:0:0:
192,192,120986,1,0,0:0:0:0:
448,192,120986,1,0,0:0:0:0:
64,192,121135,1,0,0:0:0:0:
192,192,121135,1,0,0:0:0:0:
448,192,121283,1,0,0:0:0:0:
320,192,121283,1,0,0:0:0:0:
64,192,121357,1,0,0:0:0:0:
192,192,121431,1,0,0:0:0:0:
448,192,121505,1,0,0:0:0:0:
64,192,121579,1,0,0:0:0:0:
192,192,121579,1,0,0:0:0:0:
320,192,121653,1,0,0:0:0:0:
192,192,121727,1,0,0:0:0:0:
64,192,121801,1,0,0:0:0:0:
448,192,121875,1,0,0:0:0:0:
320,192,121875,1,0,0:0:0:0:
192,192,122024,1,0,0:0:0:0:
64,192,122024,1,0,0:0:0:0:
64,192,122172,1,0,0:0:0:0:
320,192,122172,1,0,0:0:0:0:
448,192,122172,1,0,0:0:0:0:
448,192,122320,1,0,0:0:0:0:
192,192,122320,1,0,0:0:0:0:
192,192,122468,1,0,0:0:0:0:
64,192,122468,1,0,0:0:0:0:
320,192,122542,1,0,0:0:0:0:
192,192,122616,1,0,0:0:0:0:
448,192,122690,1,0,0:0:0:0:
64,192,122764,1,0,0:0:0:0:
320,192,122764,1,0,0:0:0:0:
192,192,122838,1,0,0:0:0:0:
448,192,122912,1,0,0:0:0:0:
64,192,122986,1,0,0:0:0:0:
320,192,123061,1,0,0:0:0:0:
192,192,123061,1,0,0:0:0:0:
448,192,123209,1,0,0:0:0:0:
192,192,123209,1,0,0:0:0:0:
64,192,123357,1,0,0:0:0:0:
320,192,123357,1,0,0:0:0:0:
448,192,123357,1,0,0:0:0:0:
192,192,123505,1,0,0:0:0:0:
320,192,123505,1,0,0:0:0:0:
448,192,123653,1,0,0:0:0:0:
192,192,123653,1,0,0:0:0:0:
64,192,123727,1,0,0:0:0:0:
320,192,123801,1,0,0:0:0:0:
192,192,123875,1,0,0:0:0:0:
448,192,123949,1,0,0:0:0:0:
64,192,123949,1,0,0:0:0:0:
192,192,124024,1,0,0:0:0:0:
320,192,124098,1,0,0:0:0:0:
64,192,124172,1,0,0:0:0:0:
448,192,124246,1,0,0:0:0:0:
192,192,124246,1,0,0:0:0:0:
320,192,124394,1,0,0:0:0:0:
64,192,124394,1,0,0:0:0:0:
64,192,124542,1,0,0:0:0:0:
448,192,124542,1,0,0:0:0:0:
192,192,124542,1,0,0:0:0:0:
192,192,124690,1,0,0:0:0:0:
320,192,124690,1,0,0:0:0:0:
64,192,124838,1,0,0:0:0:0:
320,192,124838,1,0,0:0:0:0:
192,192,124912,1,0,0:0:0:0:
448,192,124986,1,0,0:0:0:0:
64,192,125061,1,0,0:0:0:0:
320,192,125135,1,0,0:0:0:0:
192,192,125135,1,0,0:0:0:0:
448,192,125209,1,0,0:0:0:0:
64,192,125283,1,0,0:0:0:0:
320,192,125357,1,0,0:0:0:0:
192,192,125431,1,0,0:0:0:0:
448,192,125431,1,0,0:0:0:0:
64,192,125579,1,0,0:0:0:0:
320,192,125579,1,0,0:0:0:0:
192,192,125727,1,0,0:0:0:0:
448,192,125727,1,0,0:0:0:0:
320,192,125727,1,0,0:0:0:0:
64,192,125875,1,0,0:0:0:0:
192,192,125875,1,0,0:0:0:0:
448,192,126024,1,0,0:0:0:0:
320,192,126024,1,0,0:0:0:0:
64,192,126098,1,0,0:0:0:0:
192,192,126172,1,0,0:0:0:0:
448,192,126246,1,0,0:0:0:0:
192,192,126320,1,0,0:0:0:0:
64,192,126320,1,0,0:0:0:0:
448,192,126394,1,0,0:0:0:0:
320,192,126468,1,0,0:0:0:0:
192,192,126542,1,0,0:0:0:0:
64,192,126616,5,0,0:0:0:0:
448,192,126616,1,0,0:0:0:0:
192,192,126764,1,0,0:0:0:0:
320,192,126764,1,0,0:0:0:0:
64,192,126912,1,0,0:0:0:0:
448,192,126912,1,0,0:0:0:0:
320,192,126912,1,0,0:0:0:0:
192,192,127061,1,0,0:0:0:0:
64,192,127061,1,0,0:0:0:0:
448,192,127209,1,0,0:0:0:0:
320,192,127209,1,0,0:0:0:0:
192,192,127283,1,0,0:0:0:0:
64,192,127357,1,0,0:0:0:0:
448,192,127431,1,0,0:0:0:0:
320,192,127505,1,0,0:0:0:0:
64,192,127505,1,0,0:0:0:0:
448,192,127579,1,0,0:0:0:0:
192,192,127653,1,0,0:0:0:0:
448,192,127727,1,0,0:0:0:0:
64,192,127801,5,0,0:0:0:0:
320,192,127801,1,0,0:0:0:0:
192,192,127801,1,0,0:0:0:0:
448,192,127949,128,0,128246:0:0:0:0:
320,192,128098,128,0,128394:0:0:0:0:
192,192,128246,128,0,128542:0:0:0:0:
448,192,128394,128,0,128690:0:0:0:0:
64,192,128542,128,0,128838:0:0:0:0:
320,192,128690,128,0,128986:0:0:0:0:
192,192,128838,1,0,0:0:0:0:
64,192,128986,1,0,0:0:0:0:
448,192,128986,1,0,0:0:0:0:
192,192,128986,1,0,0:0:0:0:
320,192,129135,1,0,0:0:0:0:
64,192,129283,1,0,0:0:0:0:
448,192,129283,1,0,0:0:0:0:
192,192,129283,1,0,0:0:0:0:
320,192,129431,1,0,0:0:0:0:
64,192,129579,1,0,0:0:0:0:
448,192,129653,1,0,0:0:0:0:
192,192,129727,1,0,0:0:0:0:
320,192,129801,1,0,0:0:0:0:
64,192,129875,1,0,0:0:0:0:
448,192,129949,1,0,0:0:0:0:
192,192,130024,1,0,0:0:0:0:
320,192,130098,1,0,0:0:0:0:
64,192,130172,1,0,0:0:0:0:
448,192,130172,1,0,0:0:0:0:
192,192,130246,1,0,0:0:0:0:
320,192,130320,1,0,0:0:0:0:
64,192,130394,1,0,0:0:0:0:
192,192,130468,1,0,0:0:0:0:
320,192,130468,1,0,0:0:0:0:
448,192,130542,1,0,0:0:0:0:
320,192,130616,1,0,0:0:0:0:
192,192,130690,1,0,0:0:0:0:
448,192,130764,1,0,0:0:0:0:
64,192,130838,1,0,0:0:0:0:
192,192,130912,1,0,0:0:0:0:
320,192,130986,1,0,0:0:0:0:
64,192,131061,1,0,0:0:0:0:
192,192,131061,1,0,0:0:0:0:
448,192,131135,1,0,0:0:0:0:
320,192,131209,1,0,0:0:0:0:
64,192,131283,1,0,0:0:0:0:
192,192,131357,1,0,0:0:0:0:
320,192,131431,1,0,0:0:0:0:
448,192,131505,1,0,0:0:0:0:
320,192,131579,1,0,0:0:0:0:
64,192,131653,1,0,0:0:0:0:
448,192,131653,1,0,0:0:0:0:
192,192,131727,1,0,0:0:0:0:
320,192,131801,1,0,0:0:0:0:
64,192,131875,1,0,0:0:0:0:
448,192,131949,1,0,0:0:0:0:
64,192,132024,1,0,0:0:0:0:
192,192,132098,1,0,0:0:0:0:
448,192,132172,1,0,0:0:0:0:
320,192,132246,1,0,0:0:0:0:
64,192,132246,1,0,0:0:0:0:
192,192,132320,1,0,0:0:0:0:
64,192,132394,1,0,0:0:0:0:
448,192,132468,1,0,0:0:0:0:
320,192,132542,1,0,0:0:0:0:
192,192,132616,1,0,0:0:0:0:
448,192,132690,1,0,0:0:0:0:
320,192,132764,1,0,0:0:0:0:
64,192,132838,1,0,0:0:0:0:
448,192,132838,1,0,0:0:0:0:
192,192,132912,1,0,0:0:0:0:
320,192,132986,1,0,0:0:0:0:
64,192,133061,1,0,0:0:0:0:
448,192,133135,1,0,0:0:0:0:
64,192,133209,1,0,0:0:0:0:
192,192,133283,1,0,0:0:0:0:
320,192,133357,1,0,0:0:0:0:
64,192,133431,1,0,0:0:0:0:
448,192,133431,1,0,0:0:0:0:
192,192,133505,1,0,0:0:0:0:
448,192,133579,1,0,0:0:0:0:
320,192,133653,1,0,0:0:0:0:
192,192,133727,1,0,0:0:0:0:
64,192,133801,1,0,0:0:0:0:
192,192,133875,1,0,0:0:0:0:
320,192,133949,1,0,0:0:0:0:
448,192,134024,1,0,0:0:0:0:
192,192,134024,1,0,0:0:0:0:
64,192,134098,1,0,0:0:0:0:
448,192,134172,1,0,0:0:0:0:
320,192,134246,1,0,0:0:0:0:
192,192,134320,1,0,0:0:0:0:
448,192,134394,1,0,0:0:0:0:
320,192,134468,1,0,0:0:0:0:
64,192,134542,1,0,0:0:0:0:
192,192,134616,1,0,0:0:0:0:
448,192,134616,1,0,0:0:0:0:
320,192,134690,1,0,0:0:0:0:
448,192,134764,1,0,0:0:0:0:
64,192,134838,1,0,0:0:0:0:
192,192,134912,1,0,0:0:0:0:
448,192,134986,1,0,0:0:0:0:
320,192,135061,1,0,0:0:0:0:
64,192,135135,1,0,0:0:0:0:
192,192,135209,1,0,0:0:0:0:
448,192,135209,1,0,0:0:0:0:
320,192,135283,1,0,0:0:0:0:
64,192,135357,1,0,0:0:0:0:
448,192,135431,1,0,0:0:0:0:
320,192,135505,1,0,0:0:0:0:
192,192,135579,1,0,0:0:0:0:
64,192,135653,1,0,0:0:0:0:
448,192,135727,1,0,0:0:0:0:
320,192,135801,1,0,0:0:0:0:
192,192,135801,1,0,0:0:0:0:
64,192,135875,1,0,0:0:0:0:
192,192,135949,1,0,0:0:0:0:
448,192,136024,1,0,0:0:0:0:
320,192,136098,1,0,0:0:0:0:
448,192,136172,1,0,0:0:0:0:
64,192,136246,1,0,0:0:0:0:
192,192,136320,1,0,0:0:0:0:
320,192,136394,1,0,0:0:0:0:
448,192,136394,1,0,0:0:0:0:
192,192,136468,1,0,0:0:0:0:
64,192,136542,1,0,0:0:0:0:
448,192,136616,1,0,0:0:0:0:
320,192,136690,1,0,0:0:0:0:
192,192,136764,1,0,0:0:0:0:
448,192,136838,1,0,0:0:0:0:
64,192,136912,1,0,0:0:0:0:
320,192,136986,1,0,0:0:0:0:
192,192,136986,1,0,0:0:0:0:
64,192,137061,1,0,0:0:0:0:
192,192,137135,1,0,0:0:0:0:
320,192,137209,1,0,0:0:0:0:
64,192,137283,1,0,0:0:0:0:
192,192,137357,1,0,0:0:0:0:
320,192,137431,1,0,0:0:0:0:
448,192,137505,1,0,0:0:0:0:
64,192,137579,1,0,0:0:0:0:
320,192,137579,1,0,0:0:0:0:
192,192,137653,1,0,0:0:0:0:
448,192,137727,1,0,0:0:0:0:
320,192,137801,1,0,0:0:0:0:
192,192,137875,1,0,0:0:0:0:
64,192,137949,1,0,0:0:0:0:
448,192,138024,1,0,0:0:0:0:
320,192,138098,1,0,0:0:0:0:
192,192,138172,1,0,0:0:0:0:
64,192,138172,1,0,0:0:0:0:
448,192,138246,1,0,0:0:0:0:
320,192,138320,1,0,0:0:0:0:
64,192,138394,1,0,0:0:0:0:
192,192,138468,1,0,0:0:0:0:
320,192,138542,1,0,0:0:0:0:
64,192,138616,1,0,0:0:0:0:
192,192,138690,1,0,0:0:0:0:
320,192,138764,1,0,0:0:0:0:
448,192,138764,1,0,0:0:0:0:
192,192,138912,1,0,0:0:0:0:
64,192,139061,128,0,139653:0:0:0:0:
320,192,139061,1,0,0:0:0:0:
448,192,139209,1,0,0:0:0:0:
192,192,139357,128,0,139653:0:0:0:0:
320,192,139357,1,0,0:0:0:0:
448,192,139505,1,0,0:0:0:0:
320,192,139653,1,0,0:0:0:0:
448,192,139653,1,0,0:0:0:0:
64,192,139801,1,0,0:0:0:0:
192,192,139949,1,0,0:0:0:0:
320,192,139949,1,0,0:0:0:0:
448,192,140098,1,0,0:0:0:0:
64,192,140172,1,0,0:0:0:0:
448,192,140246,128,0,140542:0:0:0:0:
192,192,140246,1,0,0:0:0:0:
320,192,140394,128,0,140690:0:0:0:0:
64,192,140394,1,0,0:0:0:0:
192,192,140542,128,0,140838:0:0:0:0:
64,192,140690,1,0,0:0:0:0:
448,192,140690,1,0,0:0:0:0:
64,192,140838,128,0,141135:0:0:0:0:
448,192,140838,1,0,0:0:0:0:
320,192,140986,1,0,0:0:0:0:
192,192,141135,1,0,0:0:0:0:
448,192,141135,1,0,0:0:0:0:
320,192,141283,1,0,0:0:0:0:
64,192,141431,1,0,0:0:0:0:
448,192,141431,1,0,0:0:0:0:
192,192,141579,1,0,0:0:0:0:
320,192,141579,1,0,0:0:0:0:
64,192,141727,1,0,0:0:0:0:
192,192,141875,1,0,0:0:0:0:
320,192,141949,1,0,0:0:0:0:
64,192,142024,128,0,142320:0:0:0:0:
448,192,142024,1,0,0:0:0:0:
192,192,142172,128,0,142468:0:0:0:0:
320,192,142320,128,0,142616:0:0:0:0:
448,192,142320,1,0,0:0:0:0:
448,192,142468,128,0,142764:0:0:0:0:
64,192,142616,1,0,0:0:0:0:
192,192,142616,128,0,142912:0:0:0:0:
64,192,142764,128,0,143061:0:0:0:0:
320,192,142764,1,0,0:0:0:0:
320,192,142912,128,0,143209:0:0:0:0:
448,192,143061,1,0,0:0:0:0:
192,192,143061,1,0,0:0:0:0:
192,192,143209,128,0,143505:0:0:0:0:
448,192,143209,1,0,0:0:0:0:
64,192,143357,1,0,0:0:0:0:
64,192,143505,1,0,0:0:0:0:
320,192,143505,1,0,0:0:0:0:
448,192,143653,1,0,0:0:0:0:
64,192,143801,1,0,0:0:0:0:
192,192,143801,1,0,0:0:0:0:
320,192,143875,1,0,0:0:0:0:
448,192,143949,1,0,0:0:0:0:
192,192,143949,1,0,0:0:0:0:
64,192,144024,1,0,0:0:0:0:
192,192,144098,1,0,0:0:0:0:
320,192,144172,1,0,0:0:0:0:
192,192,144246,1,0,0:0:0:0:
64,192,144320,1,0,0:0:0:0:
320,192,144394,1,0,0:0:0:0:
192,192,144394,1,0,0:0:0:0:
448,192,144394,128,0,144690:0:0:0:0:
64,192,144542,128,0,144838:0:0:0:0:
192,192,144690,128,0,144986:0:0:0:0:
320,192,144690,1,0,0:0:0:0:
320,192,144838,128,0,145135:0:0:0:0:
448,192,144986,1,0,0:0:0:0:
64,192,144986,1,0,0:0:0:0:
192,192,145135,1,0,0:0:0:0:
448,192,145135,1,0,0:0:0:0:
320,192,145283,1,0,0:0:0:0:
448,192,145431,1,0,0:0:0:0:
320,192,145505,1,0,0:0:0:0:
64,192,145579,128,0,145875:0:0:0:0:
192,192,145579,1,0,0:0:0:0:
448,192,145727,128,0,146024:0:0:0:0:
320,192,145875,128,0,146172:0:0:0:0:
192,192,145875,1,0,0:0:0:0:
192,192,146024,128,0,146320:0:0:0:0:
64,192,146172,1,0,0:0:0:0:
448,192,146172,1,0,0:0:0:0:
320,192,146320,1,0,0:0:0:0:
64,192,146320,1,0,0:0:0:0:
192,192,146468,1,0,0:0:0:0:
320,192,146616,1,0,0:0:0:0:
448,192,146690,1,0,0:0:0:0:
64,192,146764,128,0,147061:0:0:0:0:
192,192,146764,1,0,0:0:0:0:
320,192,146912,1,0,0:0:0:0:
448,192,147061,128,0,147357:0:0:0:0:
192,192,147061,1,0,0:0:0:0:
320,192,147209,1,0,0:0:0:0:
64,192,147357,128,0,147801:0:0:0:0:
192,192,147357,1,0,0:0:0:0:
192,192,147505,128,0,147801:0:0:0:0:
320,192,147505,1,0,0:0:0:0:
320,192,147653,128,0,147801:0:0:0:0:
448,192,147653,1,0,0:0:0:0:
448,192,147801,1,0,0:0:0:0:
64,192,147949,128,0,148246:0:0:0:0:
192,192,147949,128,0,148098:0:0:0:0:
448,192,148098,1,0,0:0:0:0:
320,192,148098,1,0,0:0:0:0:
448,192,148246,1,0,0:0:0:0:
192,192,148246,1,0,0:0:0:0:
