osu file format v6

[General]
AudioFilename: Track 4_ Nightcore - Last Christmas!.mp3
AudioLeadIn: 0
PreviewTime: 95200
Countdown: 1
SampleSet: Soft
StackLeniency: 0.7
Mode: 0
LetterboxInBreaks: 1

[Editor]
DistanceSpacing: 0.899999976158142
BeatDivisor: 4
GridSize: 8

[Metadata]
Title:Last Christmas
Artist:Nightcore
Creator:jericho2442
Version:Rave-mas
Source:Youtube remix
Tags:Hikato Christmas trance happy hardcore nightcore

[Difficulty]
HPDrainRate:7
CircleSize:4
OverallDifficulty:7
SliderMultiplier:1.4
SliderTickRate:2

[Events]
//Background and Video events
0,0,"last christmas.jpg"
//Break Periods
2,11857,13464
2,154052,154757
2,158383,160531
//Storyboard Layer 0 (Background)
//Storyboard Layer 1 (Fail)
//Storyboard Layer 2 (Pass)
//Storyboard Layer 3 (Foreground)
//Storyboard Sound Samples
//Background Colour Transformations
3,100,163,162,255

[TimingPoints]
1371.74695044648,360.902255639098,4,2,1,100,1,0
49008,-100,4,2,1,100,0,1
72104,-100,4,2,1,100,0,0
141393,-100,4,2,1,100,0,1
164490,-100,4,2,1,100,0,0

[Colours]
Combo1 : 255,255,255
Combo2 : 0,0,255
Combo3 : 255,0,0

[HitObjects]
32,192,1371,2,0,B|32:120|32:120|160:64,1,210
288,64,2274,1,0
416,64,2634,1,0
416,128,2815,1,8
352,128,2995,1,8
352,192,3176,1,0
352,256,3356,1,0
184,352,3898,5,0
184,288,4078,1,0
184,224,4258,2,8,B|144:224|144:224|144:192,1,70
144,128,4619,2,0,B|144:48|144:48|208:48,1,140
392,48,5522,6,0,B|432:48|432:48|432:80,1,70,0|8
432,144,5883,2,0,B|432:184|432:184|400:184,1,70,8|0
336,184,6243,1,0
24,192,7146,6,0,B|64:104|136:96|176:208,1,210
424,192,8409,1,0
360,192,8589,1,8
296,192,8770,1,8
232,192,8950,1,0
168,192,9131,2,0,B|168:152,2,35
32,352,9852,5,0
32,288,10033,1,8
32,224,10213,1,8
32,160,10394,1,0
32,96,10574,1,0
160,96,10935,1,8
32,96,11296,1,0
32,224,11657,1,0
32,192,14364,5,2
32,192,14725,1,2
32,256,14905,1,0
160,256,15266,1,2
160,192,15446,1,0
288,192,15807,1,2
288,256,15988,1,0
416,256,16349,1,2
416,192,16529,1,0
416,160,16619,1,0
416,128,16710,1,0
416,64,16890,1,0
360,32,17070,1,2
296,32,17251,5,2
168,32,17612,2,0,B|240:32,1,70,2|0
296,144,18153,2,0,B|224:144,1,70,2|0
168,256,18695,2,0,B|240:256,1,70,2|0
296,368,19236,1,2
232,368,19416,1,0
200,352,19507,1,0
184,328,19597,1,0
176,264,19777,1,0
176,200,19958,1,2
240,200,20138,5,2
240,72,20499,1,2
240,136,20680,1,0
352,200,21040,1,2
288,200,21221,1,0
240,320,21582,1,2
240,256,21762,1,0
128,200,22123,1,2
192,200,22304,1,0
192,168,22394,1,0
192,136,22484,1,0
256,136,22664,1,0
320,136,22845,1,2
384,136,23025,5,0
384,264,23386,2,0,B|456:264,1,70,2|0
344,320,23928,2,0,B|432:320,1,70,2|0
304,264,24469,2,0,B|400:264,1,70,2|0
264,320,25010,2,0,B|336:320,1,70,2|0
368,320,25281,1,0
400,320,25371,1,0
464,320,25552,1,0
256,192,26274,5,8
256,64,26634,2,0,B|256:144,1,70,0|8
144,192,27176,2,0,B|144:120,1,70,0|0
320,184,27898,1,0
320,312,28258,1,8
256,312,28439,1,0
64,312,28980,5,0
64,248,29161,1,8
64,312,29341,1,0
128,312,29522,1,8
192,312,29702,1,0
320,312,30063,1,0
384,312,30243,1,8
384,248,30424,1,0
272,312,30785,1,0
144,312,31146,1,8
16,312,31507,1,0
32,32,32048,5,0
32,96,32228,1,0
32,128,32319,1,8
32,224,32589,1,0
224,224,33131,1,8
224,160,33311,1,0
288,160,33492,1,8
352,160,33672,1,0
352,192,33762,1,8
352,288,34033,1,0
104,352,34755,5,0
104,224,35116,1,0
104,288,35296,1,8
136,288,35386,1,0
168,288,35477,1,8
296,288,35837,1,0
296,224,36018,1,8
296,288,36198,1,0
360,288,36379,1,8
296,288,36559,1,0
168,288,36920,1,0
32,192,38725,6,0,B|104:192,1,70,0|8
104,128,39086,2,0,B|184:128,1,70,0|8
176,192,39446,2,0,B|264:192,1,70,0|8
248,128,39807,1,0
416,32,40349,6,0,B|432:120|336:128,1,140,0|0
280,128,40890,1,8
152,128,41251,1,0
152,192,41431,1,0
152,256,41612,2,0,B|304:256,1,140,8|0
296,320,42153,2,0,B|224:320,1,70,0|8
160,320,42514,2,0,B|88:320|88:320|88:248,1,140,0|0
80,128,43236,6,0,B|80:56|80:56|160:56,1,140,0|0
208,56,43777,1,8
336,56,44138,2,0,B|376:56|376:56|376:88,1,70
376,152,44499,2,0,B|376:224|376:224|232:224,1,210,0|0
176,224,45221,1,8
48,224,45582,6,0,B|48:296,1,70
48,360,45943,2,0,B|144:360,1,70,0|8
216,288,46484,2,0,B|216:360,1,70,0|8
344,352,47025,6,0,B|344:256,1,70
408,280,47386,2,0,B|408:352,1,70,0|8
472,352,47747,2,0,B|472:272,1,70
472,216,48108,1,8
256,32,49010,6,0,B|256:248,1,210
256,368,49913,1,0
128,368,50274,1,0
128,304,50454,1,8
64,304,50634,1,8
64,240,50815,1,0
64,176,50995,1,0
192,32,51537,6,0,B|272:32,1,70
264,96,51898,2,0,B|184:96,1,70,8|8
192,160,52258,1,0
320,160,52619,1,0
256,352,53161,5,0
256,320,53251,1,0
256,288,53341,1,8
256,224,53522,1,8
256,160,53702,1,0
256,96,53883,1,0
32,40,54785,6,0,B|80:56|96:64|104:112|88:152|88:176|16:184,1,210
216,352,56048,1,0
216,320,56138,1,0
216,288,56228,1,8
216,224,56409,1,8
280,224,56589,1,0
344,224,56770,2,0,B|416:224|416:224|416:152,1,140
416,32,57492,5,0
384,32,57582,1,0
352,32,57672,1,8
288,32,57852,2,0,B|248:32|248:32|248:64,1,70,8|0
248,128,58213,2,0,B|248:200|248:200|176:200,1,140
248,304,58935,2,0,B|248:232|248:232|176:232,1,140,0|0
480,32,60559,5,2
352,32,60920,2,0,B|352:104,1,70,2|0
248,32,61461,2,0,B|248:112,1,70,2|0
144,32,62003,2,0,B|144:112,1,70,2|0
56,192,62544,1,0
56,160,62634,1,0
56,128,62725,1,0
56,64,62905,1,0
112,32,63086,1,0
176,32,63266,1,2
240,32,63446,5,2
240,160,63807,2,0,B|240:88,1,70,2|0
344,160,64349,2,0,B|344:64,1,70,2|0
448,160,64890,2,0,B|448:80,1,70,2|0
448,216,65431,1,0
416,216,65522,1,0
384,216,65612,1,0
320,216,65792,1,0
320,280,65973,1,0
256,280,66153,1,2
192,280,66334,5,2
192,152,66695,2,0,B|192:224,1,70,2|0
80,280,67236,2,0,B|160:280,1,70,2|0
192,152,67777,2,0,B|192:224,1,70
304,288,68319,1,0
272,288,68409,1,0
240,288,68499,1,0
176,288,68680,1,0
176,224,68860,1,0
176,160,69040,1,2
176,96,69221,5,0
304,96,69582,2,0,B|304:168,1,70,2|0
432,168,70123,1,2
432,232,70304,1,0
304,232,70664,2,0,B|304:304,1,70,2|0
184,352,71206,1,0
120,352,71386,1,0
120,288,71567,1,0
56,288,71747,1,2
32,40,72469,6,0,B|248:40,1,210,0|8
240,104,73191,2,0,B|160:104,1,70,0|8
40,104,73732,2,0,B|128:104,1,70
176,104,74093,2,0,B|266:104,1,70,0|8
312,104,74454,1,0
256,352,75176,5,0
320,352,75356,2,0,B|320:136,1,210,0|8
256,144,76078,2,0,B|256:64,1,70,0|8
128,80,76619,1,0
128,144,76800,1,0
64,144,76980,1,8
64,208,77161,1,8
64,336,77522,1,0
96,336,77612,1,0
128,336,77702,1,0
256,336,78063,5,0
256,272,78243,1,0
224,272,78334,1,0
192,272,78424,1,8
128,272,78604,1,8
128,208,78785,1,8
128,144,78965,2,0,B|208:144,1,70
264,144,79326,1,0
328,144,79507,1,0
392,144,79687,1,8
392,208,79867,1,0
392,240,79958,1,8
392,336,80228,1,0
200,336,80770,5,4
200,144,81311,6,0,B|200:224,1,70
264,144,81672,2,0,B|264:216,1,70,8|0
328,144,82033,2,0,B|328:224,1,70
392,144,82394,1,8
392,80,82574,1,0
328,80,82755,1,0
296,80,82845,1,0
264,80,82935,1,8
200,80,83116,1,0
32,192,83477,5,0
80,160,83657,1,8
80,224,83837,1,8
128,128,84018,1,0
128,256,84198,1,0
176,160,84379,1,8
176,224,84559,1,8
224,128,84740,1,0
224,256,84920,1,0
272,160,85101,1,8
272,224,85281,1,8
320,128,85461,1,0
320,256,85642,1,0
480,192,86364,5,0
432,160,86544,1,8
432,224,86725,1,8
384,128,86905,1,0
384,256,87086,1,0
336,160,87266,1,8
336,224,87446,1,8
288,128,87627,1,0
288,256,87807,1,0
240,160,87988,5,0
240,160,88529,1,8
240,160,88890,1,0
240,160,89251,2,0,B|144:160|144:160|144:224,1,140,8|0
144,264,89792,1,0
480,192,90875,5,4
32,192,91416,1,4
256,192,91958,5,8
256,192,92138,1,8
256,128,92319,1,0
192,192,92499,1,0
256,256,92680,1,8
320,192,92860,1,8
256,128,93040,5,0
192,192,93221,1,0
256,256,93401,1,8
320,192,93582,1,8
256,128,93762,1,0
192,72,93943,1,0
128,128,94123,1,8
72,192,94304,1,4
256,32,95206,5,0
256,32,95747,1,0
256,32,96108,1,0
256,160,96469,5,0
256,96,96649,1,8
192,160,96830,1,8
256,224,97010,1,0
320,160,97191,1,0
120,224,97732,5,0
160,272,97913,1,0
216,296,98093,1,8
280,296,98274,1,8
344,296,98454,1,0
400,272,98634,1,0
440,224,98815,1,0
360,56,99356,5,0
304,24,99537,1,8
248,56,99717,1,8
184,56,99898,1,0
128,24,100078,1,0
32,192,100980,5,0
64,192,101070,1,0
96,192,101161,1,8
160,192,101341,1,0
160,256,101522,1,8
392,352,102243,5,0
392,320,102334,1,0
392,288,102424,1,8
392,224,102604,1,0
392,160,102785,1,8
328,160,102965,1,0
168,352,103687,5,0
168,288,103867,1,8
168,224,104048,1,8
168,160,104228,1,0
168,96,104409,1,0
296,96,104770,1,8
296,224,105131,2,0,B|152:224,1,140
32,352,106755,6,0,B|32:280,1,70
32,216,107116,1,0
32,152,107296,1,2
256,32,108920,5,0
256,96,109101,1,0
256,160,109281,1,0
256,224,109461,1,0
256,352,109642,5,0
288,352,109732,1,0
320,352,109822,1,0
384,352,110003,1,0
448,352,110183,1,2
480,32,111807,5,0
456,56,111898,1,0
432,80,111988,1,0
392,128,112168,1,0
344,176,112349,1,0
264,256,112529,5,0
216,216,112710,1,0
168,176,112890,1,0
120,136,113070,1,2
480,32,114695,5,0
448,32,114785,1,0
416,32,114875,1,0
352,32,115055,1,0
288,32,115236,1,0
224,32,115416,5,0
160,32,115597,1,0
160,96,115777,1,0
160,160,115958,1,2
160,224,116138,1,0
160,288,116319,5,0
224,224,116499,1,0
160,160,116680,1,0
96,224,116860,1,8
160,288,117040,1,0
224,224,117221,1,8
160,160,117401,1,0
96,224,117582,1,8
256,32,118304,6,0,B|304:32|304:32|304:64,1,70
304,120,118664,2,8,B|304:160|304:160|272:160,1,70
208,160,119025,2,0,B|168:160|168:160|168:192,1,70
168,256,119386,2,8,B|168:296|168:296|208:296,1,70
264,296,119747,2,0,B|304:296|304:296|304:256,1,70
304,200,120108,1,0
368,200,120289,1,0
256,32,121010,5,0
224,88,121191,1,0
288,88,121371,1,0
320,136,121552,1,8
256,136,121732,1,8
192,136,121913,1,0
160,192,122093,1,0
224,192,122274,1,8
288,192,122454,1,8
352,192,122634,1,0
320,248,122815,2,8,B|224:248,1,70,0|8
248,312,123176,1,8
32,224,123898,5,0
32,160,124078,2,0,B|112:160,1,70
104,96,124439,2,8,B|184:96,1,70
488,104,125522,6,0,B|488:320,1,210,0|4
224,352,126604,5,0
288,352,126785,1,0
192,304,126965,1,8
320,304,127146,1,8
224,256,127326,1,0
288,256,127507,1,0
192,208,127687,1,8
320,208,127867,1,8
224,160,128048,1,0
288,160,128228,1,0
192,112,128409,1,8
320,112,128589,1,8
224,64,128770,1,0
288,64,128950,1,0
480,32,129852,6,0,B|256:32,1,210
144,32,130755,1,0
16,32,131116,1,0
16,64,131206,1,0
16,96,131296,1,8
16,160,131477,1,8
80,160,131657,1,0
80,224,131837,1,0
216,352,132379,6,0,B|264:352|264:352|264:320,1,70
264,264,132740,2,8,B|264:224|264:224|312:224,1,70
360,224,133101,1,0
360,96,133461,1,0
168,96,134003,5,0
168,32,134183,1,8
104,96,134364,1,8
168,160,134544,1,0
232,96,134725,1,0
32,352,135627,6,0,B|32:272|32:272|96:272|96:272|96:200,1,210
344,192,136890,1,0
344,160,136980,1,0
344,128,137070,1,8
304,80,137251,1,8
240,80,137431,1,0
200,128,137612,1,0
72,344,138334,5,0
136,344,138514,2,8,B|136:272,1,70
200,344,138875,2,0,B|200:272,1,70
200,144,139416,1,8
328,144,139777,1,0
200,144,140138,1,8
328,144,140499,1,0
200,144,140860,1,4
32,32,141401,5,0
32,96,141582,1,0
32,160,141762,1,2
32,224,141943,1,0
160,224,142304,1,2
160,160,142484,1,0
288,160,142845,1,2
288,224,143025,1,0
416,224,143386,1,2
456,176,143567,1,0
456,112,143747,1,0
416,64,143928,1,0
352,64,144108,1,2
288,64,144289,5,2
256,64,144379,1,0
224,64,144469,1,0
160,64,144649,1,0
96,64,144830,1,0
96,192,145191,1,2
128,192,145281,1,0
160,192,145371,1,0
160,320,145732,1,2
128,320,145822,1,0
96,320,145913,1,0
96,192,146274,1,2
128,192,146364,1,0
160,192,146454,1,0
224,192,146634,1,0
288,192,146815,1,0
352,192,146995,1,2
416,192,147176,5,0
416,64,147537,2,0,B|344:64,1,70,2|0
216,64,148078,2,0,B|288:64,1,70,2|0
160,64,148619,2,0,B|88:64,1,70,2|0
32,176,149161,2,0,B|112:176,1,70,2|0
32,240,149522,2,0,B|120:240,1,70
32,304,149883,2,0,B|112:304,1,70,0|2
224,304,150424,5,2
224,240,150604,1,0
320,160,150965,1,2
320,224,151146,1,0
416,304,151507,1,2
416,240,151687,1,0
416,112,152048,1,2
416,48,152228,1,0
384,48,152319,1,0
352,48,152409,1,0
288,48,152589,1,0
288,112,152770,1,2
288,176,152950,5,0
96,176,153492,2,0,B|96:320|96:320|96:320,1,140,0|4
256,192,155657,5,0
256,128,155837,2,8,B|184:128,1,70
184,192,156198,2,0,B|184:264,1,70,0|8
312,264,156740,1,0
256,192,157101,5,0
256,128,157281,2,8,B|184:128,1,70
184,192,157642,2,0,B|184:264,1,70,0|8
312,264,158183,1,0
32,32,161431,6,0,B|32:104,2,70,0|8|8
96,32,161973,2,0,B|168:32,1,70,0|8
296,32,162514,1,0
424,32,162875,2,8,B|424:184,1,140
256,208,163416,12,4,164499
