osu file format v6

[General]
AudioFilename: Track 4_ Nightcore - Last Christmas!.mp3
AudioLeadIn: 0
PreviewTime: 95200
Countdown: 1
SampleSet: Soft
StackLeniency: 0.7
Mode: 0
LetterboxInBreaks: 1

[Editor]
DistanceSpacing: 0.899999976158142
BeatDivisor: 4
GridSize: 8

[Metadata]
Title:Last Christmas
Artist:Nightcore
Creator:jericho2442
Version:H-mas
Source:Youtube remix
Tags:Hikato Christmas trance happy hardcore nightcore

[Difficulty]
HPDrainRate:8
CircleSize:4
OverallDifficulty:8
SliderMultiplier:1.4
SliderTickRate:2

[Events]
//Background and Video events
0,0,"bgls.jpg"
//Break Periods
2,11856,13614
2,37119,37975
2,69240,71719
2,105691,117554
//Storyboard Layer 0 (Background)
//Storyboard Layer 1 (Fail)
//Storyboard Layer 2 (Pass)
//Storyboard Layer 3 (Foreground)
//Storyboard Sound Samples
//Background Colour Transformations
3,100,163,162,255

[TimingPoints]
1371.74695044648,360.902255639098,4,2,0,75,1,0
14363,-100,4,1,0,70,0,0
26272,-100,4,2,0,75,0,0
49008,-100,4,2,0,75,0,1
60556,-100,4,1,2,70,0,0
72465,-100,4,2,0,75,0,0
83652,-100,4,1,2,70,0,0
95200,-100,4,1,2,70,0,1
95742,-100,4,2,0,75,0,1
106749,-100,4,2,0,75,0,0
118297,-100,4,1,2,70,0,0
129845,-100,4,2,0,75,0,1
141393,-100,4,1,2,75,0,0
167286,-100,4,1,2,0,0,0

[Colours]
Combo1 : 255,255,255
Combo2 : 70,70,255
Combo3 : 183,0,0

[HitObjects]
56,144,1371,2,0,B|112:96|192:80|280:120,1,210
376,144,2274,1,0
286,233,2634,5,0
241,277,2815,1,2
196,232,2995,1,0
241,277,3176,1,2
286,233,3356,1,0
152,99,3898,5,2
152,99,4078,1,0
196,143,4258,1,2
196,143,4439,1,0
240,98,4619,2,0,B|302:45|384:88,1,140,2|0
370,270,5522,6,0,B|370:174,1,70,0|2
370,136,5883,1,0
370,72,6063,1,2
370,136,6243,1,0
55,136,7146,6,0,B|173:206|144:314,1,210
368,320,8409,1,0
424,288,8589,2,0,B|488:232,1,70,2|0
416,224,8950,1,0
464,184,9131,2,0,B|496:120|416:56,1,140,2|0
296,62,9852,6,0,B|212:62,1,70,0|2
162,62,10213,1,0
162,62,10394,1,0
206,106,10574,2,0,B|274:159|216:264,1,140,2|0
186,277,11116,1,0
141,232,11296,2,0,B|98:159|166:106,1,140,2|0
408,64,14364,5,0
408,64,14544,1,0
452,108,14725,1,8
407,152,14905,1,0
451,196,15086,1,0
451,196,15266,1,0
406,240,15446,1,8
344,352,15807,6,0,B|176:352,1,140,0|8
159,307,16349,2,0,B|107:252,1,70
174,256,16710,2,0,B|240:192,1,70,0|8
135,118,17251,6,0,B|200:64|288:112,1,140,0|8
329,101,17792,1,0
392,101,17973,2,0,B|483:102,1,70
472,171,18334,2,0,B|407:246,1,70,8|0
470,268,18695,2,0,B|419:322,1,70
377,274,19055,2,0,B|321:217,1,70,8|0
327,287,19416,2,0,B|275:342,1,70
234,293,19777,1,8
234,293,19958,1,0
171,293,20138,6,0,B|20:293,1,140,0|8
75,248,20680,1,0
119,203,20860,1,0
74,158,21040,1,0
118,113,21221,2,0,B|200:113,1,70,8|0
143,157,21582,2,0,B|229:157,1,70
168,202,21943,2,0,B|247:202,1,70,8|0
193,246,22304,2,0,B|277:246,1,70
307,290,22664,1,8
370,290,22845,1,0
414,245,23025,6,0,B|474:171|400:104,1,140,0|8
414,181,23567,2,0,B|331:183|324:67,1,140
326,154,24108,2,0,B|254:172|247:280,1,140,8|0
293,215,24649,2,0,B|351:263|321:348,1,140
278,297,25191,1,8
278,297,25371,1,0
233,341,25552,1,8
233,341,25732,1,0
120,192,26274,5,0
209,102,26634,2,0,B|283:63|352:112,1,140,0|2
252,194,27356,2,0,B|376:248|464:152,1,210,0|2
491,123,28078,1,0
446,78,28258,1,0
490,33,28439,1,2
490,222,28980,5,0
427,222,29161,2,0,B|335:222,3,70,2|0|2|0
267,311,30063,2,0,B|362:311,1,70,0|2
292,266,30424,1,0
182,328,30785,2,0,B|133:266|182:178,1,140,0|2
224,80,31507,1,2
352,72,32048,5,0
352,135,32228,1,0
352,135,32319,1,0
418,201,32589,2,2,B|341:242|264:184,1,140
239,152,33131,1,0
239,152,33311,1,0
194,196,33492,1,2
149,151,33672,1,0
149,151,33762,1,0
65,194,34033,1,2
237,328,34755,6,0,B|413:327,1,140,0|2
376,281,35296,2,0,B|227:282,1,140,0|2
180,281,35837,2,0,B|82:281,1,70,0|2
72,243,36198,2,0,B|143:199,1,70,0|2
94,166,36559,2,0,B|242:166,1,140,0|2
360,104,38725,5,0
404,148,38905,1,2
404,148,39086,1,0
427,206,39266,1,0
427,206,39446,1,0
408,264,39627,1,2
408,264,39807,2,0,B|344:312|256:280,1,140
319,241,40349,6,0,B|234:217|168:280,1,140,0|2
231,309,40890,2,0,B|144:339|79:293,1,140,0|2
72,280,41341,1,0
49,257,41431,1,0
93,212,41612,2,0,B|150:158|65:80,1,140,0|2
76,154,42153,2,0,B|158:176|219:115,1,140,0|2
288,32,42875,1,2
340,143,43236,6,0,B|429:161|472:240,1,140,0|2
456,278,43777,1,0
329,278,44138,1,2
329,278,44319,1,0
264,280,44499,2,0,B|104:280,2,140,0|0|2
174,190,45582,5,0
218,145,45762,1,0
262,100,45943,1,2
306,55,46123,2,0,B|304:152|392:160,1,140
442,158,46664,1,2
352,247,47025,1,0
352,247,47206,1,0
396,291,47386,1,2
396,291,47567,1,0
351,335,47747,2,0,B|264:335,2,70,2|0|2
72,192,49010,6,0,B|120:120|176:88|280:96,1,210,2|2
246,220,49913,1,0
372,220,50274,1,0
416,264,50454,1,2
461,309,50634,1,0
416,353,50815,2,0,B|335:358|288:279,1,140,10|0
387,188,51537,6,0,B|342:156|303:209,2,70,10|0|10
431,143,52078,1,0
386,98,52258,1,10
260,98,52619,2,0,B|172:92|130:159,1,140,0|8
91,194,53161,1,0
135,238,53341,1,2
90,282,53522,1,0
134,326,53702,1,10
89,370,53883,1,0
134,326,54063,1,0
178,370,54243,1,0
222,325,54424,1,8
404,370,54785,6,0,B|297:333|232:232,1,210,2|8
284,199,55507,2,0,B|344:154|327:47,1,140,2|4
394,74,56048,1,2
394,74,56228,1,0
438,118,56409,1,2
438,118,56589,1,8
482,162,56770,2,0,B|434:215|496:224|504:232|496:240|480:288|456:304,1,140,0|2
440,336,57311,1,8
359,339,57492,5,0
295,339,57672,1,2
295,339,57852,1,0
231,339,58033,1,10
168,339,58213,2,0,B|87:303|75:222,3,140,2|0|2|0
204,80,60559,6,0,B|268:136,1,70,0|2
301,82,60920,2,0,B|302:164,1,70,8|2
365,152,61281,2,0,B|317:204,1,70,0|2
362,247,61642,2,0,B|282:247,1,70,8|2
292,311,62003,2,0,B|240:253,1,70,0|2
201,303,62364,2,0,B|201:229,1,70,8|2
138,233,62725,2,0,B|192:178,1,70,0|2
142,139,63086,2,0,B|215:139,1,70,8|2
360,56,63446,6,0,B|448:96|429:177,1,140,2|2
368,163,63988,1,8
305,163,64168,2,0,B|288:231|376:271,1,140,2|2
437,270,64710,1,8
374,270,64890,2,0,B|229:271,1,140,2|2
171,270,65431,1,8
108,270,65612,2,0,B|42:221,1,70,2|0
114,228,65973,2,0,B|112:152,1,70,2|0
112,94,66334,5,0
238,94,66695,2,0,B|330:94,1,70,8|2
408,192,67055,5,0
281,192,67416,2,0,B|181:192,1,70,8|2
112,304,67777,5,0
238,304,68138,2,0,B|335:304,1,70,8|2
368,304,68499,1,0
368,304,68680,1,0
432,304,68860,1,8
432,304,69040,1,2
64,128,72469,6,0,B|152:40|280:96,1,210,2|0
383,87,73371,2,0,B|341:167|264:184,1,140,2|0
218,178,73913,1,2
262,222,74093,2,0,B|343:222,2,70
262,222,74634,1,2
262,222,74815,2,0,B|177:222,1,70
135,222,75176,5,0
90,266,75356,2,0,B|27:318,1,70,2|0
99,310,75717,2,0,B|181:309,1,70
184,248,76078,2,0,B|243:304,1,70,2|0
297,296,76439,1,0
359,296,76619,1,0
421,296,76800,1,2
359,296,76980,2,0,B|298:234|346:162,1,140
386,213,77522,2,0,B|423:131|351:79,1,140,2|0
297,86,78063,6,0,B|223:86,1,70,0|8
271,130,78424,2,0,B|351:130,1,70
296,174,78785,2,0,B|219:174,1,70,0|8
296,344,79326,6,0,B|208:344,1,70
270,299,79687,2,0,B|353:299,1,70,8|0
295,254,80048,2,0,B|210:254,1,70
269,209,80409,1,8
269,209,80770,5,0
135,75,81311,1,2
135,75,81492,1,0
90,119,81672,1,0
90,119,81852,1,2
134,163,82033,1,0
134,163,82213,1,0
89,207,82394,1,0
89,207,82574,1,2
44,251,82755,2,0,B|105:320|161:248,1,140
344,192,83657,6,0,B|344:112,1,70,0|0
344,58,84018,1,10
344,58,84198,1,2
281,58,84379,2,0,B|281:146,1,70,0|0
281,191,84740,1,10
281,191,84920,1,2
217,191,85101,2,0,B|217:108,1,70,0|0
216,56,85461,1,10
216,56,85642,1,2
152,56,85822,2,0,B|152:200,1,140,0|8
56,248,86364,5,0
100,292,86544,2,0,B|176:338|253:328,2,140,0|8|0
144,247,87446,1,0
207,247,87627,1,8
269,247,87807,1,0
332,247,87988,2,0,B|424:214|472:88,1,210,0|2
468,222,88890,1,2
378,311,89251,2,0,B|232:311,5,140,0|8|0|8|0|8
175,311,91236,1,0
130,266,91416,1,0
85,221,91597,1,0
180,114,91958,5,8
224,159,92138,1,0
330,115,92319,5,0
286,159,92499,1,0
330,267,92680,5,8
286,222,92860,1,0
177,267,93040,5,0
222,222,93221,1,0
224,160,93401,1,0
288,160,93582,1,0
256,208,93762,12,0,95206
88,256,95747,6,2,B|144:320|232:312,1,140
300,223,96469,1,0
344,267,96649,1,8
388,222,96830,1,2
432,266,97010,1,8
476,221,97191,1,0
342,87,97732,5,0
279,87,97913,1,2
342,87,98093,1,8
279,87,98274,1,0
216,87,98454,1,8
152,87,98634,2,0,B|48:88,1,70,0|2
215,221,99356,2,0,B|134:221,1,70,0|8
100,265,99717,2,0,B|151:320,1,70,0|8
211,316,100078,1,2
395,93,100980,6,0,B|453:168|416:240,1,140,0|8
378,268,101522,1,2
315,268,101702,1,0
251,268,101883,1,2
188,268,102063,1,8
98,178,102424,5,0
142,133,102604,2,0,B|200:71,5,70,0|8|2|0|2|8
234,126,103687,1,0
234,189,103867,2,0,B|234:273,1,70
234,321,104228,1,8
234,321,104409,2,0,B|332:321|352:256,1,140,2|0
476,261,105131,2,0,B|473:179|378:154,1,140,2|6
64,72,118304,6,0,B|208:72,1,140,0|8
248,116,118845,1,2
203,160,119025,2,0,B|129:160,1,70
88,204,119386,2,0,B|169:204,1,70,8|2
113,248,119747,2,0,B|157:308|262:300,1,140,0|8
300,300,120289,2,0,B|400:280|384:184,1,140
449,207,120830,1,12
352,40,121191,6,0,B|352:120,1,70
307,154,121552,1,8
351,198,121732,1,0
395,153,121913,1,2
351,198,122093,1,0
351,261,122274,1,8
351,261,122454,1,0
306,305,122634,2,0,B|219:305,1,70
191,260,122995,1,8
235,215,123176,2,0,B|152:216,1,70,0|2
120,171,123537,1,0
120,171,123717,1,12
209,81,124078,5,0
271,81,124258,1,0
336,80,124439,2,0,B|480:80,1,140,8|0
386,169,125161,1,14
474,257,125522,2,0,B|399:323|314:322|202:305,1,280,2|2
119,216,126604,5,2
119,216,126785,1,0
56,216,126965,1,2
56,216,127146,1,0
11,171,127326,2,0,B|11:89|121:67,1,140,8|0
95,136,127867,2,0,B|173:136|217:33,1,140,2|0
267,59,128409,1,8
329,59,128589,1,0
267,59,128770,1,2
203,59,128950,1,0
197,293,129852,6,0,B|60:215,1,140,2|2
120,179,130394,1,0
56,179,130574,2,0,B|99:99|184:94,1,140,2|10
226,96,131116,1,2
289,96,131296,2,0,B|368:96,3,70
359,284,132379,2,0,B|358:191,1,70,8|0
295,214,132740,2,10,B|295:306,1,70,10|0
231,284,133101,2,0,B|147:284|120:201,1,140,10|0
224,50,134003,5,8
224,113,134183,1,2
280,80,134364,1,2
280,142,134544,1,8
324,98,134725,2,0,B|361:33|371:32|426:96,1,140,0|2
422,91,135266,1,8
449,230,135627,6,0,B|394:306|339:329|252:298,1,210,0|10
225,259,136349,2,0,B|224:184,2,70,0|0|8
180,303,136890,1,2
116,303,137070,2,0,B|34:258|49:159|102:129|40:40,1,280,0|6
179,182,138334,5,0
241,182,138514,1,2
304,182,138695,1,0
366,182,138875,1,2
410,137,139055,2,8,B|461:74|334:46,1,140,8|10
256,137,139777,2,8,B|175:154|127:66,1,140,8|4
96,80,141401,6,0,B|96:168,1,70
96,213,141762,1,8
96,276,141943,1,2
140,320,142123,6,0,B|140:247,1,70
140,186,142484,1,8
140,123,142664,1,2
184,78,142845,6,0,B|185:156,1,70
184,211,143206,1,8
184,273,143386,1,2
247,273,143567,1,8
291,228,143747,1,0
335,183,143928,1,8
379,138,144108,1,0
424,93,144289,6,0,B|479:138|476:228,1,140,2|8
412,217,144830,2,0,B|413:307|481:341,1,140,2|0
408,336,145371,2,0,B|365:263|261:277,1,140,2|8
290,337,145913,2,0,B|214:334|176:256,1,140,2|0
224,218,146454,1,8
179,173,146634,1,0
223,128,146815,1,8
178,83,146995,1,0
222,38,147176,6,0,B|378:37,2,140,0|0|4
311,127,148258,2,0,B|339:202|286:270,2,140,0|0|4
222,216,149341,1,8
177,260,149522,1,0
132,304,149702,1,8
87,348,149883,1,0
42,303,150063,6,0,B|96:219|29:156,1,140,0|2
90,128,150604,2,0,B|144:72,1,70,0|2
183,122,150965,2,0,B|245:51,1,70,0|2
273,113,151326,2,0,B|320:56,1,70,0|2
362,103,151687,2,0,B|414:40,1,70,0|2
451,93,152048,2,0,B|502:27,4,70,0|2|0|2|0
256,208,152950,12,0,154394
128,192,154755,6,0,B|48:192,1,70,0|8
88,248,155116,2,0,B|168:248,1,70
113,292,155477,2,0,B|196:292,1,70,0|8
246,292,155837,1,0
246,292,156018,1,0
308,292,156198,1,8
370,292,156379,2,0,B|433:251|368:166,1,140,0|4
245,170,157101,5,0
307,170,157281,1,0
307,170,157461,1,0
370,170,157642,1,8
369,170,157822,2,0,B|456:144|432:40,1,140,0|4
246,63,158725,6,0,B|164:99|144:166,1,140,0|8
214,223,159266,2,0,B|158:276,1,70
230,338,159627,2,0,B|316:338,1,70,0|4
360,273,159988,2,0,B|447:274,1,70,0|8
485,206,160349,2,0,B|409:205,1,70,0|2
326,248,160710,1,0
240,247,160890,2,0,B|144:208|154:126,1,140,2|0
85,59,161612,6,0,B|85:206,1,140,0|8
85,262,162153,2,0,B|88:344|191:346,1,140,0|8
178,219,162875,2,0,B|262:219|294:298,1,140,0|4
256,208,164499,12,0,167386
