osu file format v7

[General]
AudioFilename: Nightcore - La Di Da (version 2).mp3
AudioLeadIn: 1974
PreviewTime: 31688
Countdown: 0
SampleSet: Soft
StackLeniency: 0.7
Mode: 0
LetterboxInBreaks: 1
EpilepsyWarning: 1

[Editor]
Bookmarks: 498,17784,31652,43809,55967,63375,78762,95099,107257,119795,131762
DistanceSpacing: 1
BeatDivisor: 4
GridSize: 8

[Metadata]
Title:La Di Da
Artist:Nightcore
Creator:Nakata Yuji
Version:Around the World
Source:
Tags:rukarioman trance

[Difficulty]
HPDrainRate:7
CircleSize:4
OverallDifficulty:8
SliderMultiplier:2.1
SliderTickRate:2

[Events]
//Background and Video events
0,0,"misc_75_1024.jpg"
//Break Periods
2,17984,18174
2,56167,62625
2,63765,64335
2,65285,65665
2,94159,94349
//Storyboard Layer 0 (Background)
//Storyboard Layer 1 (Fail)
//Storyboard Layer 2 (Pass)
//Storyboard Layer 3 (Foreground)
Sprite,Foreground,Centre,"Storyboard\caution.png",320,240 M,0,58246,,320,240 F,2,58246,58626,0,1 S,2,58246,58626,0.1,0.7559999 R,2,58246,58626,0.2240002,-6.288001 S,0,58626,59006,0.7559999,0.932 F,0,58626,59766,1 R,0,58626,59766,-6.288001 S,0,59006,59386,0.932,0.7346666 F,0,59956,,0 F,0,60146,,1 F,0,60336,,0 F,0,60526,,1 F,0,60716,,1 F,1,60906,,1 F,1,61286,61666,1,0 S,1,61286,61666,0.7559999,0.1 R,1,61286,61666,-6.288001,-17.728
//Storyboard Sound Samples
//Background Colour Transformations
3,100,163,162,255

[TimingPoints]
498,379.927180623714,4,2,0,100,1,0
43809,-100,4,2,0,100,0,1
55967,-100,4,2,0,100,0,0
63375,-100,4,2,0,19,0,0
65085,-100,4,2,0,31,0,0
66415,-100,4,2,0,45,0,0
67365,-100,4,2,0,65,0,0
68125,-100,4,2,0,78,0,0
68504,-100,4,2,0,88,0,0
68884,-100,4,2,0,94,0,0
69264,-100,4,2,0,100,0,0

[Colours]
Combo1 : 13,94,242
Combo2 : 255,255,255
Combo3 : 128,255,255

[HitObjects]
48,176,498,2,0,B|16:232|64:296,1,105,0|0
128,344,877,2,0,B|160:288|112:224,1,105,2|0
48,176,1257,2,0,B|112:144|168:160,1,105
256,176,1637,1,2
336,240,1827,1,0
424,296,2017,2,0,B|424:168,1,105
424,88,2397,1,2
424,88,2587,1,0
328,40,2777,6,0,B|328:152,1,105
256,72,3157,2,2,B|256:184,1,105,2|0
160,136,3537,2,0,B|24:136,1,105
112,224,3917,2,2,B|112:336,1,105,2|0
192,264,4297,2,0,B|304:264,1,105
400,264,4677,5,2
400,264,4867,1,0
400,160,5057,2,0,B|400:48,2,105,0|0|2
400,264,5627,1,0
296,264,5816,2,0,B|184:264,1,105
272,192,6196,2,0,B|384:192,1,105,2|0
296,120,6576,2,0,B|176:120,1,105
88,120,6956,1,2
88,120,7146,1,0
88,224,7336,5,4
88,224,7716,1,0
88,224,8096,2,0,B|200:272|320:208,1,210
376,160,8666,1,0
368,56,9046,2,0,B|264:16|152:72,1,210
80,128,9616,1,2
48,232,9806,1,0
48,232,9901,1,0
48,232,9996,2,2,B|16:288|56:336,1,105
160,328,10376,6,0,B|192:272|152:224,1,105
48,232,10756,2,0,B|16:160|72:104,1,105
128,64,11135,2,2,B|240:16|376:104,1,210
424,136,11705,2,0,B|488:232|416:344,1,210
422,333,12275,1,2
320,344,12465,1,0
320,344,12560,1,0
320,344,12655,2,2,B|208:344,1,105,2|0
112,344,13035,5,2
112,344,13225,2,0,B|112:200,1,105
40,320,13605,2,0,B|40:184,1,105,0|0
40,112,13985,1,0
128,56,14175,1,2
232,40,14365,1,0
232,40,14555,1,0
336,64,14745,1,0
416,128,14935,1,2
360,216,15125,6,0,B|232:40|72:200,2,315,0|2|0
360,216,16359,1,0
360,216,16454,1,2
152,224,16834,2,0,B|240:136|328:296,1,210,0|2
317,277,17594,1,0
317,277,17784,1,4
64,64,18924,6,2,B|192:64,1,105
272,64,19304,1,0
192,128,19494,2,0,B|320:128,1,105
400,128,19874,1,2
88,128,20254,1,0
400,128,20634,1,2
400,232,20824,1,0
400,232,21204,1,0
400,232,21583,1,2
192,232,21963,5,2
192,232,22153,1,2
192,232,22248,1,0
192,232,22343,1,2
88,232,22533,2,0,B|88:112,1,105
16,200,22913,2,0,B|16:320,1,105,2|0
88,232,23293,2,0,B|88:352,1,105
160,256,23673,2,0,B|160:136,1,105,2|0
232,72,24053,5,0
336,56,24243,1,0
432,96,24433,1,2
456,200,24623,1,2
456,200,24718,1,0
456,200,24813,1,2
424,296,25003,1,0
336,352,25193,1,2
232,360,25383,1,0
40,344,25573,5,4
40,40,25953,1,0
40,344,26333,1,2
96,88,26712,1,0
96,296,26902,1,0
152,136,27282,1,0
152,248,27662,1,0
352,192,28042,2,2,B|128:192,1,210
142,192,28612,1,6
142,192,28802,1,0
40,192,28992,5,0
72,96,29182,1,0
168,48,29372,2,0,B|280:-8|376:88,1,210,0|0
424,160,29942,1,2
296,328,30322,1,0
192,336,30512,1,0
96,296,30702,1,0
48,200,30892,2,2,B|32:128|56:72,1,105
136,32,31272,1,0
136,32,31462,1,0
136,136,31652,6,0,B|136:248,1,105,6|0
240,240,32031,1,8
240,136,32221,2,2,B|240:24,1,105
344,32,32601,1,0
448,32,32791,1,8
448,136,32981,1,2
408,232,33171,5,2
448,136,33361,1,0
352,184,33551,1,8
448,136,33741,1,2
344,112,33931,1,2
448,136,34121,1,0
384,56,34311,1,8
448,136,34501,1,2
448,240,34691,6,0,B|472:288|416:336,1,105,6|0
312,336,35071,2,0,B|288:288|344:240,1,105,8|2
448,240,35451,1,2
416,168,35641,2,2,B|344:136|272:168,1,105,0|8
160,200,36021,5,2
264,80,36211,1,2
312,232,36401,1,0
160,200,36591,1,8
264,80,36781,1,2
312,232,36971,1,2
160,200,37160,1,0
264,80,37350,1,8
312,232,37540,1,2
256,320,37730,6,0,B|208:352|152:336,1,105,6|0
72,272,38110,1,8
72,168,38300,2,2,B|72:48,1,105
160,120,38680,1,0
160,120,38870,1,8
256,88,39060,1,2
232,192,39250,1,2
328,160,39440,1,0
304,264,39630,1,8
408,232,39820,5,2
368,328,40010,2,0,B|304:360|224:336,1,105,2|0
176,288,40390,2,8,B|240:256|320:280,1,105,8|2
368,328,40770,2,0,B|456:336|480:272,1,105,6|0
464,192,41150,1,8
416,104,41340,1,2
464,192,41530,1,6
360,192,41720,1,0
304,104,41910,1,8
360,192,42100,1,2
256,192,42289,5,4
48,192,42669,1,8
256,192,43049,1,2
152,192,43239,1,0
152,192,43429,1,8
152,192,43524,1,0
152,192,43619,1,2
152,192,43714,1,0
152,192,43809,1,6
344,112,44189,5,8
248,160,44379,1,2
152,192,44569,1,2
152,192,44759,1,0
152,192,44949,5,8
152,192,45044,1,0
152,192,45139,1,2
152,192,45234,1,0
152,192,45329,1,2
48,160,45519,2,0,B|24:224|64:280,1,105,0|8
152,304,45899,2,2,B|176:239|136:183,1,105
48,160,46279,6,0,B|24:96|64:48,1,105,0|8
104,32,46564,1,0
160,24,46659,1,2
216,32,46754,1,0
264,56,46849,1,6
344,120,47039,1,0
424,192,47229,5,8
424,192,47419,2,2,B|424:312,1,105
336,240,47798,1,0
336,240,47988,1,8
256,304,48178,1,2
152,304,48368,1,2
152,200,48558,1,0
256,200,48748,1,8
288,344,48938,1,2
120,344,49128,1,2
112,160,49318,1,0
288,160,49508,5,8
320,120,49603,1,0
304,72,49698,1,2
256,40,49793,1,0
208,56,49888,1,6
152,144,50078,6,0,B|144:200|48:192,1,105,0|8
64,88,50458,2,2,B|72:31|168:39,1,105
240,72,50838,2,0,B|288:128|240:192,1,105,0|8
176,240,51218,2,2,B|120:264|112:336,1,105
216,328,51598,2,0,B|272:304|280:232,1,105,0|8
320,152,51978,2,2,B|344:96|408:96,1,105
472,176,52358,2,0,B|480:240|424:280,1,105,0|8
384,288,52643,1,0
336,272,52737,1,2
312,224,52832,1,0
320,176,52927,1,6
40,336,53307,5,8
96,336,53402,1,0
152,336,53497,1,2
208,336,53592,1,0
264,336,53687,1,6
472,48,54067,5,8
416,48,54162,1,0
360,48,54257,1,2
304,48,54352,1,0
248,48,54447,1,6
256,192,54827,5,8
256,192,55207,1,0
256,192,55397,1,0
256,192,55587,1,8
256,192,55682,1,0
256,192,55777,1,2
256,192,55872,1,0
256,192,55967,1,0
256,64,63375,5,0
256,320,63565,1,6
256,192,65085,5,6
88,192,66415,5,0
432,192,66605,1,6
256,192,67365,5,6
336,48,68125,5,6
424,112,68315,1,0
448,216,68504,1,6
400,312,68694,1,0
296,344,68884,1,6
240,344,68979,1,0
184,336,69074,1,0
136,312,69169,1,0
104,264,69264,1,6
80,160,69454,1,4
120,64,69644,6,0,B|248:16,1,105
168,120,70024,2,0,B|280:104,1,105,0|2
208,184,70404,2,0,B|328:184,1,105
232,256,70784,2,0,B|352:272,1,105,0|2
440,280,71164,6,0,B|488:248|448:184,1,105
352,224,71544,2,0,B|336:168|408:120,1,105,0|2
472,64,71924,2,0,B|432:16|344:40,1,105
288,96,72304,2,0,B|256:152|272:216,1,105,0|2
272,304,72684,5,0
168,304,72874,1,0
272,272,73064,1,0
168,272,73254,1,2
272,240,73444,1,0
168,240,73633,1,0
272,208,73823,2,0,B|160:208,1,105,0|2
248,136,74203,6,0,B|368:136,1,105
272,208,74583,1,0
168,208,74773,2,0,B|104:224|64:176,1,105,2|0
168,136,75153,2,0,B|104:152|64:104,1,105
168,64,75533,2,0,B|232:48|272:96,1,105,2|0
312,184,75913,5,0
360,96,76103,1,0
464,96,76293,1,2
408,184,76483,1,0
456,280,76673,1,0
408,184,76863,1,0
312,184,77053,1,2
352,280,77243,5,0
312,184,77433,1,0
360,96,77623,1,0
256,96,77813,1,2
312,184,78003,1,0
208,184,78193,1,0
256,96,78383,1,0
256,192,78762,12,4,81802
72,80,81992,5,0
72,184,82182,1,8
168,136,82372,1,2
72,80,82562,1,2
72,184,82752,1,0
72,288,82942,2,0,B|104:344|176:344,1,105,8|2
248,288,83322,2,0,B|184:288|144:256,1,105,2|0
72,184,83702,6,0,B|56:112|104:72,1,105,8|2
192,64,84081,2,0,B|280:32|320:80,1,105,2|0
392,96,84461,1,8
448,184,84651,1,2
344,176,84841,1,6
392,264,85031,1,0
288,264,85221,1,8
224,344,85411,1,2
328,344,85601,1,2
432,344,85791,6,0,B|432:232,1,105,0|8
360,320,86171,2,2,B|360:200,1,105
288,288,86551,2,0,B|288:168,1,105,0|8
216,264,86931,2,2,B|216:136,1,105
152,240,87311,2,0,B|152:368,1,105,0|8
80,264,87691,2,2,B|80:144,1,105,2|6
80,56,88071,5,0
184,56,88261,1,8
80,56,88451,2,2,B|200:56,1,105
288,56,88831,2,0,B|288:168,1,105,0|8
392,160,89210,2,2,B|280:160,1,105
288,264,89590,2,0,B|288:144,1,105,0|8
184,160,89970,2,2,B|296:160,1,105
289,160,90350,1,0
376,216,90540,6,0,B|392:288|320:320,1,105,8|2
240,328,90920,2,0,B|176:336|128:288,1,105,6|0
88,208,91300,2,0,B|64:136|104:96,1,105,8|2
192,64,91680,1,2
296,64,91870,2,0,B|416:64,1,105,0|8
344,152,92250,1,2
392,240,92440,2,0,B|256:240,1,105,2|0
184,240,92820,1,8
88,280,93010,2,2,B|88:160,1,105
192,176,93390,2,0,B|176:104|96:88,1,105,0|8
128,24,93770,2,2,B|208:48|240:112,1,105,2|6
456,312,95099,5,0
456,208,95289,1,2
424,104,95479,2,0,B|344:24|200:48,1,210,2|0
136,88,96049,1,2
104,192,96239,1,2
200,160,96429,2,0,B|208:224|248:280,1,105,0|0
328,312,96809,5,2
392,232,96999,2,0,B|440:136|336:24,1,210,2|0
248,40,97569,2,0,B|176:32|176:80|128:128|40:112,1,210,2|0
56,224,98139,1,0
56,328,98329,1,2
56,328,98424,1,0
56,328,98519,1,6
264,312,98899,6,0,B|352:304|344:224,1,105,0|2
448,264,99279,2,0,B|432:184|368:176,1,105,2|0
296,224,99658,1,0
192,248,99848,2,0,B|64:184|168:64,1,210,2|0
264,64,100418,1,2
368,64,100608,1,2
368,64,100703,1,0
368,64,100798,1,2
432,144,100988,1,0
448,248,101178,1,2
368,320,101368,5,0
368,320,101558,2,0,B|232:344|128:320,1,210,4|2
216,232,102128,1,0
272,144,102318,2,0,B|160:128|40:128,1,210,0|2
64,232,102888,1,0
64,24,103268,1,0
62,128,103648,6,0,B|34:240|74:352,1,210,0|0
168,336,104218,1,2
272,336,104408,1,2
272,336,104503,1,0
272,336,104598,1,6
376,312,104788,1,0
424,224,104977,1,0
424,224,105167,1,0
432,120,105357,5,2
344,64,105547,2,0,B|240:56|120:64,1,210
56,128,106117,1,0
48,232,106307,1,2
80,328,106497,1,2
80,328,106592,1,0
80,328,106687,1,2
184,336,106877,5,0
184,336,107067,1,0
288,328,107257,2,0,B|376:336|400:264,1,105,2|0
296,240,107637,2,0,B|344:184|416:200,1,105,4|0
384,88,108017,2,0,B|304:112|272:152,1,105,2|0
208,200,108397,2,0,B|184:128|240:72,1,105
128,48,108777,2,0,B|80:104|104:176,1,105,2|0
96,248,109157,6,0,B|160:344|320:336,1,210,0|2
384,320,109727,1,0
432,224,110106,1,0
432,224,110201,1,0
432,224,110296,1,2
424,120,110486,1,0
112,96,111056,6,0,B|240:96,1,105,2|0
288,176,111436,1,0
184,176,111626,2,0,B|48:176|56:328,1,210,2|0
160,312,112196,1,0
264,312,112386,5,0
368,312,112576,1,2
368,312,112671,1,0
368,312,112766,1,0
472,312,112956,1,0
472,312,113146,1,0
472,312,113336,1,2
472,208,113526,6,0,B|416:224|344:152,1,105,0|4
352,80,113906,2,0,B|408:64|480:136,1,105,0|2
472,208,114286,1,0
472,312,114476,2,0,B|368:344|224:328,1,210,0|2
160,328,115046,1,0
160,328,115141,1,0
160,328,115236,1,0
88,256,115425,6,0,B|48:208|48:152,1,105,0|2
104,72,115805,1,0
208,48,115995,1,0
208,48,116090,1,0
208,48,116185,1,0
312,48,116375,1,2
416,80,116565,1,0
456,176,116755,5,4
456,176,116945,1,0
456,176,117135,2,0,B|328:232|200:224,1,210,2|0
144,216,117705,1,0
64,152,117895,2,0,B|56:80|112:56,1,105,2|0
208,56,118275,2,0,B|288:40|328:64,1,105
416,72,118655,5,2
416,176,118845,1,0
416,280,119035,1,0
416,176,119225,1,0
416,72,119415,1,2
416,176,119605,1,0
416,176,119700,1,0
416,176,119795,1,4
344,104,119985,6,0,B|216:88,1,105,0|8
304,160,120365,2,2,B|192:152,1,105
272,216,120744,2,0,B|144:216,1,105,0|8
248,272,121124,2,2,B|136:280,1,105
232,336,121504,2,0,B|120:352,1,105,0|8
32,304,121884,5,2
32,200,122074,2,0,B|32:56,1,105,2|0
128,144,122454,1,8
224,96,122644,2,2,B|224:232,1,105,2|6
224,304,123024,1,0
320,344,123214,1,8
424,320,123404,1,2
424,320,123594,1,2
424,216,123784,6,0,B|456:168|400:104,1,105,0|8
320,72,124164,2,2,B|288:120|344:184,1,105
424,216,124544,1,0
328,256,124734,2,0,B|256:224|240:144,1,105,8|2
232,80,125114,2,0,B|224:24|136:32,1,105,2|0
152,136,125494,1,8
64,192,125684,2,2,B|72:248|160:240,1,105,2|6
248,232,126063,6,0,B|248:112,1,105,0|8
352,128,126443,1,2
296,40,126633,1,2
192,40,126823,1,0
136,128,127013,1,8
80,216,127203,2,2,B|80:328,1,105
176,272,127583,2,0,B|176:152,1,105,0|8
80,216,127963,5,2
176,168,128153,2,0,B|176:56,1,105,2|0
80,112,128533,2,0,B|80:240,1,105,8|2
184,216,128913,1,6
288,216,129103,1,0
224,128,129293,1,8
328,128,129483,1,2
264,40,129673,1,6
368,40,129863,1,0
472,40,130053,6,0,B|472:152,1,105,8|2
472,248,130433,2,0,B|352:248,1,105,6|0
448,320,130813,2,0,B|312:320,1,105,8|2
416,248,131192,2,0,B|296:248,1,105,2|0
384,320,131572,2,0,B|264:320,1,105,8|2
176,320,131952,5,4
72,320,132142,2,0,B|72:208,1,105,0|2
72,112,132522,2,0,B|72:56|144:40,1,105
168,144,132902,1,0
264,176,133092,2,0,B|264:232|192:248,1,105,2|0
168,144,133472,1,0
72,112,133662,2,0,B|72:56|144:40,1,105,0|2
168,144,134042,5,0
264,176,134232,2,0,B|264:232|192:248,1,105,0|0
168,144,134612,1,2
72,112,134802,2,0,B|72:56|144:40,1,105,0|4
240,48,135182,2,0,B|352:48,1,105,0|2
264,120,135562,2,0,B|384:120,1,105
288,48,135942,2,0,B|400:48,1,105,0|2
320,120,136321,2,0,B|432:120,1,105
344,192,136701,6,0,B|344:304,1,105,0|2
272,224,137081,2,0,B|272:88,1,105
344,192,137461,2,0,B|464:192,1,105,0|2
368,120,137841,2,0,B|256:120,1,105,0|4
160,120,138221,5,0
88,200,138411,1,2
192,224,138601,1,0
160,120,138791,1,0
88,200,138981,1,0
192,224,139171,1,2
160,120,139361,1,0
160,120,139551,2,0,B|224:72|288:80,1,105,4|0
360,80,139931,5,2
312,176,140121,2,0,B|272:216|200:208,1,105
160,120,140501,2,0,B|224:72|288:80,1,105,0|2
360,80,140881,1,4
360,80,141071,1,4
448,136,141261,2,0,B|472:216|416:248,1,105,0|2
336,208,141640,2,0,B|304:256|336:312,1,105,0|4
424,248,142020,2,0,B|448:192|384:128,1,105,0|2
304,120,142400,1,2
200,144,142590,1,4
64,304,142970,5,2
272,304,143350,1,4
168,120,143730,1,2
168,224,143920,1,2
168,328,144110,1,6
