osu file format v5

[General]
AudioFilename: Nightcore - History.mp3
AudioLeadIn: 0
PreviewTime: -1
Countdown: 1
SampleSet: Normal
StackLeniency: 0.7
Mode: 0
LetterboxInBreaks: 1
EditorDistanceSpacing: 0.800000011920929

[Metadata]
Title:History
Artist:Nightcore
Creator:jass63
Version:Normal
Source:
Tags:

[Difficulty]
HPDrainRate:5
CircleSize:5
OverallDifficulty:5
SliderMultiplier:1
SliderTickRate:1

[Events]
//Background and Video events
//Break Periods
2,45757,49491
2,53778,55266
2,62442,68100
2,72709,75159
2,115704,120079
2,169286,171416
//Storyboard Layer 0 (Background)
//Storyboard Layer 1 (Failing)
//Storyboard Layer 2 (Passing)
//Storyboard Layer 3 (Foreground)
//Storyboard Sound Samples
//Background Colour Transformations
3,100,163,162,255

[TimingPoints]
2242,320.855614973262,4,1,0,100,1,0

[HitObjects]
96,64,316,1,0
224,128,2562,1,0
320,192,3846,1,0
64,192,4167,1,0
224,96,6733,1,0
256,96,8017,1,0
352,224,9300,1,0
192,192,9942,1,0
320,128,10584,1,0
224,96,10905,1,0
224,224,11867,1,0
288,224,12188,1,0
256,160,12509,1,0
224,192,13471,1,0
224,192,13792,1,0
224,192,14113,1,0
224,192,14755,1,0
224,192,15076,1,0
128,160,15717,1,0
128,160,16038,1,0
448,96,17001,1,0
288,224,17322,1,0
160,96,17643,1,0
128,224,18926,2,0,B|480:224|384:128,5,300
128,160,25022,2,0,B|448:96,2,300
96,160,28231,1,0
288,224,29514,1,0
160,128,30156,1,0
320,96,30798,1,0
192,224,31439,1,0
320,224,31760,1,0
224,128,32081,1,0
320,128,33044,1,0
224,224,33364,1,0
160,128,34006,1,0
288,96,34327,1,0
128,32,34648,1,0
32,192,34969,1,0
192,224,35610,1,0
288,160,35931,1,0
160,128,36252,1,0
320,96,36573,1,0
320,224,36894,1,0
224,256,37215,1,0
64,224,37536,1,0
160,288,37856,1,0
352,288,38177,1,0
224,160,38498,1,0
384,160,38819,1,0
160,128,39140,1,0
192,224,39461,1,0
320,192,39782,1,0
128,192,40423,1,0
192,288,40744,1,0
288,256,41065,1,0
256,160,41386,1,0
224,96,41707,1,0
384,64,42028,1,0
160,96,42348,1,0
128,160,42669,1,0
128,256,42990,1,0
352,256,43311,1,0
192,256,43632,1,0
320,192,43953,1,0
224,160,44274,1,0
416,128,44594,1,0
288,32,44915,1,0
192,64,45236,1,0
128,96,45557,1,0
96,192,50691,6,0,B|448:192|320:96,3,300
96,160,56466,5,0
288,160,57108,1,0
160,256,57750,1,0
160,128,58070,1,0
384,96,58391,1,0
352,192,59033,1,0
224,192,59675,1,0
128,96,60316,1,0
256,96,60637,1,0
128,192,60958,1,0
288,224,61600,1,0
160,256,62242,1,0
256,192,63525,12,0,68659
192,160,69300,5,0
352,96,70263,1,0
224,192,70905,1,0
96,160,71225,1,0
352,256,72188,1,0
352,128,72509,1,0
224,224,76359,5,0
256,96,77001,1,0
320,224,77643,1,0
192,224,77963,1,0
96,128,78605,1,0
256,128,79247,1,0
416,128,79889,1,0
320,192,80530,1,0
192,192,81172,1,0
96,64,82455,1,0
448,64,83097,1,0
32,192,83739,1,0
160,192,84381,1,0
256,192,85022,1,0
384,192,85664,1,0
384,256,86947,1,0
256,320,87268,1,0
96,256,87910,1,0
160,160,88552,1,0
256,256,89193,1,0
224,96,89835,1,0
352,192,92081,6,0,B|64:96|-32:128,4,300
192,192,96894,1,0
320,128,97536,1,0
128,64,98177,1,0
256,256,98819,1,0
96,224,99461,1,0
320,160,99782,1,0
160,128,100744,1,0
256,224,101065,1,0
128,224,101386,1,0
224,128,101707,1,0
256,128,102028,1,0
384,224,102669,1,0
224,256,103311,1,0
224,256,103632,1,0
128,224,104274,1,0
256,96,105236,1,0
320,256,105878,1,0
128,224,106199,1,0
128,128,106520,1,0
352,160,107161,1,0
224,256,108124,1,0
288,96,108445,1,0
160,128,108766,1,0
96,224,109407,1,0
320,224,110049,1,0
96,320,110691,1,0
192,128,111012,1,0
192,256,111653,1,0
64,160,111974,1,0
288,192,112295,1,0
128,256,112616,1,0
160,128,113258,1,0
192,192,113899,1,0
32,192,114541,1,0
288,128,114862,1,0
256,256,115504,1,0
224,160,121279,6,0,B|512:256,2,300
128,224,124808,6,0,B|448:256,3,300
224,128,128338,2,0,B|480:192|288:32,7,200
64,64,134113,2,0,B|448:288,4,400
128,96,141172,1,0
224,192,141493,1,0
96,224,141814,1,0
320,224,142135,1,0
192,256,142776,1,0
160,192,143097,1,0
224,192,143418,1,0
224,96,143739,1,0
192,160,145343,1,0
192,224,145985,1,0
256,224,146627,1,0
256,160,147268,1,0
192,160,147910,1,0
192,224,148231,1,0
256,224,148873,1,0
256,160,149514,1,0
192,160,150156,1,0
192,224,150798,1,0
256,224,151439,1,0
256,128,151760,1,0
192,160,153044,1,0
192,224,154006,1,0
256,224,154648,1,0
256,160,155290,1,0
192,160,155931,1,0
192,224,156573,1,0
256,224,157215,1,0
256,160,157856,1,0
224,160,158498,1,0
224,224,159140,1,0
288,224,160102,1,0
288,160,160744,1,0
224,160,161065,1,0
160,192,161707,1,0
128,96,162028,1,0
320,96,162669,1,0
288,224,163311,1,0
160,224,163632,1,0
224,160,163953,1,0
192,160,166199,6,0,B|480:192|256:32,3,300
256,192,172616,12,0,175824
