osu file format v7

[General]
AudioFilename: Nightcore III - Hey Now.mp3
AudioLeadIn: 3000
PreviewTime: 84388
Countdown: 0
SampleSet: Soft
StackLeniency: 0.3
Mode: 0
LetterboxInBreaks: 0

[Editor]
DistanceSpacing: 0.800000011920929
BeatDivisor: 4
GridSize: 8

[Metadata]
Title:Hey Now
Artist:Nightcore
Creator:osuplayer111
Version:Hard
Source:Nightcore III
Tags:Trance Techno Natteke jericho2442

[Difficulty]
HPDrainRate:7
CircleSize:4
OverallDifficulty:7
SliderMultiplier:1.6
SliderTickRate:2

[Events]
//Background and Video events
0,0,"Hey Now!.jpg"
//Break Periods
2,54087,63380
//Storyboard Layer 0 (Background)
//Storyboard Layer 1 (Fail)
//Storyboard Layer 2 (Pass)
//Storyboard Layer 3 (Foreground)
//Storyboard Sound Samples
Sample,44482,0,"soft-hitclap.wav",80
Sample,46428,0,"soft-hitclap.wav",80
Sample,47077,0,"soft-hitclap.wav",80
Sample,49022,0,"soft-hitclap.wav",80
Sample,49671,0,"soft-hitclap.wav",80
Sample,51617,0,"soft-hitclap.wav",80
Sample,52266,0,"soft-hitclap.wav",80
Sample,52914,0,"soft-hitclap.wav",80
Sample,53239,0,"soft-hitwhistle.wav",80
Sample,53563,0,"soft-hitclap.wav",80
Sample,79523,0,"soft-hitclap.wav",80
Sample,86009,0,"soft-hitclap.wav",80
Sample,87955,0,"soft-hitclap.wav",80
Sample,88604,0,"soft-hitclap.wav",80
Sample,90550,0,"soft-hitclap.wav",80
Sample,91198,0,"soft-hitclap.wav",80
Sample,93144,0,"soft-hitclap.wav",80
Sample,93793,0,"soft-hitclap.wav",80
Sample,95739,0,"soft-hitclap.wav",80
Sample,96388,0,"soft-hitclap.wav",80
Sample,98334,0,"soft-hitclap.wav",80
Sample,98982,0,"soft-hitclap.wav",80
Sample,100928,0,"soft-hitclap.wav",80
Sample,101577,0,"soft-hitclap.wav",80
Sample,103523,0,"soft-hitclap.wav",80
Sample,104171,0,"soft-hitclap.wav",80
Sample,104820,0,"soft-hitclap.wav",80
Sample,105144,0,"soft-hitwhistle.wav",80
Sample,105469,0,"soft-hitclap.wav",80
//Background Colour Transformations
3,100,163,162,255

[TimingPoints]
50,324.324324324324,4,1,1,70,1,0
1995,-100,4,2,1,80,0,0
13509,-100,4,2,1,60,0,0
14158,-100,4,2,1,40,0,0
14805,-100,4,2,1,20,0,0
16588,-100,4,2,1,80,0,0
17399,-100,4,2,1,60,0,0
18048,-100,4,2,1,40,0,0
19345,-100,4,2,1,20,0,0
21453,-100,4,1,1,70,0,0
22750,-100,4,2,1,80,0,0
23236,-100,4,2,1,60,0,0
24047,-100,4,2,1,40,0,0
25830,-100,4,2,1,20,0,0
27128,-100,4,2,1,80,0,0
27776,-100,4,2,1,60,0,0
29073,-100,4,2,1,40,0,0
30371,-100,4,2,1,20,0,0
32154,-100,4,2,1,80,0,0
42126,-200,4,1,1,70,0,0
42856,-100,4,2,1,80,0,0
52503,-200,4,2,1,80,0,0
52909,-100,4,2,1,80,0,0
64280,324.324324324324,4,2,1,80,1,0
85036,-100,4,2,1,80,0,1
95334,-100,4,2,1,80,0,0
95415,-100,4,2,1,80,0,1
105712,-100,4,2,1,80,0,0
105793,-100,4,2,1,80,0,1
105874,-100,4,2,1,80,0,0

[Colours]
Combo1 : 255,0,255
Combo2 : 255,0,0
Combo3 : 0,0,255
Combo4 : 255,255,0

[HitObjects]
320,256,50,1,0
320,128,374,1,0
192,128,698,1,0
192,256,1022,1,0
192,192,1185,6,0,B|136:192,2,40
256,192,1509,1,0
256,192,1671,1,0
320,192,1833,2,0,B|384:192,2,40,0|0|4
256,312,2320,6,0,B|184:376,2,80,0|2|0
256,312,2806,2,0,B|328:376,2,80,2|0|2
256,248,3293,1,4
256,72,3617,6,0,B|328:8,2,80,0|2|0
256,72,4103,2,0,B|184:8,2,80,2|0|2
256,136,4590,1,4
136,192,4914,6,0,B|72:120,2,80,0|2|0
136,192,5400,2,0,B|72:264,2,80,2|0|2
200,192,5887,1,4
376,192,6212,6,0,B|440:264,2,80,0|2|0
376,192,6698,2,0,B|440:120,2,80,2|0|2
312,192,7185,1,4
200,192,7509,6,0,B|136:136,1,80,8|2
139,139,7833,2,0,B|208:80,1,80,0|2
200,86,8158,2,0,B|136:24,1,80,8|2
142,30,8482,1,4
312,192,8806,6,0,B|376:136,1,80,8|2
372,139,9130,2,0,B|304:80,1,80,0|2
311,86,9455,2,0,B|376:24,1,80,8|2
369,30,9779,1,4
312,192,10104,6,0,B|376:248,1,80,8|2
372,244,10428,2,0,B|304:304,1,80,0|2
311,297,10753,2,0,B|376:360,1,80,8|2
369,353,11077,1,4
200,192,11401,6,0,B|136:248,1,80,8|2
139,244,11725,2,0,B|208:304,1,80,0|2
200,297,12050,2,0,B|136:360,1,80,8|2
142,353,12374,1,4
368,352,13022,5,2
480,192,13671,1,0
368,32,14320,1,2
144,32,14968,1,0
32,192,15617,1,2
144,352,16266,1,0
192,192,16914,5,2
320,192,17239,1,8
256,192,17563,2,0,B|256:88|344:72,1,160,2|8
256,192,18212,2,0,B|256:88|168:72,1,160,2|8
256,192,18860,2,0,B|256:296|344:312,1,160,2|8
256,192,19509,2,0,B|256:296|168:312,1,160,2|8
320,192,20158,1,2
192,192,20806,1,2
192,192,21617,5,0
256,168,21779,2,0,B|256:120,2,40
320,192,22104,2,0,B|368:192,2,40
296,248,22428,1,0
256,304,22590,1,0
216,248,22752,1,4
40,192,23401,5,2
144,32,24049,1,0
368,32,24698,1,2
472,192,25347,1,0
368,352,25995,1,2
144,352,26644,1,0
256,192,27293,5,2
256,192,27617,1,8
256,192,27941,2,0,B|152:56,2,160,2|8|2
256,192,28914,2,0,B|360:56,2,160,8|2|8
256,192,29887,2,0,B|256:368,2,160,2|8|2
256,192,31185,1,2
256,192,32482,6,0,B|288:128|208:80|264:24,1,160,2|8
256,40,33131,1,4
256,40,33293,1,0
376,56,33617,1,2
480,128,33941,1,2
480,256,34266,1,0
480,256,34428,1,2
376,328,34752,1,2
252,346,35077,5,2
136,328,35401,1,2
32,256,35725,1,0
32,256,35887,1,2
32,128,36212,1,2
136,56,36536,1,2
252,37,36860,1,0
252,37,37022,1,2
256,192,37671,6,0,B|288:256|208:304|264:360,1,160,2|0
368,296,38320,1,2
368,296,38482,1,0
440,192,38806,2,0,B|448:120|424:88|320:104,1,160,2|2
256,192,39455,1,0
256,192,39617,1,2
72,192,39941,2,0,B|64:120|88:88|192:104,1,160,2|2
256,192,40590,5,2
192,304,40914,1,0
192,304,41077,1,2
320,304,41401,1,2
320,304,41725,1,2
256,192,42049,1,2
256,192,42212,2,0,B|256:24,1,160,4|2
264,40,43185,1,0
264,40,43347,1,0
264,40,43509,1,4
376,104,43833,5,8
376,104,43995,2,0,B|448:176|368:256,1,160,2|2
256,288,44644,1,0
256,288,44806,1,2
320,176,45131,1,8
256,288,45455,1,2
192,176,45779,1,8
136,104,46104,5,2
136,104,46266,2,0,B|64:176|144:256,1,160,0|2
256,216,46914,1,2
256,96,47239,1,0
256,96,47401,1,2
256,216,47725,1,8
184,320,48049,6,0,B|256:384|344:312,1,160,2|8
256,216,48698,1,0
256,216,48860,1,2
184,112,49185,2,0,B|256:48|344:120,1,160,2|2
256,216,49833,1,0
256,216,49995,1,2
416,216,50320,6,0,B|248:216,1,160,8|2
176,320,50968,1,8
96,216,51293,1,0
96,216,51455,1,2
176,120,51779,1,2
96,216,52104,2,0,B|264:216,1,160,2|2
256,216,52590,1,2
256,192,52914,12,4,53887
256,192,64280,5,4
184,294,64604,2,0,B|256:368|328:288,1,160,0|2
384,184,65252,2,0,B|336:96,1,80
296,72,65577,2,0,B|208:72,1,80,2|0
168,112,65901,2,0,B|120:200,1,80
256,192,66388,1,2
256,192,66874,5,2
184,90,67198,2,0,B|256:16|328:96,1,160,0|2
384,200,67846,2,0,B|336:288,1,80
296,312,68171,2,0,B|208:312,1,80,2|0
168,272,68495,2,0,B|120:184,1,80,0|2
256,192,69469,5,2
154,120,69793,2,0,B|80:192|160:264,1,160,0|2
264,320,70441,2,0,B|352:272,1,80
376,232,70766,2,0,B|376:144,1,80,2|0
336,104,71090,2,0,B|248:56,1,80
256,192,71577,1,2
256,192,72063,5,2
358,264,72387,2,0,B|432:192|352:120,1,160,0|2
248,64,73035,2,0,B|160:112,1,80
136,152,73360,2,0,B|136:240,1,80,2|0
176,280,73684,2,0,B|264:328,1,80,0|2
256,192,74658,6,0,B|440:192,2,160,4|8|2
176,288,75631,1,8
120,264,75793,1,0
72,224,75955,1,2
72,160,76117,1,0
120,120,76279,1,8
176,96,76442,1,0
256,192,76766,1,2
256,192,76928,1,8
256,192,77252,5,2
368,256,77577,1,8
368,128,77901,1,2
256,192,78225,2,0,B|160:192,1,80,8|0
24,192,78712,2,0,B|120:192,1,80,0|8
144,312,79198,1,2
256,192,79847,6,0,B|72:192,2,160,4|8|2
336,288,80820,1,8
392,264,80982,1,0
440,224,81144,1,2
440,160,81306,1,0
392,120,81468,1,8
336,96,81631,1,0
256,192,81955,1,2
256,192,82117,1,8
256,192,82442,5,2
336,288,82766,1,8
336,96,83090,1,2
256,192,83415,2,0,B|144:192,2,80,8|0|4
320,192,83901,2,0,B|368:192,5,40
424,192,84388,2,0,B|456:192,16,20,0|0|0|0|0|0|0|0|0|0|0|0|0|0|0|0|4
288,192,85361,5,8
288,192,85523,2,0,B|232:272|144:280,1,160,2|2
288,192,86171,1,0
288,192,86333,2,0,B|232:112|144:104,1,160,2|8
64,192,86982,5,2
192,192,87307,1,8
256,80,87631,1,2
256,80,87793,2,0,B|432:80,1,160,0|2
480,192,88442,2,0,B|536:264|480:352,1,160,2|2
486,341,88928,1,2
360,320,89252,1,8
232,296,89577,5,2
104,272,89901,2,0,B|48:192|104:112,1,160,8|2
97,122,90388,1,0
192,32,90712,1,2
256,144,91036,1,2
320,32,91361,1,0
320,32,91523,1,2
256,144,91847,6,0,B|320:224|256:304,1,160,8|2
376,360,92496,1,8
456,264,92820,1,2
456,264,92982,2,0,B|464:184|400:88,1,160,0|2
320,32,93631,1,2
192,56,93955,1,2
192,56,94117,2,0,B|104:48|56:128,1,160,0|8
168,192,94766,1,2
192,328,95090,6,0,B|104:336|56:256,1,160,8|4
57,258,95577,1,2
168,192,95901,2,0,B|336:192,1,160,2|2
456,192,96550,1,0
456,192,96712,1,2
456,64,97036,6,0,B|280:64,1,160,8|2
168,64,97685,1,8
168,192,98009,1,0
168,192,98171,1,2
168,320,98496,1,2
296,320,98820,2,0,B|464:320,1,160,2|0
456,320,99307,1,2
456,320,99631,1,8
456,192,99955,5,2
376,88,100279,2,0,B|320:16|256:136,1,160,8|2
258,131,100766,1,0
256,256,101090,1,2
140,87,101415,2,0,B|196:15|260:135,1,160,2|2
258,131,101901,1,2
256,256,102225,1,8
176,352,102550,6,0,B|352:352,1,160,2|8
416,256,103198,1,2
416,256,103361,1,0
344,144,103685,1,2
168,144,104009,1,2
96,256,104334,1,2
96,256,104496,1,0
256,192,104820,12,4,105793
