osu file format v14

[General]
AudioFilename: Nightcore - Get Back.mp3
AudioLeadIn: 0
PreviewTime: 65623
Countdown: 1
SampleSet: None
StackLeniency: 0.7
Mode: 0
LetterboxInBreaks: 1
WidescreenStoryboard: 0

[Editor]
DistanceSpacing: 2
BeatDivisor: 8
GridSize: 4
TimelineZoom: 2.7

[Metadata]
Title:Get Back
TitleUnicode:Get Back
Artist:Nightcore
ArtistUnicode:Nightcore
Creator:julchiar
Version:www
Source:
Tags:asap alexandra stan remix
BeatmapID:1094903
BeatmapSetID:515585

[Difficulty]
HPDrainRate:6.5
CircleSize:4.2
OverallDifficulty:7.2
ApproachRate:9.2
SliderMultiplier:2.59999990463257
SliderTickRate:1

[Events]
//Background and Video events
0,0,"bg.jpg",0,0
//Break Periods
2,121251,123017
//Storyboard Layer 0 (Background)
//Storyboard Layer 1 (Fail)
//Storyboard Layer 2 (Pass)
//Storyboard Layer 3 (Foreground)
//Storyboard Sound Samples

[TimingPoints]
52,362.275087549813,4,1,0,100,1,0
110354,-66.6666666666667,4,1,0,100,0,0
110717,-100,4,1,0,100,0,0
111079,-133.333333333333,4,1,0,100,0,0
111985,-100,4,1,0,100,0,0
119965,-200,4,1,0,100,0,0
123587,-100,4,1,0,100,0,0
137354,-200,4,1,0,100,0,0
137716,-100,4,1,0,100,0,0
141701,-66.6666666666667,4,1,0,100,0,0
142063,-200,4,1,0,100,0,0
144599,-100,4,1,0,100,0,0
147497,-200,4,1,0,100,0,0
150396,-100,4,1,0,100,0,0

[HitObjects]
36,324,1138,5,0,0:0:0:0:
20,196,1274,1,0,0:0:0:0:
116,24,1546,5,0,0:0:0:0:
36,324,1863,5,0,0:0:0:0:
116,24,2089,5,0,0:0:0:0:
20,196,2361,5,0,0:0:0:0:
36,324,2587,1,0,0:0:0:0:
132,236,2723,1,0,0:0:0:0:
224,64,2995,5,0,0:0:0:0:
36,324,3312,5,0,0:0:0:0:
224,64,3584,5,0,0:0:0:0:
128,352,3855,5,0,0:0:0:0:
176,248,4037,1,0,0:0:0:0:
228,368,4172,1,0,0:0:0:0:
312,192,4444,5,0,0:0:0:0:
472,80,4761,5,0,0:0:0:0:
228,368,5033,5,0,0:0:0:0:
312,192,5304,5,0,0:0:0:0:
340,320,5486,1,0,0:0:0:0:
416,216,5621,1,0,0:0:0:0:
404,20,5893,5,0,0:0:0:0:
88,40,6210,5,0,0:0:0:0:
128,128,6346,1,0,0:0:0:0:
108,224,6482,1,0,0:0:0:0:
52,304,6618,1,0,0:0:0:0:
252,196,6935,5,0,0:0:0:0:
296,72,7071,1,0,0:0:0:0:
488,32,7342,5,0,0:0:0:0:
416,216,7659,5,0,0:0:0:0:
256,328,7931,5,0,0:0:0:0:
488,32,8203,5,0,0:0:0:0:
412,136,8384,1,0,0:0:0:0:
296,72,8520,1,0,0:0:0:0:
256,328,8837,5,0,0:0:0:0:
488,32,9108,5,0,0:0:0:0:
296,72,9380,5,0,0:0:0:0:
256,328,9652,5,0,0:0:0:0:
288,200,9833,1,0,0:0:0:0:
416,216,9969,1,0,0:0:0:0:
372,24,10240,5,0,0:0:0:0:
256,328,10557,5,0,0:0:0:0:
296,72,10829,5,0,0:0:0:0:
324,264,11101,5,0,0:0:0:0:
236,168,11282,1,0,0:0:0:0:
364,140,11418,1,0,0:0:0:0:
452,312,11690,5,0,0:0:0:0:
256,296,12007,5,0,0:0:0:0:
160,264,12142,1,0,0:0:0:0:
192,168,12278,1,0,0:0:0:0:
288,200,12414,1,0,0:0:0:0:
278,174,12731,5,0,0:0:0:0:
262,287,12866,1,0,0:0:0:0:
151,272,13002,1,0,0:0:0:0:
165,160,13138,1,0,0:0:0:0:
137,157,13456,5,0,0:0:0:0:
264,151,13591,1,0,0:0:0:0:
271,275,13727,1,0,0:0:0:0:
145,283,13863,1,0,0:0:0:0:
137,299,14180,5,0,0:0:0:0:
104,161,14315,1,0,0:0:0:0:
239,126,14451,1,0,0:0:0:0:
274,263,14587,1,0,0:0:0:0:
280,252,14905,5,0,0:0:0:0:
136,317,15040,1,0,0:0:0:0:
69,177,15176,1,0,0:0:0:0:
200,104,15312,1,0,0:0:0:0:
175,96,15629,5,0,0:0:0:0:
276,240,15764,1,0,0:0:0:0:
137,342,15900,1,0,0:0:0:0:
34,202,16036,1,0,0:0:0:0:
0,237,16354,5,0,0:0:0:0:
136,97,16489,1,0,0:0:0:0:
277,227,16625,1,0,0:0:0:0:
146,369,16761,1,0,0:0:0:0:
284,196,17078,5,0,0:0:0:0:
284,196,17260,1,0,0:0:0:0:
173,364,17441,5,0,0:0:0:0:
173,364,17622,1,0,0:0:0:0:
3,260,17803,5,0,0:0:0:0:
3,260,17984,1,0,0:0:0:0:
108,90,18165,5,0,0:0:0:0:
108,90,18256,1,0,0:0:0:0:
108,90,18346,1,0,0:0:0:0:
108,90,18437,1,0,0:0:0:0:
108,90,18528,1,0,0:0:0:0:
200,192,18799,1,0,0:0:0:0:
320,148,19071,1,0,0:0:0:0:
348,240,19252,1,0,0:0:0:0:
424,176,19524,1,0,0:0:0:0:
428,100,19795,1,0,0:0:0:0:
200,304,19977,6,0,P|128:324|64:312,1,129.999995231629
244,184,20520,6,0,P|172:192|104:168,1,129.999995231629
304,96,20882,2,0,P|212:92|180:76,1,129.999995231629
160,56,21154,1,0,0:0:0:0:
136,36,21245,1,0,0:0:0:0:
108,28,21335,1,0,0:0:0:0:
84,24,21426,6,0,P|156:4|220:16,1,129.999995231629
256,4,21788,1,0,0:0:0:0:
369,187,21969,2,0,P|365:279|349:311,1,129.999995231629
288,344,22331,5,0,0:0:0:0:
268,176,22513,1,0,0:0:0:0:
268,176,22603,1,0,0:0:0:0:
260,212,22694,1,0,0:0:0:0:
248,244,22784,1,0,0:0:0:0:
231,279,22875,2,0,P|179:351|111:399,1,129.999995231629
147,377,23237,1,0,0:0:0:0:
315,173,23418,6,0,P|263:245|195:293,1,129.999995231629
351,223,23781,6,0,P|271:262|188:272,1,129.999995231629
188,272,24052,1,0,0:0:0:0:
132,252,24143,1,0,0:0:0:0:
84,220,24233,1,0,0:0:0:0:
48,172,24324,2,0,P|40:112|48:32,1,129.999995231629
45,43,24686,1,0,0:0:0:0:
233,141,24867,6,0,P|233:261|213:325,1,129.999995231629
84,220,25230,1,0,0:0:0:0:
176,116,25411,1,0,0:0:0:0:
176,116,25501,1,0,0:0:0:0:
212,132,25592,1,0,0:0:0:0:
256,136,25682,1,0,0:0:0:0:
296,120,25773,2,0,P|360:72|376:24,1,129.999995231629
375,26,26135,1,0,0:0:0:0:
356,204,26316,6,0,P|392:120|380:28,1,129.999995231629
452,268,26679,2,0,P|444:156|412:88,1,129.999995231629
393,82,27041,1,0,0:0:0:0:
176,116,27222,1,0,0:0:0:0:
256,136,27403,1,0,0:0:0:0:
393,82,27584,1,0,0:0:0:0:
393,82,27675,1,0,0:0:0:0:
393,82,27766,2,0,P|405:166|381:266,1,129.999995231629
264,280,28128,1,0,0:0:0:0:
264,280,28309,5,0,0:0:0:0:
264,280,28400,1,0,0:0:0:0:
264,280,28490,1,0,0:0:0:0:
352,200,28671,2,0,P|328:168|240:172,1,129.999995231629
172,216,29034,1,0,0:0:0:0:
224,108,29215,2,0,P|292:76|396:112,1,129.999995231629
472,144,29577,2,0,P|436:68|400:52,1,64.9999976158143
362,22,29758,2,0,P|240:20|176:48,3,129.999995231629
86,86,30483,2,0,P|84:207|112:272,1,129.999995231629
284,264,30845,2,0,P|286:143|258:78,1,129.999995231629
234,362,31207,2,0,P|298:370|363:361,1,129.999995231629
425,41,31569,2,0,P|356:108|224:68,1,194.999992847443
176,40,31932,5,0,0:0:0:0:
120,84,32113,1,0,0:0:0:0:
84,148,32294,2,0,P|44:184|12:192,1,64.9999976158143
48,256,32475,1,0,0:0:0:0:
136,308,32656,1,0,0:0:0:0:
260,312,32837,2,0,P|276:280|380:296,1,129.999995231629
424,76,33381,5,0,0:0:0:0:
440,60,33653,1,0,0:0:0:0:
256,152,33924,5,0,0:0:0:0:
184,40,34105,1,0,0:0:0:0:
60,104,34286,1,0,0:0:0:0:
192,120,34468,2,0,P|248:88|328:104,1,129.999995231629
380,276,34830,5,0,0:0:0:0:
460,344,35102,1,0,0:0:0:0:
448,132,35373,1,0,0:0:0:0:
280,288,35554,2,0,P|392:224|412:184,1,129.999995231629
448,132,35917,1,0,0:0:0:0:
292,160,36098,6,0,B|240:196|204:112|108:176,1,129.999995231629
68,260,36551,1,0,0:0:0:0:
140,336,36822,2,0,B|180:296|240:372|257:328,3,129.999995231629
388,220,37728,5,0,0:0:0:0:
392,232,37909,1,0,0:0:0:0:
396,248,38090,2,0,P|376:140|360:108,1,129.999995231629
244,72,38453,5,0,0:0:0:0:
248,80,38543,1,0,0:0:0:0:
252,92,38634,1,0,0:0:0:0:
256,164,38815,1,0,0:0:0:0:
248,240,39177,1,0,0:0:0:0:
324,124,39449,1,0,0:0:0:0:
160,304,39721,5,0,0:0:0:0:
56,200,39902,1,0,0:0:0:0:
168,268,40083,1,0,0:0:0:0:
196,244,40264,1,0,0:0:0:0:
264,272,40626,1,0,0:0:0:0:
244,120,40898,1,0,0:0:0:0:
316,312,41170,1,0,0:0:0:0:
392,304,41351,2,0,B|408:272|436:284|476:352|560:344|510:151,1,259.999990463257
392,156,41894,6,0,P|304:164|232:216,1,129.999995231629
148,248,42347,1,0,0:0:0:0:
60,136,42619,1,0,0:0:0:0:
192,40,43162,6,0,P|288:28|404:68,1,194.999992847443
440,180,43525,2,0,L|453:150,1,32.4999988079071
360,308,43706,2,0,L|346:278,1,32.4999988079071
296,104,43887,2,0,L|282:74,1,32.4999988079071
376,232,44068,2,0,L|389:202,1,32.4999988079071
448,76,44249,5,0,0:0:0:0:
304,264,44430,2,0,P|192:272|64:200,1,259.999990463257
84,76,44974,2,0,P|84:56|108:96,1,129.999995231629
128,248,45336,2,0,P|168:324|236:340,1,129.999995231629
304,344,45698,5,0,0:0:0:0:
408,112,45879,1,0,0:0:0:0:
152,160,46060,6,0,L|120:152,1,32.4999988079071
344,208,46242,6,0,L|376:216,1,32.4999988079071
140,307,46423,6,0,L|107:344,1,32.4999988079071
339,86,46605,6,0,L|372:49,1,32.4999988079071
304,344,46785,6,0,L|320:395,1,32.4999988079071
203,34,46967,6,0,L|186:-17,1,32.4999988079071
36,240,47147,5,0,0:0:0:0:
368,312,47328,2,0,P|424:252|452:20,1,324.999988079071
176,124,47872,2,0,L|168:160,1,32.4999988079071
384,152,48234,2,0,P|392:88|384:24,1,129.999995231629
340,144,48596,2,0,P|344:104|336:40,1,97.4999964237214
164,232,48959,6,0,B|156:204|80:268|28:200,1,129.999995231629
240,324,49321,6,0,B|244:346|320:282|376:344,1,129.999995231629
296,136,49683,2,0,P|272:92|248:148,1,129.999995231629
292,208,50045,1,0,0:0:0:0:
360,276,50227,1,0,0:0:0:0:
384,144,50408,2,0,P|400:80|440:40,1,64.9999976158143
476,40,50589,1,0,0:0:0:0:
312,64,50770,6,0,P|232:96|136:76,1,129.999995231629
8,24,51132,6,0,P|88:56|184:36,1,129.999995231629
228,16,51495,1,0,0:0:0:0:
200,156,51676,1,0,0:0:0:0:
200,156,51766,1,0,0:0:0:0:
200,156,51857,2,0,P|280:204|288:160,1,129.999995231629
368,112,52219,2,0,L|328:248,1,129.999995231629
420,232,52581,1,0,0:0:0:0:
472,100,52763,2,0,P|504:224|500:288,1,129.999995231629
360,336,53125,2,0,P|328:316|304:292,1,64.9999976158143
280,232,53306,2,0,L|280:172,3,32.4999988079071
244,76,53668,5,0,0:0:0:0:
244,40,53940,1,0,0:0:0:0:
244,40,54030,1,0,0:0:0:0:
244,4,54212,1,0,0:0:0:0:
244,4,54393,1,0,0:0:0:0:
112,172,54755,6,0,P|48:112|0:92,1,129.999995231629
108,276,55117,1,0,0:0:0:0:
228,324,55389,1,0,0:0:0:0:
356,300,55661,2,0,P|424:248|456:232,2,64.9999976158143
412,352,56114,5,0,0:0:0:0:
264,140,56476,1,0,0:0:0:0:
56,280,56838,1,0,0:0:0:0:
144,304,57110,5,0,0:0:0:0:
36,84,57382,1,0,0:0:0:0:
264,140,57653,1,0,0:0:0:0:
264,140,58016,5,0,0:0:0:0:
264,140,58378,5,0,0:0:0:0:
336,272,58559,1,0,0:0:0:0:
264,140,58921,1,0,0:0:0:0:
336,272,59102,1,0,0:0:0:0:
160,328,59465,5,0,0:0:0:0:
160,328,59736,1,0,0:0:0:0:
76,160,60189,5,0,0:0:0:0:
60,92,60370,1,0,0:0:0:0:
128,128,60551,2,0,P|196:144|264:132,1,129.999995231629
300,104,60914,2,0,L|248:232,1,129.999995231629
304,112,61276,2,0,L|248:248,1,129.999995231629
308,120,61638,2,0,L|252:256,1,129.999995231629
152,88,62001,6,0,P|264:64|312:32,1,129.999995231629
360,4,62363,2,0,L|308:132,1,129.999995231629
364,12,62725,2,0,L|316:128,1,64.9999976158143
308,120,62906,1,0,0:0:0:0:
380,212,63087,2,0,L|316:112,1,64.9999976158143
152,88,63450,5,0,0:0:0:0:
152,88,63812,1,0,0:0:0:0:
152,88,64174,1,0,0:0:0:0:
152,88,64446,1,0,0:0:0:0:
152,88,64718,1,0,0:0:0:0:
152,88,64899,1,0,0:0:0:0:
264,272,65986,5,0,0:0:0:0:
468,112,66167,1,0,0:0:0:0:
428,60,66348,1,0,0:0:0:0:
392,184,66710,1,0,0:0:0:0:
392,184,66801,1,0,0:0:0:0:
392,184,66891,1,0,0:0:0:0:
352,316,66982,1,0,0:0:0:0:
280,200,67254,5,0,0:0:0:0:
40,296,67435,1,0,0:0:0:0:
108,312,67797,1,0,0:0:0:0:
128,152,68159,1,0,0:0:0:0:
128,152,68250,1,0,0:0:0:0:
256,272,68431,1,0,0:0:0:0:
308,116,68612,1,0,0:0:0:0:
308,116,68703,1,0,0:0:0:0:
308,116,68793,1,0,0:0:0:0:
456,320,68974,1,0,0:0:0:0:
476,224,69246,5,0,0:0:0:0:
256,272,69608,5,0,0:0:0:0:
52,196,69880,5,0,0:0:0:0:
472,156,70152,1,0,0:0:0:0:
160,60,70514,1,0,0:0:0:0:
456,320,70695,1,0,0:0:0:0:
360,308,71057,5,0,0:0:0:0:
456,208,71239,1,0,0:0:0:0:
456,208,71329,1,0,0:0:0:0:
400,92,71510,1,0,0:0:0:0:
400,92,71601,1,0,0:0:0:0:
488,128,71782,1,0,0:0:0:0:
304,256,71963,1,0,0:0:0:0:
96,176,72144,5,0,0:0:0:0:
48,256,72507,1,0,0:0:0:0:
48,256,72597,1,0,0:0:0:0:
260,108,72869,1,0,0:0:0:0:
260,108,72959,1,0,0:0:0:0:
196,240,73140,1,0,0:0:0:0:
416,88,73412,5,0,0:0:0:0:
336,328,73593,5,0,0:0:0:0:
184,116,73956,5,0,0:0:0:0:
184,116,74046,1,0,0:0:0:0:
184,116,74137,1,0,0:0:0:0:
260,108,74318,1,0,0:0:0:0:
196,240,74499,1,0,0:0:0:0:
196,240,74590,1,0,0:0:0:0:
72,320,74771,1,0,0:0:0:0:
72,320,74861,1,0,0:0:0:0:
100,132,75042,5,0,0:0:0:0:
276,56,75405,5,0,0:0:0:0:
276,56,75495,1,0,0:0:0:0:
252,244,75767,1,0,0:0:0:0:
72,320,76039,1,0,0:0:0:0:
100,132,76311,1,0,0:0:0:0:
272,48,76492,5,0,0:0:0:0:
252,244,76673,1,0,0:0:0:0:
72,320,76854,5,0,0:0:0:0:
100,132,77035,1,0,0:0:0:0:
412,132,77216,5,0,0:0:0:0:
440,320,77397,1,0,0:0:0:0:
260,244,77578,5,0,0:0:0:0:
240,48,77759,1,0,0:0:0:0:
412,132,77941,2,0,P|464:208|432:292,1,129.999995231629
364,348,78303,5,0,0:0:0:0:
272,172,78485,1,0,0:0:0:0:
272,172,78575,1,0,0:0:0:0:
388,36,78846,1,0,0:0:0:0:
388,36,78937,1,0,0:0:0:0:
296,72,79209,1,0,0:0:0:0:
492,240,79390,1,0,0:0:0:0:
492,240,79480,1,0,0:0:0:0:
20,240,79752,5,0,0:0:0:0:
272,172,79933,5,0,0:0:0:0:
272,172,80024,1,0,0:0:0:0:
272,172,80114,1,0,0:0:0:0:
412,148,80295,5,0,0:0:0:0:
174,114,80567,1,0,0:0:0:0:
174,114,80657,1,0,0:0:0:0:
20,240,80839,5,0,0:0:0:0:
20,240,80929,1,0,0:0:0:0:
272,172,81201,1,0,0:0:0:0:
456,356,81382,1,0,0:0:0:0:
456,356,81473,1,0,0:0:0:0:
360,344,81745,1,0,0:0:0:0:
360,344,81835,1,0,0:0:0:0:
508,124,82107,1,0,0:0:0:0:
508,124,82197,1,0,0:0:0:0:
508,124,82288,5,0,0:0:0:0:
145,80,82469,1,0,0:0:0:0:
4,260,82650,5,0,0:0:0:0:
272,136,82831,1,0,0:0:0:0:
272,136,82922,1,0,0:0:0:0:
240,332,83194,1,0,0:0:0:0:
348,76,83375,1,0,0:0:0:0:
360,344,83556,1,0,0:0:0:0:
464,264,83737,1,0,0:0:0:0:
464,264,83828,1,0,0:0:0:0:
348,76,84099,1,0,0:0:0:0:
404,40,84280,5,0,0:0:0:0:
412,60,84371,1,0,0:0:0:0:
404,156,84643,5,0,0:0:0:0:
412,176,84734,1,0,0:0:0:0:
404,272,85005,5,0,0:0:0:0:
412,292,85096,1,0,0:0:0:0:
420,312,85186,5,0,0:0:0:0:
348,76,85367,1,0,0:0:0:0:
244,184,85730,1,0,0:0:0:0:
224,148,85820,1,0,0:0:0:0:
292,272,86001,1,0,0:0:0:0:
292,28,86273,1,0,0:0:0:0:
224,148,86635,5,0,0:0:0:0:
196,96,86726,1,0,0:0:0:0:
292,272,86907,1,0,0:0:0:0:
192,208,87179,5,0,0:0:0:0:
224,148,87269,1,0,0:0:0:0:
340,184,87541,5,0,0:0:0:0:
388,96,87632,1,0,0:0:0:0:
488,76,87722,5,0,0:0:0:0:
384,276,87903,1,0,0:0:0:0:
460,312,88084,1,0,0:0:0:0:
412,52,88265,1,0,0:0:0:0:
496,176,88447,1,0,0:0:0:0:
248,80,88628,1,0,0:0:0:0:
292,328,88809,1,0,0:0:0:0:
492,32,88990,1,0,0:0:0:0:
144,328,89171,1,0,0:0:0:0:
512,136,89352,1,0,0:0:0:0:
292,328,89533,1,0,0:0:0:0:
292,328,89624,1,0,0:0:0:0:
292,328,89715,1,0,0:0:0:0:
380,56,89896,5,0,0:0:0:0:
104,88,90077,5,0,0:0:0:0:
60,188,90167,1,0,0:0:0:0:
260,188,90439,5,0,0:0:0:0:
216,88,90529,1,0,0:0:0:0:
104,88,90620,1,0,0:0:0:0:
292,328,90801,1,0,0:0:0:0:
104,88,90983,1,0,0:0:0:0:
292,328,91164,1,0,0:0:0:0:
376,304,91345,1,0,0:0:0:0:
132,196,91527,5,0,0:0:0:0:
88,296,91617,1,0,0:0:0:0:
160,384,91707,1,0,0:0:0:0:
216,88,91888,1,0,0:0:0:0:
240,376,92069,1,0,0:0:0:0:
136,92,92251,1,0,0:0:0:0:
304,244,92432,1,0,0:0:0:0:
396,180,92522,1,0,0:0:0:0:
396,180,92613,5,0,0:0:0:0:
88,296,92794,1,0,0:0:0:0:
396,96,92975,1,0,0:0:0:0:
456,124,93066,1,0,0:0:0:0:
304,244,93337,1,0,0:0:0:0:
220,304,93428,1,0,0:0:0:0:
284,332,93518,5,0,0:0:0:0:
340,68,93700,1,0,0:0:0:0:
48,224,93881,1,0,0:0:0:0:
48,224,94062,1,0,0:0:0:0:
396,180,94424,5,0,0:0:0:0:
340,68,94515,1,0,0:0:0:0:
56,136,94786,5,0,0:0:0:0:
272,340,94968,1,0,0:0:0:0:
340,68,95149,1,0,0:0:0:0:
344,352,95330,1,0,0:0:0:0:
280,24,95511,1,0,0:0:0:0:
176,280,95692,1,0,0:0:0:0:
168,80,95873,6,0,L|208:180,1,64.9999976158143
300,116,96236,6,0,L|336:200,1,64.9999976158143
360,252,96417,5,0,0:0:0:0:
476,28,96598,1,0,0:0:0:0:
496,132,96779,1,0,0:0:0:0:
280,28,96960,1,0,0:0:0:0:
448,216,97141,1,0,0:0:0:0:
448,216,97322,2,0,L|420:332,1,64.9999976158143
416,348,97503,5,0,0:0:0:0:
304,120,97685,1,0,0:0:0:0:
304,120,97775,1,0,0:0:0:0:
304,120,97866,1,0,0:0:0:0:
268,204,98047,1,0,0:0:0:0:
496,132,98228,2,0,L|512:64,1,64.9999976158143
476,28,98409,1,0,0:0:0:0:
176,108,98771,6,0,L|84:108,1,64.9999976158143
232,248,99134,2,0,L|328:248,1,64.9999976158143
368,248,99315,1,0,0:0:0:0:
40,108,99496,1,0,0:0:0:0:
40,108,99587,1,0,0:0:0:0:
40,108,99677,2,0,L|116:180,1,64.9999976158143
176,240,99858,1,0,0:0:0:0:
32,16,100039,5,0,0:0:0:0:
316,320,100221,6,0,L|392:392,1,64.9999976158143
368,72,100764,5,0,0:0:0:0:
408,152,100945,1,0,0:0:0:0:
232,12,101126,2,0,P|264:128|256:184,1,129.999995231629
152,288,101489,2,0,L|104:320,1,32.4999988079071
304,192,101670,2,0,L|352:160,1,32.4999988079071
352,288,101851,2,0,L|404:320,1,32.4999988079071
146,158,102032,2,0,L|92:124,1,32.4999988079071
248,380,102213,5,0,0:0:0:0:
348,64,102394,2,0,P|264:20|100:64,1,259.999990463257
96,256,102938,2,0,B|132:240|184:268|232:236,1,129.999995231629
416,52,103300,2,0,L|388:140,1,64.9999976158143
368,200,103481,5,0,0:0:0:0:
88,144,103662,1,0,0:0:0:0:
368,200,103843,1,0,0:0:0:0:
332,96,104024,6,0,L|316:48,1,32.4999988079071
400,296,104206,6,0,L|416:344,1,32.4999988079071
152,216,104388,6,0,L|104:232,1,32.4999988079071
480,112,104568,6,0,L|528:96,1,32.4999988079071
480,272,104749,6,0,L|528:288,1,32.4999988079071
32,112,104929,6,0,L|-16:96,1,32.4999988079071
432,28,105111,1,0,0:0:0:0:
72,304,105292,1,0,0:0:0:0:
484,200,105474,1,0,0:0:0:0:
60,188,105655,1,0,0:0:0:0:
480,352,105836,1,0,0:0:0:0:
368,88,106017,1,0,0:0:0:0:
328,296,106198,2,0,B|308:332|276:360|276:360|160:344|116:372|116:372|80:356,1,259.999990463257
103,366,106742,5,0,0:0:0:0:
232,112,106923,6,0,P|264:56|296:136,1,194.999992847443
240,288,107285,2,0,P|296:356|396:320,1,194.999992847443
480,184,107647,2,0,P|392:52|308:28,1,194.999992847443
248,180,108009,5,0,0:0:0:0:
176,236,108191,1,0,0:0:0:0:
192,128,108372,1,0,0:0:0:0:
248,296,108553,1,0,0:0:0:0:
336,84,108734,1,0,0:0:0:0:
136,344,108915,1,0,0:0:0:0:
392,192,109096,1,0,0:0:0:0:
16,204,109277,1,0,0:0:0:0:
116,64,109640,6,0,L|152:152,1,64.9999976158143
112,56,109821,1,0,0:0:0:0:
208,208,110002,2,0,P|284:232|328:216,1,129.999995231629
408,64,110364,2,0,P|440:156|492:208,1,97.5000001430512
384,320,110727,2,0,P|384:240|394:179,1,129.999995231629
499,35,111089,2,0,B|459:27|439:79|375:59,1,97.5000001430512
320,32,111451,2,0,P|380:60|396:60,1,48.7500000715256
496,100,111995,5,0,0:0:0:0:
228,260,112176,1,0,0:0:0:0:
456,120,112357,1,0,0:0:0:0:
216,312,112538,1,0,0:0:0:0:
452,40,112719,1,0,0:0:0:0:
452,52,113081,1,0,0:0:0:0:
452,64,113353,1,0,0:0:0:0:
452,76,113625,1,0,0:0:0:0:
456,200,113896,5,0,0:0:0:0:
332,72,114168,5,0,0:0:0:0:
332,112,114530,1,0,0:0:0:0:
332,188,114802,1,0,0:0:0:0:
332,304,115074,5,0,0:0:0:0:
236,40,115255,5,0,0:0:0:0:
240,268,115527,1,0,0:0:0:0:
0,268,115980,1,0,0:0:0:0:
0,36,116342,1,0,0:0:0:0:
236,40,116568,1,0,0:0:0:0:
512,348,116885,1,0,0:0:0:0:
276,344,117066,1,0,0:0:0:0:
256,192,117429,5,0,0:0:0:0:
320,128,117700,1,0,0:0:0:0:
320,128,117791,1,0,0:0:0:0:
356,212,117972,1,0,0:0:0:0:
452,224,118153,1,0,0:0:0:0:
480,96,118334,1,0,0:0:0:0:
508,196,118515,2,0,P|364:316|276:304,1,259.999990463257
200,96,119149,1,0,0:0:0:0:
152,168,119421,1,0,0:0:0:0:
104,236,119602,1,0,0:0:0:0:
100,256,119693,1,0,0:0:0:0:
100,272,119783,1,0,0:0:0:0:
104,288,119874,1,0,0:0:0:0:
112,304,119965,6,0,L|108:320,1,16.2499994039536
296,196,120236,6,0,L|292:212,1,16.2499994039536
128,52,120508,6,0,L|124:68,1,16.2499994039536
252,80,120689,6,0,L|248:96,1,16.2499994039536
32,172,120870,1,0,0:0:0:0:
428,152,121051,1,0,0:0:0:0:
144,144,123587,5,0,0:0:0:0:
156,180,123768,1,0,0:0:0:0:
208,240,123950,1,0,0:0:0:0:
360,276,124131,1,0,0:0:0:0:
464,160,124312,2,0,P|436:120|356:88,1,129.999995231629
176,92,124674,5,0,0:0:0:0:
180,116,124765,1,0,0:0:0:0:
48,216,125036,1,0,0:0:0:0:
88,228,125127,1,0,0:0:0:0:
52,268,125218,5,0,0:0:0:0:
256,88,125399,1,0,0:0:0:0:
248,288,125580,1,0,0:0:0:0:
12,124,125761,2,0,P|44:68|148:40,1,129.999995231629
368,44,126123,1,0,0:0:0:0:
368,44,126214,1,0,0:0:0:0:
368,44,126304,1,0,0:0:0:0:
468,288,126486,1,0,0:0:0:0:
204,208,126667,1,0,0:0:0:0:
440,176,126848,1,0,0:0:0:0:
440,176,126938,1,0,0:0:0:0:
440,176,127029,1,0,0:0:0:0:
164,336,127210,6,0,P|104:280|72:204,1,129.999995231629
68,60,127572,1,0,0:0:0:0:
68,60,127663,1,0,0:0:0:0:
280,120,127844,1,0,0:0:0:0:
100,184,128116,1,0,0:0:0:0:
360,28,128297,1,0,0:0:0:0:
360,28,128387,1,0,0:0:0:0:
360,28,128478,1,0,0:0:0:0:
360,328,128659,1,0,0:0:0:0:
276,320,129021,5,0,0:0:0:0:
416,208,129203,1,0,0:0:0:0:
468,272,129293,1,0,0:0:0:0:
484,352,129384,1,0,0:0:0:0:
496,120,129565,1,0,0:0:0:0:
360,328,129746,1,0,0:0:0:0:
244,104,129927,1,0,0:0:0:0:
450,84,130108,6,0,B|452:152|392:248,1,129.999995231629
276,320,130471,1,0,0:0:0:0:
276,320,130561,1,0,0:0:0:0:
92,232,130833,1,0,0:0:0:0:
92,232,130923,1,0,0:0:0:0:
112,56,131195,1,0,0:0:0:0:
112,56,131286,1,0,0:0:0:0:
112,56,131376,5,0,0:0:0:0:
340,60,131557,1,0,0:0:0:0:
340,60,131648,1,0,0:0:0:0:
404,224,131920,1,0,0:0:0:0:
404,224,132010,1,0,0:0:0:0:
220,280,132282,5,0,0:0:0:0:
220,280,132372,1,0,0:0:0:0:
220,280,132463,1,0,0:0:0:0:
96,216,132644,5,0,0:0:0:0:
96,216,132735,1,0,0:0:0:0:
96,216,132825,5,0,0:0:0:0:
92,76,133006,1,0,0:0:0:0:
92,76,133097,1,0,0:0:0:0:
240,44,133278,1,0,0:0:0:0:
240,44,133369,1,0,0:0:0:0:
360,96,133550,5,0,0:0:0:0:
396,136,133640,1,0,0:0:0:0:
404,196,133731,1,0,0:0:0:0:
288,316,133912,1,0,0:0:0:0:
248,268,134003,1,0,0:0:0:0:
244,196,134093,1,0,0:0:0:0:
500,128,134274,5,0,0:0:0:0:
344,308,134456,1,0,0:0:0:0:
256,192,134546,12,0,135090,0:0:0:0:
324,232,135180,5,0,0:0:0:0:
220,144,135361,1,0,0:0:0:0:
360,112,135542,1,0,0:0:0:0:
192,320,135724,1,0,0:0:0:0:
96,48,135905,1,0,0:0:0:0:
436,40,136267,6,0,L|468:40,1,32.4999988079071
76,148,136448,6,0,L|44:148,1,32.4999988079071
436,240,136629,6,0,L|468:240,1,32.4999988079071
76,240,136810,6,0,L|44:240,1,32.4999988079071
436,144,136991,6,0,L|468:144,1,32.4999988079071
76,36,137173,6,0,L|44:36,1,32.4999988079071
72,344,137354,2,0,P|108:360|132:360,1,48.7499982118607
405,230,137716,6,0,L|453:246,1,32.4999988079071
86,66,137897,6,0,L|75:35,1,32.4999988079071
426,318,138078,6,0,L|436:348,1,32.4999988079071
107,154,138259,6,0,L|59:138,1,32.4999988079071
294,341,138441,6,0,L|310:389,1,32.4999988079071
218,43,138622,6,0,L|202:-5,1,32.4999988079071
204,300,138803,5,0,0:0:0:0:
396,84,138984,1,0,0:0:0:0:
396,84,139075,1,0,0:0:0:0:
396,84,139165,1,0,0:0:0:0:
204,300,139437,1,0,0:0:0:0:
204,300,139527,1,0,0:0:0:0:
396,84,139709,1,0,0:0:0:0:
396,84,139799,1,0,0:0:0:0:
396,84,139890,1,0,0:0:0:0:
148,348,140071,1,0,0:0:0:0:
456,28,140252,1,0,0:0:0:0:
464,132,140433,5,0,0:0:0:0:
252,44,140614,5,0,0:0:0:0:
80,160,140795,1,0,0:0:0:0:
80,192,140886,1,0,0:0:0:0:
108,228,140977,5,0,0:0:0:0:
208,288,141158,1,0,0:0:0:0:
400,272,141339,1,0,0:0:0:0:
508,88,141520,1,0,0:0:0:0:
280,160,141701,2,0,P|192:184|220:100,1,195.000000286102
376,40,142063,6,0,L|388:28,1,16.2499994039536
197,110,142244,6,0,L|185:98,1,16.2499994039536
384,184,142426,6,0,L|402:166,1,16.2499994039536
116,289,142607,6,0,L|98:271,1,16.2499994039536
56,40,142788,6,0,L|52:56,1,16.2499994039536
444,40,142969,6,0,L|448:56,1,16.2499994039536
116,288,143150,1,0,0:0:0:0:
116,288,143241,1,0,0:0:0:0:
116,288,143331,1,0,0:0:0:0:
360,44,143512,6,0,L|372:32,1,16.2499994039536
80,48,143693,6,0,L|68:36,1,16.2499994039536
400,116,143875,6,0,L|418:98,1,16.2499994039536
32,116,144056,6,0,L|14:98,1,16.2499994039536
20,328,144237,6,0,L|16:344,1,16.2499994039536
424,192,144418,6,0,L|428:208,1,16.2499994039536
196,137,144599,2,0,P|222:99|269:192,1,194.999992847443
157,263,144962,2,0,P|216:220|254:209,1,97.4999964237214
443,211,145324,1,0,0:0:0:0:
196,137,145550,1,0,0:0:0:0:
462,295,145867,1,0,0:0:0:0:
172,56,146048,1,0,0:0:0:0:
172,56,146139,1,0,0:0:0:0:
172,56,146229,1,0,0:0:0:0:
421,166,146411,5,0,0:0:0:0:
177,138,146592,1,0,0:0:0:0:
177,138,146682,1,0,0:0:0:0:
244,189,146773,1,0,0:0:0:0:
463,85,146954,1,0,0:0:0:0:
263,6,147135,1,0,0:0:0:0:
500,335,147316,1,0,0:0:0:0:
113,329,147497,2,0,P|66:295|57:263,1,81.2499970197678
94,62,147860,6,0,L|92:40,1,16.2499994039536
193,302,148041,2,0,L|194:321,1,16.2499994039536
325,62,148222,2,0,L|326:35,1,16.2499994039536
453,309,148403,2,0,L|454:333,1,16.2499994039536
453,52,148584,2,0,L|455:32,1,16.2499994039536
284,300,148765,2,0,L|286:324,1,16.2499994039536
170,69,148947,6,0,P|148:49|97:86,1,97.4999964237214
116,293,149309,6,0,L|125:322,1,16.2499994039536
21,95,149490,2,0,L|14:79,1,16.2499994039536
216,315,149671,2,0,L|224:333,1,16.2499994039536
172,35,149852,2,0,L|162:13,1,16.2499994039536
406,314,150033,2,0,L|415:338,1,16.2499994039536
306,26,150215,2,0,L|296:8,1,16.2499994039536
68,135,150396,6,0,P|43:180|50:268,1,129.999995231629
229,321,150758,1,0,0:0:0:0:
326,335,150849,1,0,0:0:0:0:
419,296,150939,6,0,P|443:268|430:162,1,129.999995231629
351,328,151301,6,0,P|381:295|393:210,1,129.999995231629
186,56,151664,5,0,0:0:0:0:
186,56,151754,1,0,0:0:0:0:
186,56,151845,2,0,L|93:49,2,64.9999976158143
286,66,152116,1,0,0:0:0:0:
378,116,152207,1,0,0:0:0:0:
436,206,152298,1,0,0:0:0:0:
410,304,152388,2,0,P|366:331|323:344,1,97.4999964237214
322,344,152569,5,0,0:0:0:0:
192,314,152750,1,0,0:0:0:0:
75,83,152932,1,0,0:0:0:0:
407,286,153113,1,0,0:0:0:0:
113,48,153294,1,0,0:0:0:0:
113,48,153384,1,0,0:0:0:0:
113,48,153475,1,0,0:0:0:0:
314,164,153656,5,0,0:0:0:0:
314,164,153701,1,0,0:0:0:0:
178,149,153837,5,0,0:0:0:0:
178,149,153883,1,0,0:0:0:0:
385,241,154018,5,0,0:0:0:0:
385,241,154064,1,0,0:0:0:0:
200,80,154200,5,0,0:0:0:0:
200,80,154245,1,0,0:0:0:0:
329,306,154381,5,0,0:0:0:0:
329,306,154426,1,0,0:0:0:0:
110,72,154562,5,0,0:0:0:0:
426,240,154743,6,0,P|452:195|441:107,1,129.999995231629
320,9,155105,5,0,0:0:0:0:
320,9,155151,1,0,0:0:0:0:
128,65,155286,5,0,0:0:0:0:
128,65,155332,1,0,0:0:0:0:
342,110,155468,5,0,0:0:0:0:
342,110,155513,1,0,0:0:0:0:
68,204,155649,5,0,0:0:0:0:
68,204,155694,1,0,0:0:0:0:
202,336,155830,5,0,0:0:0:0:
202,336,155875,1,0,0:0:0:0:
432,168,156011,5,0,0:0:0:0:
144,19,156192,5,0,0:0:0:0:
72,69,156283,1,0,0:0:0:0:
47,142,156373,2,0,P|80:193|108:193,1,64.9999976158143
275,80,156554,2,0,L|230:138,1,64.9999976158143
66,335,156917,5,0,0:0:0:0:
398,166,157143,1,0,0:0:0:0:
21,359,157460,5,0,0:0:0:0:
442,140,157641,1,0,0:0:0:0:
