osu file format v6

[General]
AudioFilename: nightcore - find my way to you.mp3
AudioLeadIn: 0
PreviewTime: 59627
Countdown: 1
SampleSet: Soft
StackLeniency: 0.7
Mode: 0
LetterboxInBreaks: 1

[Editor]
Bookmarks: 23664,100353,105758,111333,127887
DistanceSpacing: 1
BeatDivisor: 4
GridSize: 8

[Metadata]
Title:Find my way to you
Artist:Nightcore
Creator:KillerRind
Version:Normal
Source:
Tags:Trance

[Difficulty]
HPDrainRate:3
CircleSize:4
OverallDifficulty:4
SliderMultiplier:1.4
SliderTickRate:1

[Events]
//Background and Video events
0,0,"1159718055_SadAnimeGirl.jpg"
//Break Periods
2,30609,36521
2,81445,94619
//Storyboard Layer 0 (Background)
Sprite,Background,Centre,"1159718055_SadAnimeGirl.jpg",320,240 S,0,-68,,1.146341 F,0,-68,127887,1 F,0,127887,128562,1,0
//Storyboard Layer 1 (Fail)
//Storyboard Layer 2 (Pass)
//Storyboard Layer 3 (Foreground)
//Storyboard Sound Samples
//Background Colour Transformations
3,100,163,162,255

[TimingPoints]
11663,337.780780273602,4,2,0,100,1,0
60319,-100,4,2,0,100,0,1
70454,-100,4,2,0,100,0,0
70455,-100,4,2,0,100,0,1
81265,-100,4,2,0,100,0,0
126451,-100,4,1,0,100,0,0

[Colours]
Combo1 : 64,0,128
Combo2 : 255,255,255
Combo3 : 0,64,64
Combo4 : 0,0,128
Combo5 : 0,128,0

[HitObjects]
72,40,13014,1,0
120,88,13183,2,0,B|176:144,2,70
224,176,13858,2,2,B|152:248,2,70
88,304,15040,5,0
88,304,15378,1,0
120,240,15547,2,2,B|152:152|184:112,1,140
384,56,16391,5,0
384,56,16729,1,0
360,120,16898,2,2,B|336:192|376:264,1,140
160,264,17743,6,0,B|96:208,3,70
136,80,18587,2,2,B|216:104,2,70
224,192,19263,2,2,B|136:152,2,70
432,312,20445,5,0
432,312,20783,1,0
424,240,20951,2,2,B|376:152|312:128,1,140
136,224,21796,5,0
136,224,22134,1,0
88,176,22303,2,2,B|72:96|144:56,1,140
352,64,23147,6,0,B|400:120,3,70
336,240,23991,2,2,B|280:304,2,70
264,128,24667,2,2,B|200:64,2,70
88,320,25849,5,0
88,320,26187,1,0
136,272,26356,2,2,B|200:200|256:168,1,140
416,64,27200,5,0
416,64,27538,1,0
424,136,27707,2,2,B|400:224|352:272,1,140
152,248,28552,6,0,B|88:208,3,70
152,80,29396,2,2,B|216:120,2,70
216,200,30072,2,2,B|136:152,2,70
96,56,37841,5,0
160,88,38009,2,0,B|248:136|320:248,1,210
192,304,38854,1,0
72,232,39192,1,0
200,64,39698,5,0
200,64,39867,1,0
256,104,40036,2,0,B|312:152,2,70
208,152,40543,1,0
304,256,40881,5,0
176,312,41218,2,4,B|88:288|56:208|40:136|72:80|160:40|264:40,1,420
392,120,43245,6,0,B|376:208,2,70
392,120,43921,1,0
272,192,44258,1,0
144,128,44596,1,0
88,296,45272,6,0,B|40:224,2,70
224,304,45947,1,0
360,264,46285,1,0
416,136,46623,2,6,B|272:48|144:48|72:88,1,350
80,280,48649,6,0,B|176:304,2,70
56,144,49325,1,0
176,80,49663,1,0
312,72,50001,2,0,B|352:96|376:48|408:104|456:80,1,140
448,152,50507,5,0
448,224,50676,1,0
432,288,50845,2,0,B|368:320,2,70
376,240,51352,1,0
280,136,51690,1,0
152,80,52027,2,4,B|56:88|32:160|48:256|112:304|216:320|336:200,1,490
440,40,54054,5,0
408,104,54223,2,0,B|368:168,2,70
440,40,54730,1,0
304,56,55067,1,0
168,96,55405,1,0
40,344,56081,5,0
104,328,56250,1,0
160,288,56418,1,0
288,224,56756,2,2,B|384:120|336:56|248:48|248:48,1,210
208,56,57432,2,6,B|112:72|80:144|104:224|152:272|232:296|272:288,1,350
80,56,59627,5,0
216,72,59965,1,0
352,112,60303,2,0,B|424:152|432:232,1,140
288,264,60978,1,0
152,296,61316,1,0
152,296,61485,1,4
416,64,62330,5,0
360,192,62667,1,0
240,264,63005,2,0,B|200:184|256:128|248:128|248:128|248:120,3,140
264,64,64187,1,4
40,336,65032,5,0
80,200,65370,1,0
200,128,65707,1,0
336,136,66045,1,0
336,136,66214,1,4
64,56,66890,5,0
64,56,67059,1,0
200,72,67396,1,0
200,72,67565,1,4
272,192,67903,2,0,B|328:144,3,70
344,288,68747,1,0
344,288,68916,1,0
448,192,69254,1,0
400,64,69592,2,6,B|312:40|232:40|160:48|104:88,1,280
112,168,70436,5,0
200,280,70774,1,0
328,216,71112,1,0
408,104,71450,1,0
272,80,71787,2,0,B|184:64,2,70
256,144,72294,1,4
72,320,73139,5,0
112,184,73476,1,0
216,88,73814,1,0
352,64,74152,1,0
424,184,74490,1,0
352,304,74828,1,0
352,304,74996,1,4
88,72,75841,5,0
216,120,76179,1,0
216,120,76516,1,0
112,216,76854,2,0,B|184:272,2,70
312,152,77699,5,0
376,168,77868,2,0,B|360:256|312:312,1,140
256,280,78374,1,4
88,152,78881,6,0,B|136:96,1,70
192,64,79219,1,0
192,64,79556,1,0
328,64,79894,1,0
416,176,80232,1,0
392,240,80401,2,6,B|280:328|168:288|136:232|152:112,1,350
288,56,95939,5,0
288,56,96108,1,0
288,56,96277,1,0
352,176,96614,1,0
232,240,96952,1,0
88,232,97290,2,0,B|64:152,1,70
96,96,97628,1,0
296,40,98134,5,0
320,136,98472,1,0
320,136,98641,1,0
320,272,98979,1,0
192,320,99317,2,6,B|96:352|32:320|0:256|40:160|48:104|56:96|56:96|64:96,1,350
448,320,101174,5,0
448,320,101343,1,0
448,320,101512,1,0
408,256,101681,1,0
312,152,102019,2,0,B|240:152|192:216,2,140
48,40,103370,5,0
48,40,103539,1,0
256,80,104046,1,0
168,192,104383,1,0
272,288,104721,2,4,B|344:256|384:184|376:96|344:40|240:16|224:16,1,350
456,328,106748,5,0
456,328,106917,1,0
456,328,107086,1,0
416,192,107423,1,0
288,128,107761,1,0
152,96,108099,1,0
64,288,108606,5,0
64,288,108774,1,0
64,288,108943,1,0
264,240,109450,1,0
400,248,109788,1,0
352,112,110126,2,6,B|256:72|192:64|136:80|88:144|96:232|128:312|256:336,1,490
360,280,111646,5,0
400,88,112490,5,0
328,80,112659,1,0
256,80,112828,1,0
184,96,112997,1,0
112,216,113335,1,0
112,216,113503,1,0
256,216,113841,1,0
384,160,114179,5,0
352,96,114348,2,0,B|272:56|200:48|128:48,2,210
352,96,115530,1,0
64,328,117050,5,0
112,280,117219,2,2,B|176:224,2,70
72,144,117895,2,2,B|152:176,2,70
408,48,119077,5,0
368,184,119415,1,0
368,184,119583,1,4
80,296,120428,5,0
160,184,120766,1,0
160,184,120935,1,4
328,56,121779,6,0,B|384:112,3,70
328,232,122623,2,2,B|280:176,2,70
192,200,123299,2,2,B|216:280,2,70
64,64,124481,5,0
64,64,124819,1,0
112,112,124988,1,4
224,200,125326,1,0
464,40,125832,5,0
464,40,126170,1,0
424,96,126339,1,0
384,152,126508,2,0,B|344:200,16,35
