osu file format v6

[General]
AudioFilename: nightcore - find my way to you.mp3
AudioLeadIn: 0
PreviewTime: 59627
Countdown: 1
SampleSet: Soft
StackLeniency: 0.7
Mode: 0
LetterboxInBreaks: 1

[Editor]
Bookmarks: 13022,36839,47312,53056,58292,81265,95961,100184,105758,111333,116231,127887
DistanceSpacing: 1.20000004768372
BeatDivisor: 4
GridSize: 8

[Metadata]
Title:Find my way to you
Artist:Nightcore
Creator:KillerRind
Version:Hard
Source:
Tags:Trance

[Difficulty]
HPDrainRate:9
CircleSize:5
OverallDifficulty:8
SliderMultiplier:1.4
SliderTickRate:1

[Events]
//Background and Video events
0,0,"1159718055_SadAnimeGirl.jpg"
//Break Periods
2,33649,37091
2,91748,95189
2,126877,128291
2,137348,139100
2,148157,149403
2,171126,171696
//Storyboard Layer 0 (Background)
Sprite,Background,Centre,"1159718055_SadAnimeGirl.jpg",320,240 M,0,-68,,320,240 S,0,-68,183292,1.134634,1.146341 F,0,0,183292,1 F,0,183292,183968,1,0
//Storyboard Layer 1 (Fail)
//Storyboard Layer 2 (Pass)
//Storyboard Layer 3 (Foreground)
Sprite,Foreground,Centre,"1159718055_SadAnimeGirl.jpg",320,240 S,0,183292,183926,1.140488,1.555976 F,0,183292,183968,1,0 S,0,183926,183968,1.555976,1.597073
//Storyboard Sound Samples
//Background Colour Transformations
3,100,163,162,255

[TimingPoints]
11663,337.780780273602,4,2,0,100,1,0
60319,-100,4,2,0,100,0,1
70454,-100,4,2,0,100,0,0
70455,-100,4,2,0,100,0,1
81265,-100,4,2,0,100,0,0
150860,-100,4,2,0,100,0,1
160995,-100,4,2,0,100,0,0
160996,-100,4,2,0,100,0,1
172481,-100,4,2,0,100,0,0
183123,-100,4,2,0,0,0,0

[Colours]
Combo1 : 64,0,128
Combo2 : 255,255,255
Combo3 : 0,64,64
Combo4 : 0,0,128
Combo5 : 0,128,0

[HitObjects]
256,184,13014,1,0
256,104,13183,1,0
336,104,13351,1,0
336,184,13520,2,2,B|336:272,1,70
272,304,13858,5,0
200,264,14027,1,2
168,184,14196,2,2,B|168:96,2,70
400,96,15040,5,0
400,96,15378,1,0
400,176,15547,1,2
256,256,15885,1,0
80,72,16391,5,0
80,72,16729,1,0
80,152,16898,1,2
224,232,17236,1,0
440,104,17743,5,0
376,160,17911,1,0
312,104,18080,1,0
376,160,18249,1,0
424,320,18587,5,0
336,312,18756,1,0
288,240,18925,1,0
224,80,19263,5,0
152,40,19431,1,0
88,96,19600,1,0
104,296,20445,5,0
104,296,20783,1,0
168,240,20951,1,2
256,96,21289,1,0
424,280,21796,5,0
424,280,22134,1,0
424,192,22303,1,2
280,104,22640,1,0
32,40,23147,5,0
48,120,23316,1,0
72,200,23485,1,0
96,280,23654,1,0
208,272,23991,5,0
272,216,24160,1,0
336,168,24329,1,0
432,304,24667,5,0
432,304,24836,1,0
408,224,25005,1,0
32,32,25849,5,0
32,32,26187,1,0
80,96,26356,1,2
224,176,26694,1,0
440,56,27200,5,0
440,56,27538,1,0
376,104,27707,1,2
224,176,28045,1,0
464,160,28552,5,0
408,224,28720,1,0
392,304,28889,1,0
320,352,29058,1,0
168,280,29396,5,0
136,200,29565,1,0
184,128,29734,1,0
336,56,30072,5,0
360,136,30240,1,0
296,192,30409,1,0
72,64,31254,5,0
72,64,31592,1,0
144,112,31760,1,2
272,216,32098,1,0
464,48,32605,5,0
464,48,32943,1,0
400,104,33112,1,2
272,216,33449,1,0
96,80,37841,5,0
96,160,38009,1,0
144,232,38178,1,0
312,240,38516,2,0,B|368:240|368:176,1,70
368,120,38854,1,0
200,120,39192,1,4
440,40,39698,5,0
440,120,39867,1,0
440,200,40036,2,2,B|440:248|392:248,2,70
352,200,40543,2,2,B|272:200,1,70
200,192,40881,1,0
312,64,41218,5,0
312,64,41556,2,0,B|392:72|432:144|432:240,1,210
432,40,43245,5,0
376,104,43414,1,0
376,104,43583,1,0
312,256,43921,2,0,B|240:200,1,70
200,152,44258,1,0
200,152,44596,1,0
88,304,45272,5,0
88,304,45441,1,0
88,216,45609,2,0,B|104:136,1,70
152,80,45947,1,0
320,56,46285,1,0
296,224,46623,2,2,B|296:320|408:320|408:192|304:96,1,280
416,48,48649,5,0
416,128,48818,1,0
416,128,48987,1,0
304,240,49325,1,0
136,240,49663,1,0
224,96,50001,1,0
416,160,50507,5,0
416,160,50676,1,0
392,240,50845,1,0
312,256,51014,1,0
184,144,51352,2,0,B|240:192,1,70
320,192,51690,1,0
152,232,52027,2,2,B|72:176|112:96|176:40|256:32|344:88|344:88,1,350
416,304,54054,5,0
416,304,54223,1,0
400,224,54392,1,0
304,80,54730,2,0,B|224:32,2,70
368,136,55236,1,0
392,216,55405,1,0
56,192,56081,5,0
56,192,56250,1,0
136,176,56418,1,0
296,232,56756,2,2,B|232:160|232:160,2,70
392,320,57432,2,2,B|328:344|184:312|128:248|88:160,1,350
424,64,59627,5,0
424,64,59965,1,0
384,224,60303,1,0
224,168,60641,1,0
312,24,60978,1,0
312,192,61316,1,8
312,192,61485,1,4
88,88,62330,5,0
88,88,62667,1,0
232,176,63005,1,0
400,200,63343,1,0
352,40,63681,1,0
312,200,64019,1,8
312,200,64187,1,4
88,240,65032,5,0
88,240,65370,1,0
256,256,65707,1,0
376,136,66045,1,0
296,104,66214,1,4
56,104,66890,5,0
96,176,67059,1,0
248,240,67396,1,0
328,240,67565,1,4
368,72,67903,5,0
280,72,68072,1,0
192,72,68241,1,0
176,152,68410,1,0
256,296,68747,1,0
336,280,68916,1,0
168,264,69254,1,0
248,208,69592,2,6,B|328:168|392:168|440:240|424:328,1,280
336,312,70436,5,0
336,312,70774,1,0
208,200,71112,1,0
352,112,71450,1,0
184,72,71787,1,0
312,176,72125,1,8
312,176,72294,1,4
120,240,73139,5,0
120,240,73476,1,0
288,232,73814,1,0
312,64,74152,1,0
144,96,74490,1,0
304,144,74828,1,8
304,144,74996,1,4
128,296,75841,5,0
128,296,76179,1,0
128,120,76516,1,0
288,168,76854,1,0
288,168,77023,1,4
408,56,77699,5,0
392,136,77868,2,2,B|368:224|280:256,1,140
308,243,78374,1,4
416,256,78881,5,0
328,240,79050,1,0
280,168,79219,1,0
136,80,79556,1,0
136,248,79894,1,0
240,112,80232,1,0
312,64,80401,2,6,B|408:48|424:152|376:224|296:280|216:280,1,350
88,312,81921,5,0
168,312,82090,1,0
240,264,82259,1,0
280,192,82428,1,0
384,64,82765,5,0
384,64,82934,1,0
296,72,83103,1,0
152,168,83948,5,0
272,280,84285,1,0
320,208,84454,1,2
184,104,84792,1,0
432,72,85299,5,0
432,240,85636,1,0
360,280,85805,1,2
192,248,86143,1,0
40,40,86650,5,0
96,104,86819,1,0
176,128,86988,1,0
256,136,87157,1,0
416,88,87494,5,0
416,88,87663,1,0
400,168,87832,1,2
264,272,88170,5,0
176,264,88339,1,0
120,200,88508,1,2
416,112,89352,5,0
416,112,89690,1,0
392,192,89859,1,2
232,248,90197,1,0
56,64,90703,5,0
56,64,91041,1,0
136,88,91210,1,2
224,232,91548,1,0
256,192,95939,5,0
326,146,96108,1,0
263,90,96277,1,0
95,83,96614,2,2,B|12:47,2,70
137,155,97121,1,0
152,240,97290,5,0
312,280,97628,1,0
280,112,97965,1,0
200,48,98134,1,0
248,208,98472,1,0
344,200,98641,1,0
344,200,98979,1,0
184,240,99317,2,2,B|144:176|144:80|232:56|320:72|384:160,1,350
64,80,101174,5,0
64,80,101343,1,0
128,128,101512,1,0
184,184,101681,1,0
248,336,102019,1,0
336,192,102357,1,0
232,56,102694,1,0
440,312,103370,5,0
440,312,103539,1,0
424,232,103708,1,0
288,128,104046,1,0
136,192,104383,1,0
296,232,104721,2,6,B|376:224|416:128|392:40|272:24|192:72|192:72,1,350
72,296,106748,5,0
72,296,106917,1,0
152,288,107086,1,0
320,304,107423,1,0
288,136,107761,1,0
120,152,108099,1,0
368,192,108606,5,0
216,264,108943,1,0
216,264,109450,1,0
288,112,109788,1,0
440,184,110126,2,2,B|520:176|504:56|424:-16|272:-8|208:72|176:168,1,490
288,288,111646,5,0
120,120,112490,5,0
120,120,112659,1,0
200,136,112828,1,0
232,208,112997,1,0
368,304,113335,1,0
368,304,113503,1,0
368,136,113841,5,0
216,56,114179,1,0
176,128,114348,2,2,B|112:192,2,70
256,112,114855,1,0
376,224,115192,1,0
256,344,115530,2,6,B|184:336|136:248|240:200|280:200,1,210
64,56,117050,5,0
112,120,117219,1,0
88,200,117388,1,0
160,240,117557,1,0
320,208,117895,5,0
376,152,118063,1,0
384,64,118232,1,0
72,80,119077,5,0
72,80,119415,1,0
88,160,119583,1,0
248,216,119921,1,0
432,48,120428,5,0
432,48,120766,1,0
384,112,120935,1,0
248,216,121272,1,0
48,56,121779,5,0
64,136,121948,1,0
120,200,122117,1,0
200,200,122286,1,0
352,120,122623,5,0
384,200,122792,1,0
368,280,122961,1,0
200,280,123299,5,0
184,192,123468,1,0
208,112,123637,1,0
408,64,124481,5,0
408,64,124819,1,0
384,144,124988,1,0
232,216,125326,1,0
48,40,125832,5,0
48,40,126170,1,0
104,96,126339,1,0
232,208,126677,1,0
256,40,129041,5,0
256,80,129126,1,0
256,120,129210,1,8
256,288,129548,5,0
32,192,130224,1,0
32,192,130561,1,0
480,192,131068,5,0
256,64,131575,1,0
200,128,131744,1,8
416,304,132926,5,0
312,168,133264,1,0
192,216,133517,1,0
80,120,133770,1,0
160,128,133939,2,4,B|304:104,2,140
400,88,135628,5,0
384,256,135966,1,0
248,152,136304,1,0
160,144,136472,1,0
408,168,136979,1,8
408,168,137148,1,4
256,40,139850,5,0
256,80,139935,1,0
256,120,140019,1,8
344,280,141033,5,0
176,272,141370,1,0
256,32,141877,1,0
256,280,142384,1,0
256,280,142553,1,4
384,120,143735,5,0
216,104,144073,1,0
184,224,144326,1,0
296,272,144579,1,0
352,208,144748,2,0,B|424:216,4,70
88,72,146437,5,0
160,224,146775,1,0
256,88,147113,1,0
336,104,147281,1,0
464,320,147788,1,0
464,320,147957,1,0
272,192,150153,5,0
272,192,150490,1,0
384,64,150828,1,0
216,64,151166,1,0
128,208,151504,1,0
280,272,151842,1,8
280,272,152010,1,4
408,64,152855,5,0
240,80,153193,1,0
120,200,153530,1,0
272,264,153868,1,0
424,192,154206,1,0
256,168,154544,1,8
256,168,154713,1,4
360,64,155557,5,0
192,88,155895,1,0
200,256,156233,1,0
360,200,156570,1,0
360,200,156739,1,4
56,64,157415,5,0
72,144,157584,1,0
224,224,157922,1,0
304,216,158090,1,4
384,72,158428,5,0
384,72,158597,1,0
312,120,158766,1,0
232,136,158935,1,0
72,192,159273,1,0
136,248,159442,1,0
296,288,159779,1,0
472,112,160286,2,6,B|448:80|408:56|328:56|328:56,1,140
128,152,160962,5,0
224,288,161299,1,0
368,200,161637,1,0
272,64,161975,1,0
192,208,162313,1,0
336,120,162651,1,8
336,120,162819,1,4
80,288,163664,5,0
120,128,164002,1,0
288,120,164339,1,0
360,272,164677,1,0
192,256,165015,1,0
208,88,165353,1,8
208,88,165522,1,4
448,72,166366,5,0
336,192,166704,1,0
168,192,167042,1,0
168,192,167379,1,0
184,112,167548,1,0
400,104,168224,5,0
368,184,168393,1,0
136,288,168899,1,0
272,80,169406,5,0
224,152,169575,1,0
256,224,169744,1,0
408,152,170082,1,0
224,152,170419,1,4
224,152,170757,1,8
224,152,170926,1,2
400,64,172446,5,0
360,136,172615,1,0
288,184,172784,1,0
224,240,172953,1,0
96,128,173291,5,0
144,64,173459,1,0
224,80,173628,1,0
120,272,174473,5,0
272,224,174811,1,0
328,160,174980,1,2
448,48,175317,1,0
200,88,175824,5,0
120,232,176162,1,0
200,256,176331,1,2
336,152,176668,1,0
472,72,177175,5,0
384,64,177344,1,0
296,72,177513,1,0
216,96,177682,1,0
64,168,178020,5,0
96,248,178188,1,0
176,256,178357,1,0
288,128,178695,5,0
312,208,178864,1,0
304,288,179033,1,0
104,104,179877,5,0
128,272,180215,1,0
200,224,180384,1,2
296,88,180722,1,0
400,320,181228,5,0
432,152,181566,1,0
416,72,181735,1,6
