osu file format v7

[General]
AudioFilename: Nightcore III - Festa!.mp3
AudioLeadIn: 0
PreviewTime: 119075
Countdown: 2
SampleSet: Soft
StackLeniency: 0.7
Mode: 0
LetterboxInBreaks: 1

[Editor]
Bookmarks: 13605,95593,107518,165655,179071,238698
DistanceSpacing: 1
BeatDivisor: 4
GridSize: 16

[Metadata]
Title:Festa!
Artist:Nightcore
Creator:xxheroxx
Version:Normal
Source:Nightcore III
Tags:Trance osuplayer111

[Difficulty]
HPDrainRate:3
CircleSize:4
OverallDifficulty:3
SliderMultiplier:1.1
SliderTickRate:1

[Events]
//Background and Video events
0,0,"ccs_108_640.jpg"
//Break Periods
2,95784,106071
2,118893,119489
2,165854,177633
2,189336,189560
//Storyboard Layer 0 (Background)
//Storyboard Layer 1 (Fail)
//Storyboard Layer 2 (Pass)
//Storyboard Layer 3 (Foreground)
//Storyboard Sound Samples
Sample,13959,0,"soft-hitclap.wav",80
Sample,13959,0,"soft-hitnormal.wav",80
Sample,15450,0,"soft-hitclap.wav",80
Sample,15450,0,"soft-hitnormal.wav",80
Sample,16941,0,"soft-hitclap.wav",80
Sample,16941,0,"soft-hitnormal.wav",80
Sample,19923,0,"soft-hitclap.wav",80
Sample,19923,0,"soft-hitnormal.wav",80
Sample,21414,0,"soft-hitclap.wav",80
Sample,21414,0,"soft-hitnormal.wav",80
Sample,28122,0,"normal-hitclap.wav",80
Sample,28122,0,"normal-hitnormal.wav",80
Sample,55703,0,"soft-hitclap.wav",80
Sample,55703,0,"soft-hitnormal.wav",80
Sample,57194,0,"soft-hitclap.wav",80
Sample,57194,0,"soft-hitnormal.wav",80
Sample,65394,0,"normal-hitclap.wav",80
Sample,65394,0,"normal-hitnormal.wav",80
Sample,85521,0,"soft-hitclap.wav",80
Sample,85521,0,"soft-hitnormal.wav",80
Sample,87012,0,"soft-hitclap.wav",80
Sample,87012,0,"soft-hitnormal.wav",80
Sample,88503,0,"soft-hitclap.wav",80
Sample,88503,0,"soft-hitnormal.wav",80
Sample,123538,0,"normal-hitclap.wav",80
Sample,123538,0,"normal-hitnormal.wav",80
Sample,126520,0,"normal-hitclap.wav",80
Sample,126520,0,"normal-hitnormal.wav",80
Sample,130992,0,"normal-hitclap.wav",80
Sample,130992,0,"normal-hitnormal.wav",80
Sample,131738,0,"normal-hitclap.wav",80
Sample,131738,0,"normal-hitnormal.wav",80
Sample,132483,0,"normal-hitclap.wav",80
Sample,132483,0,"normal-hitnormal.wav",80
Sample,133974,0,"normal-hitclap.wav",80
Sample,133974,0,"normal-hitnormal.wav",80
Sample,157083,0,"normal-hitclap.wav",80
Sample,157083,0,"normal-hitnormal.wav",80
Sample,201063,0,"normal-hitclap.wav",80
Sample,201063,0,"normal-hitnormal.wav",80
Sample,201809,0,"normal-hitclap.wav",80
Sample,201809,0,"normal-hitnormal.wav",80
Sample,202554,0,"normal-hitclap.wav",80
Sample,202554,0,"normal-hitnormal.wav",80
Sample,206281,0,"normal-hitclap.wav",80
Sample,206281,0,"normal-hitnormal.wav",80
Sample,207772,0,"normal-hitclap.wav",80
Sample,207772,0,"normal-hitnormal.wav",80
Sample,227153,0,"normal-hitclap.wav",80
Sample,227153,0,"normal-hitnormal.wav",80
Sample,230881,0,"normal-hitclap.wav",80
Sample,230881,0,"normal-hitnormal.wav",80
//Background Colour Transformations
3,100,255,255,255

[TimingPoints]
1660,372.717107715244,4,2,1,90,1,0
25420,-100,4,1,0,90,0,0
49274,-100,4,2,1,90,0,0
61201,-100,4,1,0,90,0,0
73128,-100,4,2,1,90,0,0
108909,-100,4,1,0,90,0,0
120934,-100,4,1,0,90,0,1
132766,-100,4,1,0,90,0,0
132860,-100,4,1,0,90,0,1
141711,-100,4,1,0,90,0,0
141804,-100,4,1,0,90,0,1
141897,-100,4,2,1,90,0,0
156337,-100,4,1,0,90,0,0
167146,-100,4,2,1,90,0,0
190813,-100,4,1,0,90,0,0
191010,-100,4,1,0,90,0,1
202844,-100,4,1,0,90,0,0
202937,-100,4,1,0,90,0,1
211789,-100,4,1,0,90,0,0
211882,-100,4,1,0,90,0,1
211975,-100,4,1,0,90,0,0

[Colours]
Combo1 : 81,168,255
Combo2 : 170,85,255
Combo3 : 253,204,57

[HitObjects]
87,304,13586,2,0,B|423:304,1,330,2|8
416,192,15077,2,0,B|80:192,1,330,2|8
87,80,16568,2,0,B|423:80,1,330,2|8
368,192,18059,5,2
256,144,18432,1,8
144,192,18804,1,2
256,240,19177,1,8
160,304,19550,6,0,B|207:351|257:368|311:350|353:301,1,220,2|2
256,240,20668,1,8
338,159,21041,2,0,B|162:159,2,165,2|0|8
256,192,22532,12,0,25513
256,192,25886,5,8
336,128,26259,1,0
256,64,26632,1,8
176,128,27004,1,0
256,192,27377,1,8
352,256,27750,2,0,B|305:303|255:320|201:302|156:251,1,220
160,144,28868,5,8
256,96,29241,1,0
352,144,29613,1,8
312,246,29986,2,0,B|312:374,1,110,0|8
200,356,30731,2,0,B|200:246,1,110,0|12
160,144,31477,5,0
256,192,31850,1,8
256,80,32222,1,0
352,144,32595,1,8
352,256,32968,1,0
256,304,33340,1,8
160,256,33713,1,0
256,192,34086,1,12
256,192,34459,12,0,37440
149,52,37813,6,0,B|197:52|197:52|245:20|277:52,1,110,8|0
363,96,38558,2,0,B|315:96|315:96|267:128|235:96,1,110,8|0
176,192,39304,1,8
256,272,39677,1,0
336,192,40049,1,12
352,304,40422,6,0,B|480:304,2,110,0|8|0
256,352,41540,2,0,B|256:224,1,110,8|0
160,304,42286,2,0,B|32:304,2,110,8|0|12
112,208,43404,5,0
160,112,43777,2,0,B|224:224,1,110,8|0
256,112,44522,1,8
256,112,44895,1,0
297,207,45267,2,0,B|352:112,1,110,8|0
400,208,46013,1,12
256,192,46386,12,8,49367
209,184,49740,6,0,B|161:248|193:312|258:347|321:312|353:248|302:180,1,330,8|8
401,136,51231,2,0,B|253:-7|103:142,1,330,8|8
110,249,52722,2,0,B|257:389|406:245,1,330,8|8
336,192,54213,5,8
256,224,54585,1,0
176,192,54958,1,0
256,144,55331,2,0,B|211:106|169:85|95:140,2,165,8|0|0
256,144,56822,2,0,B|301:106|343:85|417:140,2,165,8|0|0
256,192,58313,12,4,61294
320,48,61667,6,0,B|320:176,1,110,8|0
256,256,62412,2,0,B|256:128,1,110,8|0
192,48,63158,2,0,B|192:176,1,110,8|0
160,256,63903,1,8
256,320,64276,1,0
352,256,64649,1,8
366,146,65021,6,0,B|142:146,1,220
93,49,66140,2,0,B|221:49,1,110,8|0
309,49,66885,2,0,B|419:49,1,110,8|0
366,146,67630,5,8
256,192,68003,2,0,B|288:256|368:224,2,110,0|8|0
146,146,69121,1,8
256,192,69494,2,0,B|224:256|144:224,1,110,0|8
256,192,70239,12,2,73221
256,352,73594,5,0
176,272,73967,2,0,B|241:251|271:251|353:276,1,165,2|2
368,224,74712,1,2
256,192,75085,1,0
144,224,75457,2,0,B|80:176|112:80|160:64,1,165,2|2
176,48,76203,5,2
256,128,76576,1,0
336,48,76948,1,2
384,144,77321,1,0
368,256,77694,1,2
256,224,78067,1,0
144,256,78439,1,2
128,144,78812,1,0
202,63,79185,6,0,B|330:63,3,110,2|2|0|2
256,160,80676,2,0,B|368:160,1,110,2|2
312,256,81421,1,0
256,352,81794,1,2
201,255,82166,1,2
256,160,82539,2,0,B|128:160,1,110,2|0
256,160,83285,1,2
200,66,83657,5,0
312,66,84030,1,0
314,175,84403,1,0
198,175,84775,1,0
155,276,85148,6,0,B|238:351|287:224|379:292,1,220,2|0
314,175,86266,1,8
416,192,86639,2,0,B|432:128|400:80|320:64,1,165,2|2
338,68,87384,1,0
256,144,87757,1,8
173,68,88130,2,0,B|113:87|80:128|96:195,1,165,2|2
95,192,88875,1,0
208,176,89248,6,0,B|231:252|147:272,1,110,8|2
256,320,89993,1,8
343,265,90366,2,0,B|285:245|304:174,1,110,2|8
256,192,91112,12,0,95584
256,192,107511,12,4,109002
336,112,109375,5,8
256,48,109747,1,0
176,112,110120,2,0,B|80:192,1,110,8|0
201,192,110866,2,0,B|201:320,1,110,8|0
311,302,111611,2,0,B|311:192,1,110,8|0
420,182,112356,2,0,B|336:112,1,110,8|0
256,48,113102,5,8
202,144,113475,2,0,B|163:199|208:254,1,110,0|8
310,246,114220,2,0,B|345:201|310:141,1,110,0|8
256,192,114966,12,0,118693
256,336,120929,5,4
201,240,121302,1,8
311,240,121674,1,0
367,145,122047,2,0,B|143:145,1,220,8|8
91,49,123165,2,0,B|427:49,1,330,0|8
421,49,124656,1,0
361,141,125029,6,0,B|313:205|313:205|371:233|363:308|284:321,1,220,8|8
201,313,126147,2,0,B|156:301|143:231|198:204|198:204|148:139,1,220
201,43,127265,1,8
311,43,127638,1,0
256,128,128011,6,0,B|400:176|336:320,1,220,8|8
256,352,129129,1,0
166,297,129501,2,0,B|122:174|261:125,1,220,8|8
153,87,130620,2,0,B|256:19|377:93,3,220,0|4|4|4
420,176,133229,6,0,B|68:176,1,330,8|0
146,257,134720,2,0,B|386:257,1,220,8|8
311,338,135838,2,0,B|199:338,2,110,0|8|0
366,257,136956,5,8
320,160,137329,1,0
256,249,137701,1,8
192,160,138074,1,0
146,257,138447,1,8
256,192,138819,12,4,141801
256,80,143292,5,2
144,272,144037,1,2
368,272,144783,1,8
256,256,145156,5,2
312,161,145528,1,8
200,161,145901,1,2
256,64,146274,2,0,B|384:64,2,110,8|2|8
256,64,147392,2,0,B|128:64,2,110,2|8|2
336,144,148510,6,0,B|336:272,1,110,8|0
256,192,149255,2,0,B|256:320,1,110,8|2
176,254,150001,2,0,B|176:144,1,110,8|0
256,192,150746,12,0,155219
96,192,156710,6,0,B|208:128|256:192|304:256|416:187,1,330,4|8
352,96,158201,1,0
256,48,158573,1,8
160,96,158946,1,0
256,144,159319,6,0,B|256:272,1,110,8|0
256,144,160064,2,0,B|176:240,1,110,8|0
256,320,160810,1,8
326,228,161182,2,0,B|256:144,1,110,0|8
311,48,161928,1,0
201,48,162301,1,8
256,144,162673,6,0,B|384:144,2,110,0|8|0
256,256,163791,1,8
256,144,164164,2,0,B|128:144,2,110,0|8|0
201,48,165282,2,0,B|320:48,1,110,8|4
255,313,179073,5,2
166,247,179446,2,0,B|44:247,1,110,2|2
166,137,180191,2,0,B|44:137,1,110,2|2
255,71,180936,1,2
346,137,181309,2,0,B|468:137,1,110,2|2
346,247,182055,2,0,B|468:247,1,110,2|2
255,313,182800,5,2
256,208,183173,2,0,B|256:16,2,165,2|0|2
255,313,184664,1,2
255,313,185036,1,2
192,224,185409,6,0,B|144:160|192:96|256:92|320:96|368:160|320:224,1,330,2|2
256,32,187273,1,2
192,224,188018,5,2
256,320,188391,1,2
320,224,188763,1,2
256,320,189136,1,2
256,192,191000,6,0,B|239:122|160:128,1,110,4|8
256,192,191745,2,0,B|194:191|176:258,1,110,0|8
256,192,192491,2,0,B|273:262|352:256,1,110,0|8
256,192,193236,2,0,B|317:192|335:125,1,110,0|8
256,48,193982,5,0
177,128,194354,2,0,B|194:192|256:192,1,110,8|0
177,256,195100,2,0,B|239:262|256:192,1,110,8|0
334,255,195845,2,0,B|317:191|256:192,1,110,8|0
334,127,196591,2,0,B|273:122|256:192,1,110,8|0
256,304,197336,5,8
160,240,197709,1,0
256,192,198081,1,8
352,144,198454,1,0
256,80,198827,1,8
160,144,199200,1,0
256,192,199572,1,8
256,304,199945,5,0
256,304,200318,1,8
160,240,200690,2,0,B|207:193|257:176|311:194|353:243,3,220,0|4|4|4
320,128,203299,6,0,B|376:150|421:205,2,110,8|0|8
256,32,204418,1,0
192,128,204790,2,0,B|136:150|91:205,2,110,8|0|8
256,224,205908,6,0,B|288:304|352:224|384:320,2,165,0|0|8
256,224,207399,2,0,B|224:304|160:224|128:320,2,165,0|0|8
256,192,208890,12,4,211872
256,48,212617,5,4
256,272,213363,1,4
176,192,213736,1,4
256,112,214108,1,4
336,192,214481,1,4
256,272,214854,6,0,B|256:352,2,55,4|0|8
176,192,215599,2,0,B|176:256,2,55,0|0|8
256,112,216345,2,0,B|256:176,2,55,0|0|8
336,192,217090,2,0,B|336:256,2,55,0|0|8
352,80,217835,5,0
256,32,218208,1,8
160,80,218581,1,0
256,112,218954,2,0,B|256:336,1,220,8|8
149,304,220072,1,0
147,192,220444,2,0,B|387:192,1,220,8|8
363,80,221563,5,0
256,112,221935,1,8
149,80,222308,1,0
176,192,222681,2,0,B|144:320,1,110,8|0
256,352,223426,2,0,B|256:224,1,110,8|0
362,298,224172,2,0,B|336:192,1,110,8|0
304,96,224917,5,8
256,192,225290,1,0
208,96,225662,1,8
256,192,226035,1,0
304,96,226408,1,8
352,192,226781,6,0,B|352:272|304:320|256:320|208:320|160:272|160:192,1,330,0|8
256,128,228272,2,0,B|256:256,2,110,0|8|0
352,80,229390,1,8
256,32,229762,1,0
160,80,230135,1,8
147,191,230508,6,0,B|371:191,1,220
311,273,231626,2,0,B|199:273,1,110,8|0
256,352,232371,1,8
201,273,232744,6,0,B|98:174|214:64,1,220
256,176,233862,1,0
313,80,234235,2,0,B|406:180|310:276,1,220
256,176,235353,1,0
256,192,235726,12,4,238708
