osu file format v14

[General]
AudioFilename: Nightcore - Courtesy Call.mp3
AudioLeadIn: 0
PreviewTime: -1
Countdown: 1
SampleSet: None
StackLeniency: 0.7
Mode: 0
LetterboxInBreaks: 1
WidescreenStoryboard: 0

[Editor]
DistanceSpacing: 1
BeatDivisor: 3
GridSize: 8
TimelineZoom: 1

[Metadata]
Title:Courtesy Call
TitleUnicode:Courtesy Call
Artist:Nightcore
ArtistUnicode:Nightcore
Creator:xFiqhterPanda
Version:Normal
Source:
Tags:
BeatmapID:708426
BeatmapSetID:318072

[Difficulty]
HPDrainRate:5
CircleSize:5
OverallDifficulty:5
ApproachRate:5
SliderMultiplier:1.5
SliderTickRate:2

[Events]
//Background and Video events
0,0,"kjjkjkjk.jpg",0,0
//Break Periods
//Storyboard Layer 0 (Background)
//Storyboard Layer 1 (Fail)
//Storyboard Layer 2 (Pass)
//Storyboard Layer 3 (Foreground)
//Storyboard Sound Samples

[TimingPoints]
8997.76237623762,480,4,1,0,100,1,0

[HitObjects]
192,192,9157,5,0,0:0:0:0:
368,112,9797,1,0,0:0:0:0:
336,280,10277,1,0,0:0:0:0:
240,120,10917,1,0,0:0:0:0:
392,208,11557,1,0,0:0:0:0:
256,256,12037,1,0,0:0:0:0:
344,136,12517,1,0,0:0:0:0:
184,192,12997,1,0,0:0:0:0:
344,288,13637,1,0,0:0:0:0:
264,152,14117,5,0,0:0:0:0:
416,248,14757,1,0,0:0:0:0:
264,256,15237,1,0,0:0:0:0:
392,136,15877,1,0,0:0:0:0:
232,184,16357,1,0,0:0:0:0:
376,288,16997,1,0,0:0:0:0:
320,160,17477,1,0,0:0:0:0:
456,240,17957,5,0,0:0:0:0:
288,256,18437,1,0,0:0:0:0:
240,64,19077,1,0,0:0:0:0:
400,144,19717,1,0,0:0:0:0:
240,176,20197,1,0,0:0:0:0:
392,272,20837,1,0,0:0:0:0:
336,168,21157,1,0,0:0:0:0:
200,168,22437,5,0,0:0:0:0:
344,152,22917,1,0,0:0:0:0:
304,288,23397,1,0,0:0:0:0:
8,56,24677,5,0,0:0:0:0:
64,88,24837,1,0,0:0:0:0:
160,144,25157,1,0,0:0:0:0:
232,176,25477,1,0,0:0:0:0:
288,200,25637,1,0,0:0:0:0:
232,208,26757,5,0,0:0:0:0:
272,192,27877,1,0,0:0:0:0:
240,184,28997,1,0,0:0:0:0:
272,168,30117,1,0,0:0:0:0:
248,160,31237,1,0,0:0:0:0:
152,120,31557,1,0,0:0:0:0:
272,160,32037,1,0,0:0:0:0:
192,136,32357,1,0,0:0:0:0:
176,136,33477,5,0,0:0:0:0:
240,152,33637,1,0,0:0:0:0:
240,152,33957,1,0,0:0:0:0:
328,152,34277,1,0,0:0:0:0:
328,80,34437,1,0,0:0:0:0:
192,136,35717,5,0,0:0:0:0:
328,168,36197,1,0,0:0:0:0:
176,216,36677,1,0,0:0:0:0:
344,264,37157,1,0,0:0:0:0:
144,280,37797,1,0,0:0:0:0:
304,304,38277,1,0,0:0:0:0:
152,208,38917,1,0,0:0:0:0:
304,256,39397,1,0,0:0:0:0:
176,160,39877,1,0,0:0:0:0:
320,232,40357,1,0,0:0:0:0:
208,96,40837,1,0,0:0:0:0:
352,208,41477,1,0,0:0:0:0:
248,80,41957,1,0,0:0:0:0:
368,200,42437,1,0,0:0:0:0:
288,32,43077,1,0,0:0:0:0:
360,160,43557,1,0,0:0:0:0:
360,160,43877,1,0,0:0:0:0:
192,184,44357,1,0,0:0:0:0:
272,176,44677,1,0,0:0:0:0:
344,160,44837,1,0,0:0:0:0:
248,200,45157,1,0,0:0:0:0:
328,168,45477,1,0,0:0:0:0:
200,152,46597,1,0,0:0:0:0:
384,144,47237,1,0,0:0:0:0:
272,224,47717,1,0,0:0:0:0:
72,192,48837,6,0,B|320:64|384:192|288:288|168:304|112:272,2,450
256,192,52357,12,0,55237,0:0:0:0:
160,136,55877,5,0,0:0:0:0:
376,128,56517,1,0,0:0:0:0:
144,232,57317,1,0,0:0:0:0:
360,232,57957,1,0,0:0:0:0:
144,144,58757,1,0,0:0:0:0:
360,152,59397,1,0,0:0:0:0:
160,160,61957,5,0,0:0:0:0:
248,160,62277,1,0,0:0:0:0:
320,160,62437,1,0,0:0:0:0:
440,168,62757,1,0,0:0:0:0:
344,224,63077,1,0,0:0:0:0:
24,32,66437,5,0,0:0:0:0:
112,112,66757,1,0,0:0:0:0:
272,128,67237,1,0,0:0:0:0:
104,40,67877,1,0,0:0:0:0:
24,32,70597,5,0,0:0:0:0:
104,104,70917,1,0,0:0:0:0:
208,128,71237,1,0,0:0:0:0:
312,136,71557,1,0,0:0:0:0:
40,48,73317,1,0,0:0:0:0:
136,104,73637,1,0,0:0:0:0:
248,104,73957,1,0,0:0:0:0:
360,120,74277,1,0,0:0:0:0:
88,80,75717,5,0,0:0:0:0:
168,112,76037,1,0,0:0:0:0:
240,112,76197,1,0,0:0:0:0:
88,80,77477,5,0,0:0:0:0:
152,104,77637,1,0,0:0:0:0:
240,112,77957,1,0,0:0:0:0:
96,80,79557,5,0,0:0:0:0:
184,128,79877,1,0,0:0:0:0:
272,96,80197,1,0,0:0:0:0:
96,72,81797,5,0,0:0:0:0:
152,128,82117,1,0,0:0:0:0:
200,112,82277,1,0,0:0:0:0:
256,312,83877,2,0,B|88:120|312:40|464:176|352:312|56:336|104:64|368:312,2,650
80,80,88997,5,0,0:0:0:0:
184,144,89317,1,0,0:0:0:0:
400,152,89957,1,0,0:0:0:0:
232,256,90597,1,0,0:0:0:0:
96,136,91237,1,0,0:0:0:0:
232,88,91717,1,0,0:0:0:0:
136,224,92197,1,0,0:0:0:0:
176,56,92837,1,0,0:0:0:0:
184,208,93317,1,0,0:0:0:0:
184,208,93957,1,0,0:0:0:0:
320,136,94437,1,0,0:0:0:0:
136,160,95077,1,0,0:0:0:0:
240,48,95557,1,0,0:0:0:0:
240,240,96197,1,0,0:0:0:0:
128,152,96677,1,0,0:0:0:0:
288,160,97157,1,0,0:0:0:0:
288,160,97477,1,0,0:0:0:0:
288,160,97797,1,0,0:0:0:0:
288,160,97957,1,0,0:0:0:0:
288,160,98277,1,0,0:0:0:0:
256,192,100517,12,0,101637,0:0:0:0:
152,152,102117,5,0,0:0:0:0:
272,128,102437,1,0,0:0:0:0:
304,296,102917,1,0,0:0:0:0:
72,104,103877,1,0,0:0:0:0:
232,136,104357,1,0,0:0:0:0:
272,216,104677,1,0,0:0:0:0:
112,248,105157,1,0,0:0:0:0:
112,184,106117,1,0,0:0:0:0:
248,184,106597,1,0,0:0:0:0:
208,328,107077,1,0,0:0:0:0:
32,264,107717,1,0,0:0:0:0:
120,104,109957,1,0,0:0:0:0:
192,104,110117,1,0,0:0:0:0:
288,120,110437,1,0,0:0:0:0:
368,120,110757,1,0,0:0:0:0:
416,176,110917,1,0,0:0:0:0:
392,280,111237,1,0,0:0:0:0:
328,216,111557,1,0,0:0:0:0:
64,152,112357,1,0,0:0:0:0:
168,160,112677,1,0,0:0:0:0:
320,168,113157,1,0,0:0:0:0:
384,272,113477,1,0,0:0:0:0:
224,256,113957,1,0,0:0:0:0:
48,40,114917,5,0,0:0:0:0:
120,128,115237,1,0,0:0:0:0:
208,208,115557,1,0,0:0:0:0:
384,272,116197,1,0,0:0:0:0:
136,184,116997,5,0,0:0:0:0:
336,184,117637,1,0,0:0:0:0:
184,144,118117,1,0,0:0:0:0:
336,152,118597,1,0,0:0:0:0:
168,80,119237,1,0,0:0:0:0:
336,96,119717,1,0,0:0:0:0:
160,32,120357,1,0,0:0:0:0:
336,48,120997,1,0,0:0:0:0:
200,80,121477,5,0,0:0:0:0:
320,112,121797,1,0,0:0:0:0:
176,152,122277,1,0,0:0:0:0:
312,184,122757,1,0,0:0:0:0:
136,208,123397,5,0,0:0:0:0:
216,224,123717,1,0,0:0:0:0:
312,248,124037,1,0,0:0:0:0:
416,264,124357,1,0,0:0:0:0:
136,192,125317,1,0,0:0:0:0:
184,48,125797,5,0,0:0:0:0:
240,208,126277,1,0,0:0:0:0:
80,328,126917,1,0,0:0:0:0:
264,336,127557,1,0,0:0:0:0:
400,256,128037,1,0,0:0:0:0:
272,144,128517,1,0,0:0:0:0:
472,56,129157,1,0,0:0:0:0:
272,56,129797,1,0,0:0:0:0:
144,88,130917,5,0,0:0:0:0:
144,88,131077,1,0,0:0:0:0:
144,88,131397,1,0,0:0:0:0:
440,248,132517,1,0,0:0:0:0:
368,208,132837,1,0,0:0:0:0:
328,184,132997,1,0,0:0:0:0:
264,152,133157,1,0,0:0:0:0:
152,160,133477,1,0,0:0:0:0:
184,112,134597,5,0,0:0:0:0:
184,112,134917,1,0,0:0:0:0:
184,112,135077,1,0,0:0:0:0:
184,112,135237,1,0,0:0:0:0:
184,112,135397,1,0,0:0:0:0:
184,112,135717,1,0,0:0:0:0:
432,368,136837,1,0,0:0:0:0:
320,256,137317,1,0,0:0:0:0:
168,120,137957,1,0,0:0:0:0:
360,96,138597,1,0,0:0:0:0:
104,280,139557,1,0,0:0:0:0:
448,344,140677,1,0,0:0:0:0:
184,88,141797,1,0,0:0:0:0:
256,192,143397,12,0,146117,0:0:0:0:
184,168,146757,5,0,0:0:0:0:
360,160,147237,1,0,0:0:0:0:
224,280,147877,1,0,0:0:0:0:
168,144,148357,1,0,0:0:0:0:
360,160,148997,1,0,0:0:0:0:
376,320,149477,1,0,0:0:0:0:
200,272,150117,1,0,0:0:0:0:
224,128,150597,1,0,0:0:0:0:
384,200,151077,1,0,0:0:0:0:
344,368,151557,1,0,0:0:0:0:
144,264,152357,1,0,0:0:0:0:
248,168,152837,1,0,0:0:0:0:
392,232,153317,1,0,0:0:0:0:
272,376,153957,1,0,0:0:0:0:
168,256,154437,1,0,0:0:0:0:
280,160,154917,1,0,0:0:0:0:
416,296,155557,1,0,0:0:0:0:
264,344,156037,1,0,0:0:0:0:
144,208,156677,1,0,0:0:0:0:
296,152,157157,1,0,0:0:0:0:
376,296,157637,1,0,0:0:0:0:
184,320,158277,1,0,0:0:0:0:
184,152,158757,1,0,0:0:0:0:
384,160,159397,1,0,0:0:0:0:
336,328,159877,1,0,0:0:0:0:
152,288,160517,1,0,0:0:0:0:
224,136,160997,1,0,0:0:0:0:
408,176,161637,1,0,0:0:0:0:
336,312,162117,1,0,0:0:0:0:
152,240,165637,1,0,0:0:0:0:
216,192,165957,1,0,0:0:0:0:
280,168,166117,1,0,0:0:0:0:
184,160,167717,1,0,0:0:0:0:
184,160,167877,1,0,0:0:0:0:
184,160,168197,1,0,0:0:0:0:
264,176,169797,1,0,0:0:0:0:
264,176,170117,1,0,0:0:0:0:
264,176,170437,1,0,0:0:0:0:
192,232,172037,1,0,0:0:0:0:
