osu file format v10

[General]
AudioFilename: Nightcore - Be Alive.mp3
AudioLeadIn: 0
PreviewTime: 98428
Countdown: 1
SampleSet: Soft
StackLeniency: 0.7
Mode: 0
LetterboxInBreaks: 1

[Editor]
DistanceSpacing: 0.8
BeatDivisor: 4
GridSize: 8

[Metadata]
Title:Be Alive!
TitleUnicode:Be Alive!
Artist:Nightcore
ArtistUnicode:Nightcore
Creator:[Zapper]
Version:Ultra
Source:
Tags:
BeatmapID:190301
BeatmapSetID:63775

[Difficulty]
HPDrainRate:5
CircleSize:4
OverallDifficulty:5
ApproachRate:6
SliderMultiplier:1.2
SliderTickRate:1

[Events]
//Background and Video events
0,0,"BG.jpg"
//Break Periods
2,41164,44984
2,47924,55125
2,85107,97378
//Storyboard Layer 0 (Background)
//Storyboard Layer 1 (Fail)
//Storyboard Layer 2 (Pass)
//Storyboard Layer 3 (Foreground)
//Storyboard Sound Samples
//Background Colour Transformations
3,100,163,162,255

[TimingPoints]
3781,422.535211267606,4,2,0,30,1,0
10541,-100,4,2,0,35,0,0
16034,-100,4,2,0,40,0,0
16457,-100,4,2,0,45,0,0
16879,-100,4,2,0,50,0,0
17302,-100,4,2,0,40,0,0
20682,-66.6666666666667,4,2,1,70,0,1
25752,-66.6666666666667,4,2,0,70,0,0
26597,-200,4,2,0,70,0,0
27442,-66.6666666666667,4,2,1,70,0,1
32513,-66.6666666666667,4,2,0,70,0,0
34203,-66.6666666666667,4,2,1,70,0,1
40119,-66.6666666666667,4,2,1,70,0,1
40964,-100,4,2,1,70,0,0
46034,-66.6666666666667,4,2,0,60,0,0
47724,-100,4,2,0,50,0,0
64626,-83.3333333333333,4,2,0,30,0,0
66316,-83.3333333333333,4,2,0,40,0,0
68006,-83.3333333333333,4,2,0,60,0,0
69696,-200,4,2,1,70,0,0
70400,-50,4,2,1,90,0,0
71386,-66.6666666666667,4,2,1,90,0,0
76457,-133.333333333333,4,2,1,80,0,0
78147,-66.6666666666667,4,2,1,90,0,0
83217,-76.9230769230769,4,2,1,75,0,0
98428,-58.8235294117647,4,2,1,90,0,1

[HitObjects]
256,80,3781,2,0,P|312:72|360:112,1,120,0|8,0:0|0:0,0:0:0
328,160,4414,1,0,0:0:0
304,216,4626,2,0,P|344:264|400:248,1,120,0|8,0:0|0:0,0:0:0
432,208,5259,1,0,0:0:0
448,120,5471,6,0,P|432:80|432:80|344:56,2,120,0|8|0,0:0|0:0|0:0,0:0:0
384,168,6527,2,0,P|360:208|360:240,1,60,0|8,0:0|0:0,0:0:0
400,256,6950,2,0,P|392:288|392:288|384:328,1,60
336,304,7372,5,0,0:0:0
272,304,7583,1,8,0:0:0
208,304,7795,2,0,P|200:256|136:256,1,120
80,248,8428,1,8,0:0:0
80,248,8640,1,0,0:0:0
64,192,8851,6,0,P|104:176|128:144|128:104,2,90
56,128,9696,2,0,P|80:80|144:64,1,120,4|12,0:0|0:0,0:0:0
280,128,10541,6,0,P|312:144|312:144|336:168,1,60
296,208,10964,2,0,P|272:240|272:240|272:272,1,60,8|0,0:0|0:0,0:0:0
328,280,11386,1,0,0:0:0
384,248,11597,2,0,P|416:216|392:200,2,60,0|8|0,0:0|0:0|0:0,0:0:0
392,312,12231,5,0,0:0:0
392,312,12442,1,0,0:0:0
336,344,12654,2,0,P|272:352|216:320,1,120,8|0,0:0|0:0,0:0:0
168,344,13288,2,0,P|144:312|160:296,2,60,0|8|0,0:0|0:0|0:0,0:0:0
224,328,13921,6,0,P|264:256,1,60
216,240,14344,1,8,0:0:0
224,184,14555,2,0,P|240:136|296:128|328:144,1,120
368,176,15189,2,0,P|392:160,4,15,8|0|0|0|0,0:0|0:0|0:0|0:0|0:0,0:0:0
424,192,15611,5,4,0:0:0
256,296,16034,1,4,0:0:0
88,192,16457,1,4,0:0:0
256,88,16879,1,12,0:0:0
280,152,17090,2,0,P|296:200|296:200|304:216,1,60
352,240,17513,6,0,P|384:264|424:264,1,60
424,208,17935,2,0,P|440:176|424:144,1,60
376,144,18358,2,0,P|328:160|320:176,1,60
288,216,18781,2,0,P|240:216|240:192,1,60
128,176,19414,5,0,0:0:0
128,176,19626,1,0,0:0:0
136,120,19837,2,0,P|168:88|200:88,1,60
232,88,20259,1,0,0:0:0
256,304,20682,6,0,P|320:272|344:240,1,90.0000034332277,4|0,0:0|0:0,0:0:0
288,192,21104,2,0,P|280:136|240:112,1,90.0000034332277,12|0,0:0|0:0,0:0:0
336,96,21527,2,0,P|368:128|368:128|384:176,1,90.0000034332277,0|0,0:0|0:0,0:0:0
416,240,21950,1,8,0:0:0
384,312,22161,1,0,0:0:0
296,304,22372,6,0,P|240:288|216:312,2,90.0000034332277,0|0|8,0:0|0:0|0:0,0:0:0
328,232,23006,1,0,0:0:0
264,184,23217,2,0,P|216:184|200:224,1,90.0000034332277
136,264,23640,1,8,0:0:0
136,264,23851,1,0,0:0:0
96,192,24062,6,0,P|64:144|64:112,1,90.0000034332277
96,192,24485,2,0,P|128:160|128:160|176:144,1,90.0000034332277,8|0,0:0|0:0,0:0:0
144,80,24907,1,0,0:0:0
224,64,25119,1,0,0:0:0
296,104,25330,1,8,0:0:0
296,104,25541,1,0,0:0:0
368,144,25752,6,0,P|392:208|392:256,1,90.0000034332277
320,240,26175,2,0,P|320:304|288:328,1,90.0000034332277,8|0,0:0|0:0,0:0:0
224,320,26597,2,0,P|104:320,1,120,4|4,0:0|0:0,0:0:0
104,240,27654,6,0,P|80:144,1,90.0000034332277,0|12,0:0|0:0,0:0:0
120,80,28076,2,0,P|136:32|128:24,2,45.0000017166138
200,112,28499,1,0,0:0:0
272,152,28710,2,0,P|296:192|264:224,1,90.0000034332277,8|0,0:0|0:0,0:0:0
240,304,29133,6,0,P|272:312|272:312|288:336,2,45.0000017166138
160,312,29555,2,0,P|104:336|72:312,1,90.0000034332277,8|0,0:0|0:0,0:0:0
72,248,29978,2,0,P|128:224|128:224|160:184,1,90.0000034332277
112,128,30400,2,0,P|120:80|88:72,2,90.0000034332277,8|0|0,0:0|0:0|0:0,0:0:0
200,152,31034,5,0,0:0:0
288,120,31245,1,8,0:0:0
376,152,31457,2,0,P|392:208|376:272,1,90.0000034332277
320,296,31879,1,0,0:0:0
240,328,32090,2,0,P|192:328|192:328,2,45.0000017166138,8|0|0,0:0|0:0|0:0,0:0:0
256,192,32513,6,0,P|216:224|160:176,2,135.000005149841
256,192,33358,2,0,P|248:112|272:96,1,90.0000034332277
328,80,33781,1,0,0:0:0
408,120,33992,2,0,P|408:168,1,45.0000017166138
408,200,34203,6,0,P|360:240|360:240|328:240,1,90.0000034332277,4|0,0:0|0:0,0:0:0
320,320,34626,2,0,P|256:320|256:320|208:288,1,90.0000034332277,12|0,0:0|0:0,0:0:0
168,256,35048,1,0,0:0:0
120,176,35259,1,0,0:0:0
168,256,35471,1,8,0:0:0
120,176,35682,1,0,0:0:0
168,96,35893,6,0,P|232:80|264:104,1,90.0000034332277
304,152,36316,2,0,P|360:168|288:240,1,180.000006866455,8|0,0:0|0:0,0:0:0
312,336,36950,1,0,0:0:0
224,336,37161,1,8,0:0:0
136,336,37372,1,0,0:0:0
96,256,37583,6,0,P|64:200|64:200|64:160,1,90.0000034332277
96,256,38006,2,0,P|144:176,1,90.0000034332277,8|0,0:0|0:0,0:0:0
216,160,38428,2,0,P|216:185|216:185|184:241,1,90.0000034332277
256,272,38851,1,8,0:0:0
256,272,39062,1,0,0:0:0
352,248,39273,6,0,P|384:208|360:160,1,90.0000034332277
296,152,39696,2,0,P|264:112|296:64,1,90.0000034332277,8|0,0:0|0:0,0:0:0
352,72,40119,2,0,P|416:72|464:176,2,180.000006866455,4|0|4,0:0|0:0|0:0,0:0:0
256,192,46034,12,4,47724,0:0:0
80,256,56175,6,0,P|184:256,2,90,0|8|8,0:0|0:0|0:0,0:0:0
64,168,57020,2,0,P|96:104|120:112,2,90,0|8|8,0:0|0:0|0:0,0:0:0
152,176,57865,6,0,P|216:136,1,60
272,192,58288,2,0,P|328:232,1,60,8|0,0:0|0:0,0:0:0
248,272,58710,2,0,P|208:328,1,60
152,256,59133,2,0,P|88:264,1,60,8|0,0:0|0:0,0:0:0
80,184,59555,5,0,0:0:0
80,184,59766,1,0,0:0:0
80,96,59978,2,0,P|120:48|152:48,2,90,8|0|0,0:0|0:0|0:0,0:0:0
160,136,60823,2,0,P|200:152|200:152|208:152,2,30,8|0|0,0:0|0:0|0:0,0:0:0
208,64,61245,6,0,P|272:48|296:72,2,90,0|8|0,0:0|0:0|0:0,0:0:0
240,152,62090,2,0,P|320:208|328:224,2,90,8|0|8,0:0|0:0|0:0,0:0:0
248,272,62935,6,0,P|216:272,7,30,0|0|8|0|0|0|8|0,0:0|0:0|0:0|0:0|0:0|0:0|0:0|0:0,0:0:0
192,256,63781,2,0,P|168:232,7,30,0|0|8|0|8|0|8|0,0:0|0:0|0:0|0:0|0:0|0:0|0:0|0:0,0:0:0
144,208,64626,6,0,P|176:112|224:128,1,143.999995605469,4|0,0:0|0:0,0:0:0
368,248,65471,2,0,P|408:264|384:192,1,143.999995605469,4|0,0:0|0:0,0:0:0
272,208,66316,6,0,P|272:256|248:264,1,71.9999978027344,4|0,0:0|0:0,0:0:0
184,240,66738,2,0,P|184:160,1,71.9999978027344,4|0,0:0|0:0,0:0:0
184,80,67161,2,0,P|232:80,3,35.9999989013672,4|0|4|0,0:0|0:0|0:0|0:0,0:0:0
256,80,67583,2,0,P|280:80,8,17.9999994506836,4|0|0|0|4|0|0|0|4,0:0|0:0|0:0|0:0|0:0|0:0|0:0|0:0|0:0,0:0:0
448,328,69696,6,0,P|352:328,1,90,4|0,0:0|0:0,0:0:0
280,328,70541,2,0,P|200:240|400:256,1,480,4|4,0:0|0:0,0:0:0
336,232,71597,6,0,P|297:225|297:265,1,90.0000034332277,0|8,0:0|0:0,0:0:0
240,312,72020,2,0,P|160:264|152:240,1,90.0000034332277
104,224,72442,1,0,0:0:0
80,144,72654,1,8,0:0:0
144,88,72865,1,0,0:0:0
224,128,73076,6,0,P|248:136|280:128,2,45.0000017166138
184,200,73499,2,0,P|240:240|296:232,1,90.0000034332277,8|0,0:0|0:0,0:0:0
336,208,73921,2,0,P|368:168|368:120,1,90.0000034332277,8|0,0:0|0:0,0:0:0
392,48,74344,2,0,P|440:56|464:96,1,90.0000034332277,8|8,0:0|0:0,0:0:0
464,168,74766,5,0,0:0:0
464,168,74978,1,0,0:0:0
464,168,75189,2,0,P|464:232|448:256,1,90.0000034332277,8|0,0:0|0:0,0:0:0
392,304,75611,2,0,P|344:336|344:336|296:328,1,90.0000034332277
288,336,75928,2,0,P|208:344|160:320,1,135.000005149841
128,248,76457,6,0,P|264:248,1,135.000005149841,4|0,0:0|0:0,0:0:0
304,184,77302,2,0,P|304:88|304:88|344:48,1,135.000005149841,4|0,0:0|0:0,0:0:0
392,104,78147,6,0,P|432:136|432:176,1,90.0000034332277,4|0,0:0|0:0,0:0:0
392,240,78569,1,8,0:0:0
424,320,78781,1,0,0:0:0
336,320,78992,2,0,P|280:336|256:304,2,90.0000034332277,0|0|8,0:0|0:0|0:0,0:0:0
261,318,79626,1,0,0:0:0
184,312,79837,6,0,P|152:248,2,45.0000017166138
104,288,80259,2,0,P|64:240|80:200,1,90.0000034332277,8|0,0:0|0:0,0:0:0
96,144,80682,2,0,P|144:120|184:136,1,90.0000034332277
224,192,81104,2,0,P|240:232|216:272,1,90.0000034332277,8|0,0:0|0:0,0:0:0
144,216,81527,5,0,0:0:0
144,216,81738,1,0,0:0:0
144,216,81950,2,0,P|152:160|152:160|176:128,1,90.0000034332277,8|0,0:0|0:0,0:0:0
256,112,82372,1,0,0:0:0
256,112,82583,1,0,0:0:0
256,112,82795,2,0,P|304:152|304:152|344:144,1,90.0000034332277,8|0,0:0|0:0,0:0:0
256,192,83217,12,4,84907,0:0:0
256,40,98428,6,0,P|336:80|344:112,1,102.000001945496
336,168,98851,1,8,0:0:0
272,224,99062,1,0,0:0:0
192,208,99273,2,0,P|152:152|112:176,1,102.000001945496
80,224,99696,2,0,P|104:280|152:256,1,102.000001945496,8|0,0:0|0:0,0:0:0
208,288,100119,5,0,0:0:0
288,304,100330,1,0,0:0:0
368,296,100541,2,0,P|416:248|400:208,2,102.000001945496,8|0|0,0:0|0:0|0:0,0:0:0
328,224,101175,1,0,0:0:0
376,152,101386,2,0,P|416:152,4,25.5000004863739,8|0|0|0|0,0:0|0:0|0:0|0:0|0:0,0:0:0
344,72,101809,6,0,P|272:80|272:80|256:104,1,102.000001945496
