osu file format v7

[General]
AudioFilename: Nightcore III - Amore.mp3
AudioLeadIn: 1996
PreviewTime: 37541
Countdown: 0
SampleSet: Soft
StackLeniency: 0.4
Mode: 0
LetterboxInBreaks: 1

[Editor]
Bookmarks: 12544,61393,98602,110242,134684,171893,187535
DistanceSpacing: 1
BeatDivisor: 4
GridSize: 8

[Metadata]
Title:Amore
Artist:Nightcore
Creator:osuplayer111
Version:Hard
Source:Nightcore III
Tags:Trance Techno

[Difficulty]
HPDrainRate:7
CircleSize:5
OverallDifficulty:8
SliderMultiplier:1.8
SliderTickRate:0.5

[Events]
//Background and Video events
0,0,"Hard BG.jpg"
//Break Periods
2,98802,109492
//Storyboard Layer 0 (Background)
//Storyboard Layer 1 (Fail)
//Storyboard Layer 2 (Pass)
//Storyboard Layer 3 (Foreground)
//Storyboard Sound Samples
Sample,26474,0,"soft-hitclap.wav",80
Sample,26474,0,"soft-hitnormal.wav",80
Sample,28000,0,"soft-hitclap.wav",80
Sample,28000,0,"soft-hitnormal.wav",80
Sample,29527,0,"soft-hitclap.wav",80
Sample,29527,0,"soft-hitnormal.wav",80
Sample,30290,0,"soft-hitclap.wav",80
Sample,30290,0,"soft-hitnormal.wav",80
Sample,32580,0,"soft-hitclap.wav",80
Sample,32580,0,"soft-hitnormal.wav",80
Sample,34106,0,"soft-hitclap.wav",80
Sample,34106,0,"soft-hitnormal.wav",80
Sample,35633,0,"soft-hitclap.wav",80
Sample,35633,0,"soft-hitnormal.wav",80
Sample,39449,0,"soft-hitclap.wav",80
Sample,39449,0,"soft-hitnormal.wav",80
Sample,40976,0,"soft-hitclap.wav",80
Sample,40976,0,"soft-hitnormal.wav",80
Sample,42502,0,"soft-hitclap.wav",80
Sample,42502,0,"soft-hitnormal.wav",80
Sample,45555,0,"soft-hitclap.wav",80
Sample,45555,0,"soft-hitnormal.wav",80
Sample,47082,0,"soft-hitclap.wav",80
Sample,47082,0,"soft-hitnormal.wav",80
Sample,48608,0,"soft-hitclap.wav",80
Sample,48608,0,"soft-hitnormal.wav",80
Sample,50135,0,"soft-hitclap.wav",80
Sample,50135,0,"soft-hitnormal.wav",80
Sample,51661,0,"soft-hitclap.wav",80
Sample,51661,0,"soft-hitnormal.wav",80
Sample,53188,0,"soft-hitclap.wav",80
Sample,53188,0,"soft-hitnormal.wav",80
Sample,54714,0,"soft-hitclap.wav",80
Sample,54714,0,"soft-hitnormal.wav",80
Sample,56241,0,"soft-hitclap.wav",80
Sample,56241,0,"soft-hitnormal.wav",80
Sample,57767,0,"soft-hitclap.wav",80
Sample,57767,0,"soft-hitnormal.wav",80
Sample,59294,0,"soft-hitclap.wav",80
Sample,59294,0,"soft-hitnormal.wav",80
Sample,75323,0,"soft-hitclap.wav",80
Sample,75323,0,"soft-hitnormal.wav",80
Sample,76849,0,"soft-hitclap.wav",80
Sample,76849,0,"soft-hitnormal.wav",80
Sample,78376,0,"soft-hitclap.wav",80
Sample,78376,0,"soft-hitnormal.wav",80
Sample,79139,0,"soft-hitclap.wav",80
Sample,79139,0,"soft-hitnormal.wav",80
Sample,81429,0,"soft-hitclap.wav",80
Sample,81429,0,"soft-hitnormal.wav",80
Sample,82955,0,"soft-hitclap.wav",80
Sample,82955,0,"soft-hitnormal.wav",80
Sample,84482,0,"soft-hitclap.wav",80
Sample,84482,0,"soft-hitnormal.wav",80
Sample,88298,0,"soft-hitclap.wav",80
Sample,88298,0,"soft-hitnormal.wav",80
Sample,89824,0,"soft-hitclap.wav",80
Sample,89824,0,"soft-hitnormal.wav",80
Sample,91351,0,"soft-hitclap.wav",80
Sample,91351,0,"soft-hitnormal.wav",80
Sample,94404,0,"soft-hitclap.wav",80
Sample,94404,0,"soft-hitnormal.wav",80
Sample,95931,0,"soft-hitclap.wav",80
Sample,95931,0,"soft-hitnormal.wav",80
Sample,97457,0,"soft-hitclap.wav",80
Sample,97457,0,"soft-hitnormal.wav",80
Sample,118828,0,"soft-hitclap.wav",80
Sample,118828,0,"soft-hitnormal.wav",80
Sample,120355,0,"soft-hitclap.wav",80
Sample,120355,0,"soft-hitnormal.wav",80
Sample,121881,0,"soft-hitclap.wav",80
Sample,121881,0,"soft-hitnormal.wav",80
Sample,136397,0,"soft-hitclap.wav",80
Sample,136397,0,"soft-hitnormal.wav",80
Sample,137923,0,"soft-hitclap.wav",80
Sample,137923,0,"soft-hitnormal.wav",80
Sample,139450,0,"soft-hitclap.wav",80
Sample,139450,0,"soft-hitnormal.wav",80
Sample,140213,0,"soft-hitclap.wav",80
Sample,140213,0,"soft-hitnormal.wav",80
Sample,142503,0,"soft-hitclap.wav",80
Sample,142503,0,"soft-hitnormal.wav",80
Sample,144029,0,"soft-hitclap.wav",80
Sample,144029,0,"soft-hitnormal.wav",80
Sample,145556,0,"soft-hitclap.wav",80
Sample,145556,0,"soft-hitnormal.wav",80
Sample,149372,0,"soft-hitclap.wav",80
Sample,149372,0,"soft-hitnormal.wav",80
Sample,150899,0,"soft-hitclap.wav",80
Sample,150899,0,"soft-hitnormal.wav",80
Sample,152425,0,"soft-hitclap.wav",80
Sample,152425,0,"soft-hitnormal.wav",80
Sample,157005,0,"soft-hitclap.wav",80
Sample,157005,0,"soft-hitnormal.wav",80
Sample,158531,0,"soft-hitclap.wav",80
Sample,158531,0,"soft-hitnormal.wav",80
Sample,163111,0,"soft-hitclap.wav",80
Sample,163111,0,"soft-hitnormal.wav",80
Sample,164637,0,"soft-hitclap.wav",80
Sample,164637,0,"soft-hitnormal.wav",80
Sample,166164,0,"soft-hitclap.wav",80
Sample,166164,0,"soft-hitnormal.wav",80
Sample,167690,0,"soft-hitclap.wav",80
Sample,167690,0,"soft-hitnormal.wav",80
Sample,169217,0,"soft-hitclap.wav",80
Sample,169217,0,"soft-hitnormal.wav",80
Sample,175323,0,"soft-hitclap.wav",80
Sample,175323,0,"soft-hitnormal.wav",80
Sample,176849,0,"soft-hitclap.wav",80
Sample,176849,0,"soft-hitnormal.wav",80
Sample,178376,0,"soft-hitclap.wav",80
Sample,178376,0,"soft-hitnormal.wav",80
Sample,179902,0,"soft-hitclap.wav",80
Sample,179902,0,"soft-hitnormal.wav",80
Sample,181429,0,"soft-hitclap.wav",80
Sample,181429,0,"soft-hitnormal.wav",80
//Background Colour Transformations
3,100,163,162,255

[TimingPoints]
905,381.63083577153,4,2,1,100,1,0
3958,-100,4,2,1,70,0,0
5293,-100,4,2,1,100,0,0
11399,-200,4,1,1,70,0,0
11781,-100,4,2,1,86,0,0
13021,-100,4,2,1,100,0,0
35919,-100,4,1,1,70,0,0
37541,-100,4,2,1,100,0,1
49753,-100,4,2,1,100,0,0
50707,-200,4,2,1,100,0,0
51471,-100,4,2,1,100,0,0
60248,-100,4,1,1,70,0,0
60630,-100,4,2,1,100,0,0
84768,-100,4,1,1,70,0,0
86390,-100,4,2,1,100,0,1
98602,-100,4,2,1,100,0,0
109669,-100,4,2,1,70,0,0
110719,-100,4,1,1,70,0,0
110910,-100,4,2,1,70,0,0
112245,-100,4,1,1,70,0,0
112436,-100,4,2,1,70,0,0
113772,-100,4,1,1,70,0,0
113963,-100,4,2,1,70,0,0
115298,-100,4,1,1,70,0,0
115489,-100,4,2,1,70,0,0
116920,-100,4,1,1,70,0,0
117111,-100,4,2,1,100,0,0
118161,-100,4,2,1,70,0,0
118542,-100,4,2,1,100,0,0
121214,-100,4,2,1,70,0,0
121691,-100,4,2,1,100,0,0
123040,381.63083577153,4,2,1,100,1,0
139736,-200,4,2,1,100,0,0
140499,-100,4,2,1,100,0,0
145842,-100,4,1,1,70,0,0
147469,-100,4,2,1,100,0,1
159681,-100,4,2,1,100,0,0
170266,-100,4,1,1,70,0,0
171507,-100,4,2,1,100,0,0
182479,-100,4,1,1,70,0,0
182669,-100,4,2,1,100,0,0
184005,-100,4,1,1,70,0,0
184196,-100,4,2,1,100,0,0
185245,-100,4,2,1,0,0,0

[Colours]
Combo1 : 116,12,108
Combo2 : 0,255,255
Combo3 : 255,128,255
Combo4 : 255,255,255
Combo5 : 0,64,128

[HitObjects]
200,192,523,1,0
256,120,714,1,0
312,192,904,1,2
256,352,1477,1,0
256,120,2049,1,0
256,120,2431,1,2
256,352,3003,5,0
256,352,3099,1,0
256,352,3194,1,2
184,296,3385,2,0,B|120:296|104:248,1,90
328,296,3767,2,0,B|384:304|432:240,1,90,0|2
256,192,4148,1,0
328,128,4339,2,0,B|352:168|424:168,1,90
184,128,4721,2,0,B|160:168|88:168,1,90,2|0
256,32,5102,1,0
256,192,5293,1,0
256,192,5389,1,0
256,192,5484,1,2
256,192,6629,5,0
256,192,6820,1,0
256,192,7011,1,2
480,192,7583,1,0
256,40,8155,1,0
256,344,8537,1,2
32,192,9110,5,0
32,192,9205,1,0
32,192,9300,1,2
80,264,9491,2,0,B|120:288|168:288,1,90
80,120,9873,2,0,B|120:88|176:88,1,90,0|2
256,192,10636,1,0
480,352,11209,1,2
480,32,11590,6,0,B|488:88|456:136|392:136|360:96|376:16,1,225,0|2
288,64,12735,1,0
208,32,12926,1,0
128,64,13117,2,0,B|80:120|128:192,1,135,4|0
125,188,13498,1,8
56,248,13689,1,0
256,352,14071,6,0,B|296:320|352:320,1,90,0|8
424,336,14452,1,0
480,264,14643,2,0,B|504:176|440:144,1,135
443,145,15025,1,8
368,96,15216,1,0
200,40,15597,6,0,B|160:80|120:40,1,90,0|8
48,96,15979,2,0,B|8:136|48:176,1,90
120,288,16456,1,0
120,288,16551,1,8
120,288,16742,2,0,B|200:352|296:280,1,180
360,240,17315,1,8
360,240,17505,2,0,B|416:152|352:64,1,180
280,112,18078,1,8
280,112,18269,1,0
152,240,18650,5,0
80,192,18841,1,8
24,264,19032,1,0
80,336,19223,2,0,B|152:288|216:368,1,135,4|0
201,351,19604,1,8
288,336,19795,1,0
400,192,20177,6,0,B|456:112,1,90,0|8
456,32,20558,1,0
112,192,20940,2,0,B|56:272,1,90,0|8
56,352,21322,1,0
288,336,21703,5,0
344,264,21894,1,8
400,192,22085,1,0
344,120,22276,2,0,B|320:32|248:32,1,135
254,32,22657,1,8
224,120,22848,1,0
56,192,23230,5,0
112,120,23421,1,8
112,264,23612,1,0
456,192,23993,1,0
400,264,24184,1,8
400,120,24375,1,0
256,192,24756,5,0
256,192,24947,2,0,B|256:304,2,90,8|0|4
256,32,25711,5,8
176,192,26092,2,0,B|56:272,2,135
256,192,26855,1,2
256,352,27237,5,8
336,192,27618,2,0,B|456:112,2,135
256,192,28381,1,2
168,48,28764,6,0,B|256:-8|352:56,1,180,8|0
256,192,29431,1,0
304,320,29718,1,0
208,320,29908,1,2
256,56,30481,1,0
344,216,30863,1,0
256,192,31053,1,8
168,216,31244,5,0
168,216,31340,1,0
168,216,31435,1,4
256,56,31817,1,8
344,216,32198,1,0
256,320,32484,1,0
256,192,32771,5,0
256,192,32961,1,2
136,56,33343,2,0,B|48:104|48:208,1,180,8|0
120,320,34011,1,0
256,320,34297,1,0
256,320,34488,5,2
384,192,34870,1,8
256,64,35251,2,0,B|192:24|128:80,1,135,2|0
56,192,35824,1,0
56,192,36015,5,0
256,192,36587,1,0
456,192,37159,1,0
256,192,37541,5,4
88,128,37923,1,8
24,192,38114,1,0
88,256,38304,2,0,B|160:344|248:248,1,180,0|8
304,192,38877,1,0
376,248,39068,2,0,B|448:120,1,135
336,48,39640,5,0
336,48,39735,1,0
336,48,39831,1,2
256,96,40022,1,0
256,96,40212,1,8
184,48,40403,1,0
184,48,40499,1,0
184,48,40594,1,0
256,168,40880,2,0,B|280:224|240:248|264:304,1,135
262,300,41548,5,0
336,248,41739,1,8
408,200,41930,1,0
488,160,42121,2,0,B|464:104|504:80|480:24,2,135
400,312,43075,1,0
336,248,43266,1,8
258,308,43456,5,0
258,308,43552,1,0
258,308,43647,1,4
192,248,43838,1,0
128,312,44029,1,8
256,184,44410,2,0,B|256:80,1,90
184,40,44792,1,8
256,96,44983,1,0
328,40,45174,2,0,B|384:80|400:16|464:56,1,135
480,184,45746,5,0
480,184,45842,1,0
480,184,45937,1,2
432,256,46128,2,0,B|456:296|432:352,1,90,0|8
352,304,46509,1,0
264,272,46700,2,0,B|216:208|264:136,1,135
368,64,47273,1,0
280,32,47463,2,0,B|192:0|104:48,1,180,0|8
40,112,48036,1,0
40,112,48131,1,0
40,112,48227,2,0,B|16:248,2,135,2|0|0
176,232,49181,5,0
256,280,49372,1,8
336,232,49562,1,0
256,280,49753,1,4
256,40,50326,1,0
256,280,50898,2,0,B|256:176,1,90,8|0
256,190,51852,5,0
256,190,51948,1,0
256,190,52043,1,2
184,136,52234,2,0,B|216:88|256:80,1,90,0|8
328,248,52615,2,0,B|296:296|256:304,1,90,0|2
256,190,53379,1,0
40,192,53951,1,8
472,192,54333,1,2
256,344,54905,5,0
256,344,55001,1,0
256,344,55096,1,2
208,272,55287,2,0,B|176:176,1,90,0|8
304,272,55669,2,0,B|336:176,1,90,0|4
256,40,56432,1,0
256,344,57004,1,8
256,40,57386,1,2
256,40,57958,5,0
256,40,58054,1,0
256,40,58149,1,2
304,112,58340,2,0,B|336:208,1,90,0|8
208,112,58722,2,0,B|176:208,1,90,0|2
256,344,59485,1,0
256,40,60057,1,8
256,40,60439,1,0
288,264,61393,5,2
216,320,61584,1,0
304,352,61775,1,0
384,320,61965,2,0,B|432:264|384:192,1,135,4|0
387,196,62347,1,8
456,136,62538,1,0
256,32,62920,6,0,B|216:64|160:64,1,90,0|8
88,48,63301,1,0
32,120,63492,2,0,B|8:208|72:240,1,135
69,239,63874,1,8
144,288,64064,1,0
312,344,64446,6,0,B|352:304|392:344,1,90,0|8
464,288,64828,2,0,B|504:248|464:208,1,90
392,96,65305,1,0
392,96,65400,1,8
392,96,65591,2,0,B|312:32|216:104,1,180
152,144,66163,1,8
152,144,66354,2,0,B|96:232|160:320,1,180
232,272,66927,1,8
232,272,67117,1,0
360,144,67499,5,0
432,192,67690,1,8
488,120,67881,1,0
432,48,68072,2,0,B|360:96|296:16,1,135,4|0
311,33,68453,1,8
224,48,68644,1,0
112,192,69026,6,0,B|56:272,1,90,0|8
56,352,69407,1,0
400,192,69789,2,0,B|456:112,1,90,0|8
456,32,70170,1,0
224,48,70552,5,0
168,120,70743,1,8
112,192,70934,1,0
168,264,71125,2,0,B|192:352|264:352,1,135
258,352,71506,1,8
288,264,71697,1,0
456,192,72079,5,0
400,264,72269,1,8
400,120,72460,1,0
56,192,72842,1,0
112,120,73033,1,8
112,264,73224,1,0
256,192,73605,5,0
256,192,73796,2,0,B|256:80,2,90,8|0|4
256,352,74559,5,8
336,192,74940,2,0,B|456:112,2,135
256,192,75703,1,2
256,32,76085,5,8
176,192,76466,2,0,B|56:272,2,135
256,192,77229,1,2
344,336,77612,6,0,B|256:392|160:328,1,180,8|0
256,192,78280,1,0
208,64,78566,1,0
304,64,78757,1,2
256,328,79330,1,0
168,168,79711,1,0
256,192,79902,1,8
344,168,80093,5,0
344,168,80188,1,0
344,168,80284,1,4
256,328,80665,1,8
168,168,81047,1,0
256,64,81333,1,0
256,192,81619,5,0
256,192,81810,1,2
376,328,82192,2,0,B|464:280|464:176,1,180,8|0
392,64,82860,1,0
256,64,83146,1,0
256,64,83337,5,2
128,192,83718,1,8
256,320,84100,2,0,B|320:360|384:304,1,135,2|0
456,192,84672,1,0
456,192,84863,5,0
256,192,85436,1,0
56,192,86008,1,0
256,192,86390,5,4
424,256,86771,1,8
488,192,86962,1,0
424,128,87153,2,0,B|352:40|264:136,1,180,0|8
208,192,87726,1,0
136,136,87916,2,0,B|64:264,1,135
176,336,88489,5,0
176,336,88584,1,0
176,336,88680,1,2
256,288,88870,1,0
256,288,89061,1,8
328,336,89252,1,0
328,336,89347,1,0
328,336,89443,1,0
256,216,89729,2,0,B|232:160|272:136|248:80,1,135
250,84,90397,5,0
176,136,90588,1,8
104,184,90779,1,0
24,224,90969,2,0,B|48:280|8:304|32:360,2,135
112,72,91923,1,0
176,136,92114,1,8
256,72,92305,5,0
256,72,92400,1,0
256,72,92496,1,4
320,136,92687,1,0
384,72,92878,1,8
256,200,93259,2,0,B|256:304,1,90
328,344,93641,1,8
256,288,93832,1,0
184,344,94022,2,0,B|128:304|112:368|48:328,1,135
32,200,94595,5,0
32,200,94690,1,0
32,200,94786,1,2
80,128,94977,2,0,B|56:88|80:32,1,90,0|8
160,80,95358,1,0
248,112,95549,2,0,B|296:176|248:248,1,135
144,320,96121,1,0
232,352,96312,2,0,B|320:384|408:336,1,180,0|8
472,272,96885,1,0
472,272,96980,1,0
472,272,97075,2,0,B|496:136,2,135,2|0|0
472,272,97743,5,0
472,272,97839,1,2
384,304,98030,1,0
344,224,98220,1,8
256,256,98411,1,0
224,176,98602,1,4
64,136,110242,5,2
104,56,110433,1,0
192,40,110623,1,0
256,104,110814,2,0,B|320:144|392:104,2,135
256,280,111768,1,0
256,280,111959,1,0
256,280,112150,1,0
256,280,112341,2,0,B|192:240|120:280,2,135
416,192,113295,5,2
456,112,113486,1,0
392,48,113676,1,0
352,128,113867,2,0,B|232:144,1,90
262,139,114153,1,0
152,64,114440,2,0,B|48:88|24:192,1,180
96,232,115012,1,0
32,296,115203,1,0
112,336,115394,2,0,B|168:280|256:328,2,135
224,192,116348,6,0,B|184:152|208:96,1,90,2|0
256,40,116729,2,0,B|304:16|344:56,1,90
432,32,117111,1,0
432,32,117206,1,0
432,32,117302,2,0,B|488:120,1,90,8|0
400,272,117874,1,0
336,328,118065,1,8
296,304,118161,1,2
256,288,118256,1,2
216,304,118351,1,2
176,328,118447,2,0,B|88:304|120:216,2,135,2|0|0
256,168,119401,5,2
184,112,119592,1,8
256,56,119783,1,0
328,112,119973,2,0,B|432:112,1,90
418,112,120260,1,0
488,224,120546,2,0,B|480:328|360:328,1,180
296,280,121118,1,8
296,280,121214,1,2
296,280,121309,1,2
296,280,121404,1,2
296,280,121500,2,0,B|224:232|232:160,2,135,2|0|0
328,192,122263,5,2
328,192,122359,1,0
328,192,122454,1,0
384,120,122645,1,8
328,48,122836,1,0
240,48,123040,1,4
120,192,123421,5,8
24,344,123803,1,0
72,264,123994,1,0
120,192,124184,2,0,B|88:152,2,45,10|0|0
176,264,124566,2,0,B|376:264,1,180,2|8
512,352,125329,2,0,B|312:352,1,180,0|8
240,352,125902,5,0
240,352,125997,1,0
240,352,126093,2,0,B|144:312|144:192,1,180,2|8
144,120,126665,2,0,B|232:56,1,90
288,128,127047,1,2
352,64,127237,1,10
440,64,127428,1,2
504,128,127619,2,0,B|504:224|416:288,1,180,2|8
360,352,128192,1,0
304,280,128382,5,2
304,280,128478,1,0
304,280,128573,1,0
256,200,128764,1,8
208,280,128955,1,0
208,280,129050,1,0
208,280,129146,1,4
256,104,129527,6,0,B|256:8,2,90,8|0|0
336,152,130100,1,2
256,200,130290,1,10
176,152,130481,1,2
256,200,130672,2,0,B|256:304,2,90,2|0|8
256,200,131245,1,0
336,152,131626,5,2
256,104,131817,1,10
256,104,131912,1,0
256,104,132008,1,0
176,152,132199,1,2
256,360,132580,1,8
256,200,133153,5,2
256,104,133344,1,10
176,152,133534,1,2
336,152,133725,1,2
256,360,134107,1,10
176,152,134679,5,0
336,152,134870,1,10
480,192,135252,1,4
336,296,135633,2,0,B|256:376|176:288,1,180,8|0
88,192,136301,1,0
128,64,136587,1,0
216,40,136778,6,0,B|312:8|392:80,1,180,2|8
456,240,137541,2,0,B|424:304|344:312,2,135
384,192,138305,1,2
256,72,138686,1,8
120,192,139068,2,0,B|-24:192,2,135
256,192,139831,2,0,B|256:336,1,135,2|0
256,327,140785,1,0
256,327,140976,1,8
344,344,141167,5,0
344,344,141262,1,0
344,344,141358,2,0,B|448:312|464:200,1,180,4|8
392,56,142121,2,0,B|296:32,1,90
304,34,142407,2,0,B|272:96|168:104,1,135
112,56,142884,5,2
16,224,143266,1,8
144,352,143648,1,0
256,280,143934,1,0
376,352,144220,1,0
256,280,144411,6,0,B|296:208|224:160|264:96,2,180,2|8|0
376,352,145460,1,0
144,352,145747,1,0
144,352,145937,5,0
256,32,146510,1,0
376,352,147082,1,0
256,192,147464,5,4
96,104,147846,1,8
184,136,148036,1,0
256,192,148227,1,0
416,280,148609,1,8
328,248,148799,1,0
256,192,148990,2,0,B|304:120|248:48,2,135
256,192,149658,5,0
256,192,149754,1,2
184,248,149944,1,0
96,280,150135,1,8
184,248,150326,1,0
256,304,150517,2,0,B|384:360,2,135
328,248,151280,1,0
416,280,151471,1,0
328,248,151662,1,8
256,192,151853,5,0
256,192,151948,1,0
256,192,152043,2,0,B|128:136,2,135,2|0|0
376,56,152998,1,0
440,112,153188,1,8
376,176,153379,5,0
440,240,153570,1,4
376,304,153761,1,0
304,360,153952,1,8
232,304,154142,1,0
160,360,154333,2,0,B|56:360|16:240,1,180,0|8
88,192,154906,1,0
24,128,155096,2,0,B|24:32|112:24,1,135
93,26,155478,1,8
160,88,155669,5,0
160,88,155764,1,0
160,88,155860,1,2
216,160,156051,1,0
256,80,156241,1,8
304,152,156432,1,0
352,72,156623,2,0,B|384:32|440:64|480:16,2,135
304,248,157577,5,0
256,328,157768,1,8
216,248,157959,1,0
216,248,158054,1,0
216,248,158150,2,0,B|184:288|128:256|88:304,2,135,2|0|0
256,72,159104,5,0
336,104,159294,1,8
296,184,159485,1,0
208,152,159676,1,4
96,312,160058,1,8
96,312,160249,2,0,B|176:384|264:312,1,180
416,72,160821,2,0,B|336:0|248:72,1,180,8|0
256,192,161584,1,8
256,192,161775,6,0,B|192:192,2,45,0|0|2
304,264,162157,1,0
352,192,162347,1,8
304,112,162538,1,0
256,192,162729,2,0,B|184:248|112:208|104:136|128:96|192:72,1,270,2|0
456,72,163874,1,8
456,256,164256,1,2
200,336,164828,5,0
200,336,164923,1,0
200,336,165019,1,2
112,360,165210,1,0
72,280,165401,1,8
160,256,165592,1,0
96,192,165782,2,0,B|112:120|160:96|216:96|256:104|280:128|312:160,1,270,4|0
488,360,166927,1,8
488,176,167309,1,2
256,56,167881,5,0
256,56,167977,1,0
256,56,168072,1,2
320,128,168263,1,0
256,192,168454,1,8
200,264,168644,1,0
256,336,168835,1,2
256,192,169408,1,0
256,56,169980,1,8
432,32,170362,5,0
464,64,170457,1,0
432,96,170553,1,0
464,128,170648,1,0
432,160,170743,1,0
464,192,170839,1,0
432,224,170934,1,0
464,256,171030,1,0
432,288,171125,1,0
464,320,171220,1,0
432,352,171316,1,0
400,320,171411,1,0
368,352,171507,5,2
304,272,171697,1,0
256,192,171888,1,4
416,72,172270,1,8
416,72,172461,2,0,B|336:0|248:72,1,180
96,312,173033,2,0,B|176:384|264:312,1,180,8|0
256,192,173796,1,8
256,192,173987,6,0,B|320:192,2,45,0|0|2
208,120,174369,1,0
160,192,174559,1,8
208,272,174750,1,0
256,192,174941,2,0,B|328:136|400:176|408:248|384:288|320:312,1,270,2|0
56,312,176086,1,8
56,128,176468,1,2
312,48,177040,5,0
312,48,177135,1,0
312,48,177231,1,2
400,24,177422,1,0
440,104,177613,1,8
352,128,177804,1,0
416,192,177994,2,0,B|400:264|352:288|296:288|256:280|232:256|200:224,1,270,4|0
24,24,179139,1,8
24,208,179521,1,2
256,328,180093,5,0
256,328,180189,1,0
256,328,180284,1,2
192,256,180475,1,0
256,192,180666,1,8
312,120,180856,1,0
256,48,181047,1,2
256,192,181620,1,0
256,328,182192,1,8
376,192,182574,5,0
256,48,182956,1,2
136,192,183337,1,0
256,328,183719,1,2
312,256,183910,1,0
256,192,184100,1,0
256,192,184673,1,2
256,192,185245,12,0,187535
