osu file format v9

[General]
AudioFilename: Nightcore - All I Want For Christmas.mp3
AudioLeadIn: 0
PreviewTime: 67958
Countdown: 0
SampleSet: Soft
StackLeniency: 0.7
Mode: 0
LetterboxInBreaks: 0
SkinPreference:Holiday

[Editor]
Bookmarks: 2205,33817,35081,55313,66693,76809,86925,140034,150150,185555
DistanceSpacing: 0.8
BeatDivisor: 2
GridSize: 8

[Metadata]
Title:All I Want For Christmas
Artist:Nightcore
Creator:ztrot
Version:iNiS201
Source:
Tags:Holiday nekos MetalMario201 Mariah Carey DiamondCrash

[Difficulty]
HPDrainRate:5
CircleSize:3
OverallDifficulty:6
ApproachRate:5
SliderMultiplier:1.6
SliderTickRate:2

[Events]
//Background and Video events
0,0,"BG.png"
//Break Periods
2,55313,65493
2,77009,85725
2,140234,148950
//Storyboard Layer 0 (Background)
//Storyboard Layer 1 (Fail)
//Storyboard Layer 2 (Pass)
//Storyboard Layer 3 (Foreground)
//Storyboard Sound Samples
//Background Colour Transformations
3,100,163,162,255

[TimingPoints]
2205,316.122233930453,4,2,0,80,1,0
21330,-111.111111111111,4,2,0,80,0,0
23385,-100,4,2,0,80,0,0
23701,-100,4,2,0,80,0,1
33817,-100,4,2,0,80,0,0
66693,-100,4,2,0,80,0,1
76809,-100,4,2,0,80,0,0
109686,-100,4,2,0,80,0,1
119802,-100,4,2,0,80,0,0
164059,-100,4,2,0,80,0,1
181130,-100,4,2,0,80,0,0

[Colours]
Combo1 : 128,191,255
Combo2 : 235,235,235
Combo3 : 255,149,255
Combo4 : 164,255,164

[HitObjects]
4,344,2205,6,0,B|80:388|156:344,2,160,4|0|2
80,240,3153,1,0
80,240,3311,1,2
8,136,3627,1,0
80,32,3943,1,2
152,136,4259,1,2
508,344,4733,6,0,B|432:388|356:344,1,160
312,280,5208,1,2
432,240,5524,1,0
504,136,5840,1,2
432,32,6156,1,0
360,136,6472,1,2
256,232,7579,5,0
256,232,7737,1,0
256,232,7895,1,2
168,136,8211,1,0
112,80,8369,2,2,B|176:3|336:3|400:80,1,320
344,136,9159,1,0
181,264,9791,6,0,B|256:313|331:264,1,160,2|0
368,336,10266,2,0,B|312:384|200:384|144:336,1,240,2|0
96,272,10898,2,2,B|46:240|56:168|112:144,2,160,2|0|2
372,92,12320,5,4
508,92,12637,1,0
400,168,12953,1,2
440,48,13269,1,0
440,48,13427,1,2
480,168,13743,1,0
440,292,14059,1,2
140,292,14849,5,4
4,292,15166,1,0
4,292,15324,1,2
112,216,15640,1,0
72,336,15956,1,2
32,216,16272,1,0
72,92,16588,1,2
190,180,17378,6,0,B|216:230|296:230|322:180,2,160,4|0|2
256,136,18169,1,0
424,112,18485,2,2,B|352:-10|160:-10|88:112,1,400,2|0
296,256,19907,5,4
256,136,20223,1,0
216,256,20540,1,2
324,180,20856,1,0
188,180,21172,1,2
0,168,21488,2,0,B|40:376|256:450|472:376|512:166,1,719.999965667726,0|2
16,8,23701,6,0,B|31:88|104:136,1,160,4|8
176,176,24175,2,0,B|244:224|328:208,1,160,2|0
408,192,24649,1,10
408,192,24807,1,0
496,176,24965,2,0,B|481:256|408:304,1,160,4|8
336,344,25439,2,0,B|268:392|184:376,1,160,2|0
104,360,25914,1,10
104,360,26072,1,0
48,280,26230,6,0,B|216:280,1,160,4|8
208,200,26704,2,0,B|40:200,1,160,2|0
48,120,27178,1,10
48,120,27336,1,0
128,120,27494,1,4
256,120,27810,1,8
256,8,28127,1,4
376,8,28443,1,8
496,8,28759,6,0,B|481:88|408:136,1,160,4|8
336,176,29233,2,0,B|268:224|184:208,1,160,2|0
104,192,29707,1,10
104,192,29865,1,0
16,176,30023,2,0,B|31:256|104:304,1,160,4|8
176,344,30497,2,0,B|244:392|328:376,1,160,2|0
408,360,30972,1,10
408,360,31130,1,0
464,280,31288,6,0,B|296:280,1,160,4|8
304,200,31762,2,0,B|472:200,1,160,2|0
467,120,32236,1,10
467,120,32394,1,0
384,120,32552,1,4
256,120,32868,1,8
256,8,33184,1,4
136,8,33501,1,8
0,112,35081,6,0,B|76:156|152:112,2,160,4|0|2
76,8,36030,1,0
76,8,36188,1,2
196,48,36504,1,0
316,8,36820,1,2
436,48,37136,1,0
360,216,37610,6,0,B|436:260|512:216,1,160
496,136,38084,1,2
376,96,38400,1,0
256,136,38717,1,2
136,96,39033,1,0
16,136,39349,1,2
144,184,39665,22,2,B|208:233|304:233|368:184,1,240,0|4
496,248,40455,37,0
376,288,40771,1,2
376,288,40929,1,0
256,248,41246,1,2
136,288,41562,1,0
16,248,41878,1,2
16,248,42036,1,0
181,192,42668,6,0,B|256:143|331:192,1,160,2|0
368,120,43142,2,0,B|312:72|200:72|144:120,1,240,2|0
120,40,43775,1,2
256,8,44091,1,0
392,40,44407,1,2
256,248,45197,6,0,B|332:204|408:248,1,160,4|0
464,304,45671,2,0,B|504:264|496:176|448:208|440:120|480:80,1,240,2|0
436,8,46304,1,2
316,48,46620,1,0
196,8,46936,1,2
76,48,47252,1,0
152,216,47726,6,0,B|76:260|0:216,1,160
16,136,48200,1,2
136,96,48516,1,0
256,136,48833,1,2
376,96,49149,1,0
496,136,49465,1,2
360,352,50255,6,0,B|436:396|512:352,1,160,4|0
496,272,50729,1,2
376,232,51045,1,0
256,272,51362,1,2
136,232,51678,1,0
16,272,51994,1,2
16,272,52152,1,0
152,128,52784,6,0,B|76:172|0:128,1,160
16,48,53258,1,2
136,8,53574,1,0
256,48,53890,1,2
376,8,54207,1,0
496,48,54523,1,2
496,8,66693,6,0,B|481:88|408:136,1,160,4|8
336,176,67168,2,0,B|268:224|184:208,1,160,2|0
104,192,67642,1,10
104,192,67800,1,0
16,176,67958,2,0,B|31:256|104:304,1,160,4|8
176,344,68432,2,0,B|244:392|328:376,1,160,2|0
408,360,68906,1,10
408,360,69064,1,0
352,280,69222,6,0,B|520:280,1,160,4|8
512,200,69697,2,0,B|344:200,1,160,2|0
256,200,70171,1,10
256,200,70329,1,0
192,136,70487,1,4
192,264,70803,1,8
320,264,71119,1,4
320,136,71435,1,8
16,8,71751,6,0,B|31:88|104:136,1,160,4|8
176,176,72226,2,0,B|244:224|328:208,1,160,2|0
408,192,72700,1,10
408,192,72858,1,0
496,176,73016,2,0,B|481:256|408:304,1,160,4|8
336,344,73490,2,0,B|268:392|184:376,1,160,2|0
104,360,73964,1,10
104,360,74122,1,0
160,280,74280,6,0,B|-8:280,1,160,4|8
0,200,74755,2,0,B|168:200,1,160,2|0
256,200,75229,1,10
256,200,75387,1,0
320,136,75545,1,4
320,264,75861,1,8
192,264,76177,1,4
192,136,76493,1,8
256,24,76809,1,4
360,160,86925,6,0,B|436:204|512:160,2,160,4|0|2
436,56,87874,1,0
436,56,88032,1,2
320,8,88348,1,0
192,8,88664,1,2
76,56,88980,1,0
152,200,89454,6,0,B|76:156|0:200,1,160,2|0
24,280,89928,1,2
128,360,90245,1,0
256,376,90561,1,2
384,360,90877,1,0
488,280,91193,1,2
368,184,91509,22,2,B|304:233|208:233|144:184,1,240,0|4
152,352,92299,38,0,B|76:396|0:352,1,160,0|2
24,272,92774,1,0
128,192,93090,1,2
256,176,93406,1,0
384,192,93722,1,2
488,272,94038,1,0
360,32,94512,6,0,B|436:-12|512:32,1,160,2|0
488,112,94986,1,2
384,192,95302,1,0
256,208,95619,1,2
128,192,95935,1,0
24,112,96251,1,2
372,92,97041,5,4
508,92,97357,1,0
400,168,97673,1,2
440,48,97990,1,0
440,48,98148,1,2
480,168,98464,1,0
440,292,98780,1,2
140,292,99570,5,4
4,292,99886,1,0
4,292,100044,1,2
112,216,100360,1,0
72,336,100677,1,2
32,216,100993,1,0
72,92,101309,1,2
322,180,102099,6,0,B|296:230|216:230|190:180,2,160,4|0|2
256,136,102889,1,0
88,112,103206,2,2,B|160:-10|352:-10|424:112,1,400,2|0
216,256,104628,5,4
256,136,104944,1,0
296,256,105260,1,2
188,180,105576,1,0
324,180,105893,1,2
440,248,106209,2,0,B|384:419|128:419|72:247,1,480,0|2
256,192,107789,12,2,109054
136,168,109686,6,0,B|76:168|38:109|64:56,1,160,4|8
136,8,110160,2,0,B|196:8|234:67|208:120,1,160,2|0
138,90,110634,1,10
138,90,110792,1,0
304,120,110951,2,0,B|278:67|316:8|376:8,1,160,4|8
448,56,111425,2,0,B|474:109|436:168|376:168,1,160,2|0
376,88,111899,1,10
332,232,112215,6,0,B|256:276|180:232,1,160,4|8
178,320,112689,2,0,B|256:351|334:320,1,160,2|0
408,280,113163,1,10
408,280,113321,1,0
408,192,113480,1,4
320,96,113796,1,8
192,96,114112,1,4
104,192,114428,1,8
376,168,114744,6,0,B|436:168|474:109|448:56,1,160,4|8
376,8,115218,2,0,B|316:8|278:67|304:120,1,160,2|0
378,90,115692,1,10
378,90,115850,1,0
208,120,116009,2,0,B|234:67|196:8|136:8,1,160,4|8
64,56,116483,2,0,B|38:109|76:168|136:168,1,160,2|0
136,88,116957,1,10
180,232,117273,6,0,B|256:276|332:232,1,160,4|8
334,320,117747,2,0,B|256:351|178:320,1,160,2|0
104,280,118221,1,10
104,280,118379,1,0
104,192,118537,1,4
192,96,118854,1,8
320,96,119170,1,4
408,192,119486,1,8
256,192,119802,1,4
0,368,120434,6,0,B|0:200,1,160,2|0
64,160,120908,1,4
176,96,121225,1,0
288,160,121541,1,2
176,224,121857,1,0
178,352,122173,5,0
178,352,122331,2,0,B|256:383|334:352,1,160,4|0
392,296,122805,1,2
256,248,123121,1,0
120,200,123437,2,2,B|56:56|256:-126|456:56|392:201,1,560,2|0
256,152,124860,1,4
512,272,125492,5,2
512,272,125650,1,0
448,160,125966,1,4
336,224,126282,1,0
224,160,126599,1,2
336,96,126915,1,0
334,352,127389,6,0,B|256:383|178:352,1,160,4|0
120,296,127863,1,2
256,248,128179,1,0
392,200,128495,2,2,B|456:56|256:-126|56:56|120:201,1,560,2|0
256,152,129918,1,4
256,328,130392,5,0
256,328,130550,1,2
256,328,130708,1,0
144,256,131024,2,2,B|77:192|115:87|208:80,1,240,4|0
256,16,131657,1,2
256,144,131973,1,0
322,188,132131,2,2,B|296:238|216:238|190:188,1,160,0|4
256,328,132921,5,0
256,328,133079,1,2
256,328,133237,1,0
368,256,133553,2,0,B|433:185|376:112,3,160,4|0|2|2
456,328,134976,6,0,B|380:372|304:328,1,160,4|0
256,264,135450,1,0
208,200,135608,2,0,B|132:156|56:200,1,160,2|0
8,264,136082,1,0
56,328,136240,2,2,B|132:372|208:328,3,160,2|2|2|0
256,192,137505,12,4,140034
140,92,150150,21,4
4,92,150466,1,0
112,168,150782,1,2
72,48,151098,1,0
72,48,151256,1,2
32,168,151572,1,0
72,292,151888,1,2
372,292,152679,5,4
508,292,152995,1,0
508,292,153153,1,2
400,216,153469,1,0
440,336,153785,1,2
480,216,154101,1,0
440,92,154417,1,2
190,180,155208,6,0,B|216:230|296:230|322:180,2,160,4|0|2
256,136,155998,1,0
424,112,156314,2,2,B|352:-10|160:-10|88:112,1,400,2|0
296,256,157737,5,4
256,136,158053,1,0
216,256,158369,1,2
324,180,158685,1,0
188,180,159001,1,2
168,72,159317,2,0,B|40:144|24:376|256:465|488:376|472:144|344:72,1,800
256,192,161530,12,2,163427
16,8,164059,6,0,B|31:88|104:136,1,160,4|8
176,176,164533,2,0,B|244:224|328:208,1,160,2|0
408,192,165007,1,10
408,192,165166,1,0
496,176,165324,2,0,B|481:256|408:304,1,160,4|8
336,344,165798,2,0,B|268:392|184:376,1,160,2|0
104,360,166272,1,10
104,360,166430,1,0
160,280,166588,6,0,B|-8:280,1,160,4|8
0,200,167062,2,0,B|168:200,1,160,2|0
256,200,167536,1,10
256,200,167694,1,0
320,136,167853,1,4
320,264,168169,1,8
192,264,168485,1,4
192,136,168801,1,8
496,8,169117,6,0,B|481:88|408:136,1,160,4|8
336,176,169591,2,0,B|268:224|184:208,1,160,2|0
104,192,170065,1,10
104,192,170223,1,0
16,176,170382,2,0,B|31:256|104:304,1,160,4|8
176,344,170856,2,0,B|244:392|328:376,1,160,2|0
408,360,171330,1,10
408,360,171488,1,0
352,280,171646,6,0,B|520:280,1,160,4|8
512,200,172120,2,0,B|344:200,1,160,2|0
256,200,172594,1,10
256,200,172752,1,0
192,136,172911,1,4
192,264,173227,1,8
320,264,173543,1,4
320,136,173859,1,8
136,168,174175,6,0,B|76:168|38:109|64:56,1,160,4|8
136,8,174649,2,0,B|196:8|234:67|208:120,1,160,2|0
138,90,175123,1,10
138,90,175281,1,0
304,120,175439,2,0,B|278:67|316:8|376:8,1,160,4|8
448,56,175914,2,0,B|474:109|436:168|376:168,1,160,2|0
376,88,176388,1,10
332,232,176704,6,0,B|256:276|180:232,1,160,4|8
178,320,177178,2,0,B|256:351|334:320,1,160,2|0
408,280,177652,1,10
408,280,177810,1,0
408,192,177968,1,4
320,96,178285,1,8
192,96,178601,1,4
104,192,178917,1,8
376,168,179233,6,0,B|436:168|474:109|448:56,1,160,4|8
376,8,179707,2,0,B|316:8|278:67|304:120,1,160,2|0
378,90,180181,1,10
378,90,180339,1,0
208,120,180497,2,0,B|234:67|196:8|136:8,1,160,4|8
64,56,180972,2,0,B|38:109|76:168|136:168,1,160,2|0
136,88,181446,1,10
112,272,181762,5,4
256,352,182078,1,0
400,272,182394,1,2
400,112,182710,1,0
256,32,183026,1,2
112,112,183343,1,0
256,192,183659,12,4,185555
