osu file format v9

[General]
AudioFilename: Nightcore - All I Want For Christmas.mp3
AudioLeadIn: 0
PreviewTime: 67958
Countdown: 0
SampleSet: Soft
StackLeniency: 0.7
Mode: 0
LetterboxInBreaks: 1
SkinPreference:Holiday

[Editor]
DistanceSpacing: 0.9
BeatDivisor: 4
GridSize: 8

[Metadata]
Title:All I Want For Christmas
Artist:Nightcore
Creator:ztrot
Version:Insane
Source:
Tags:Holiday nekos MetalMario201 Mariah Carey DiamondCrash

[Difficulty]
HPDrainRate:7
CircleSize:4
OverallDifficulty:8
ApproachRate:8
SliderMultiplier:1.8
SliderTickRate:2

[Events]
//Background and Video events
0,0,"BG.png"
//Break Periods
//Storyboard Layer 0 (Background)
//Storyboard Layer 1 (Fail)
//Storyboard Layer 2 (Pass)
//Storyboard Layer 3 (Foreground)
//Storyboard Sound Samples
//Background Colour Transformations
3,100,163,162,255

[TimingPoints]
2205,316.122233930453,4,2,0,80,1,0
23701,-100,4,2,0,80,0,1
33817,-100,4,2,0,80,0,0
66693,-100,4,2,0,80,0,1
76809,-100,4,2,0,80,0,0
109686,-100,4,2,0,80,0,1
119802,-100,4,2,0,80,0,0
164059,-100,4,2,0,80,0,1
181130,-100,4,2,0,80,0,0
185634,-100,4,2,0,0,0,0

[Colours]
Combo1 : 128,191,255
Combo2 : 235,235,235
Combo3 : 255,149,255
Combo4 : 164,255,164

[HitObjects]
256,64,12320,1,0
160,192,12637,1,0
256,328,12953,1,0
352,192,13269,1,0
352,192,13427,2,0,B|456:144|400:40,2,180,2|0|2
56,56,14691,5,0
136,56,14849,2,0,B|240:40|280:136,1,180
184,144,15324,2,0,B|152:248|40:248,1,180
168,368,15956,2,0,B|360:368,2,180,2|0|2
424,56,17378,5,0
424,216,17694,1,2
256,272,18011,1,0
88,216,18327,1,2
88,56,18643,1,0
256,104,18959,1,2
424,56,19275,1,0
256,104,19591,1,2
360,272,19907,6,0,B|432:192|360:96,2,180,0|2|0
160,272,20856,2,0,B|88:192|160:96,2,180,2|0|2
256,192,21646,12,0,23701
256,48,24017,5,8
336,192,24333,1,0
328,272,24491,1,0
256,304,24649,1,8
184,272,24807,1,0
184,192,24965,2,0,B|200:128|120:80|64:128,2,180,0|8|0
104,200,25756,1,0
80,280,25914,1,8
136,344,26072,1,0
216,344,26230,6,0,B|288:272|384:320,2,180,0|8|0
200,264,27020,1,0
264,216,27178,1,8
344,216,27336,1,0
416,256,27494,2,0,B|496:184|416:88,1,180,0|8
296,56,28127,1,0
216,56,28285,1,0
176,128,28443,1,8
216,200,28601,1,8
296,200,28759,6,0,B|368:222|365:323|296:340,2,180,0|8|0
256,272,29549,1,0
184,304,29707,1,8
120,256,29865,1,0
120,176,30023,2,0,B|159:116|72:48|17:95,2,180,0|8|0
40,168,30814,1,0
40,248,30972,1,8
88,312,31130,1,0
168,312,31288,5,0
256,176,31604,1,8
336,312,31920,1,0
256,176,32236,1,8
296,104,32394,1,0
216,104,32552,1,0
256,264,32868,1,8
144,144,33184,5,0
184,72,33343,1,0
256,40,33501,1,8
328,72,33659,1,8
368,144,33817,1,4
176,344,35081,6,2,B|256:272|336:344,2,180
296,240,36030,1,2
216,240,36188,1,0
336,120,36504,2,2,B|256:192|176:120,2,180
400,272,37452,5,0
336,320,37610,2,0,B|256:248|176:320,1,180,2|0
176,320,38084,1,2
80,192,38400,1,0
256,216,38717,1,2
432,192,39033,1,0
256,120,39349,1,2
328,184,39665,5,0
360,256,39823,1,0
328,328,39981,1,0
256,368,40139,1,4
184,184,40455,1,2
152,256,40613,1,0
184,328,40771,1,0
256,368,40929,1,0
168,112,41246,2,0,B|360:112,3,180,2|0|2|0
160,320,42668,37,2
352,320,42984,1,2
336,240,43142,2,0,B|255:163|168:248,1,180
256,128,43617,1,2
312,64,43775,2,0,B|256:-8|256:-8|200:64,2,180,0|2|2
152,40,44723,5,0
80,72,44881,1,2
48,144,45039,1,0
60,222,45197,2,0,B|65:270|99:309|156:322|201:302,1,180,0|2
160,232,45671,2,0,B|195:185|262:197|296:246|272:304,1,180
328,352,46145,1,2
376,288,46304,2,0,B|416:336|456:288|456:288|456:256|456:200,2,180,0|2|0
376,128,47252,5,0
320,72,47410,1,2
256,24,47568,1,0
192,72,47726,2,0,B|208:184|112:216,1,180,0|2
168,288,48200,2,0,B|256:320|346:288,1,180
320,71,48833,2,0,B|304:184|397:215,2,180,2|0|2
256,336,49781,5,0
216,264,49939,1,2
296,264,50097,1,0
346,192,50255,2,0,B|162:192,1,180,0|2
168,112,50729,1,0
336,112,51045,1,0
176,304,51362,2,0,B|256:376|336:304,2,180,2|0|2
256,256,52152,1,0
176,40,52784,5,2
336,40,53100,1,0
336,120,53258,2,0,B|257:198|168:112,1,180
336,248,53890,1,2
176,248,54207,1,0
256,64,54523,1,2
120,152,54839,5,0
96,232,54997,1,2
120,312,55155,1,0
200,336,55313,2,0,B|272:280|376:312,1,180,4|2
440,264,55787,1,0
440,184,55945,2,0,B|344:216|280:128,1,180,2|0
384,88,56419,2,0,B|320:8|216:48,2,180,2|0|2
336,248,57368,5,2
296,320,57526,1,0
216,320,57684,1,0
176,248,57842,2,0,B|136:304|40:272|56:200,1,180,4|2
136,176,58316,2,0,B|176:112|280:152|256:224,1,180
336,248,58790,1,2
376,320,58948,2,0,B|488:320|488:200,2,180,2|2|2
64,56,60371,5,0
152,192,60687,1,2
152,192,60845,1,0
360,192,61161,1,0
448,56,61477,1,0
256,192,61635,12,0,62584
256,336,62900,5,0
184,192,63216,1,2
256,48,63532,1,0
320,192,63848,1,2
120,328,64164,1,4
392,328,64481,1,0
256,192,64639,12,0,66693
256,48,67010,5,8
408,112,67326,1,0
416,192,67484,1,0
376,264,67642,1,8
296,288,67800,1,0
216,264,67958,2,0,B|232:200|152:152|96:200,2,180,0|8|0
144,256,68748,1,0
72,288,68906,1,8
24,224,69064,1,0
40,144,69222,6,0,B|112:72|208:112,2,180,0|8|0
104,192,70013,1,0
184,184,70171,1,8
232,248,70329,1,0
296,304,70487,2,0,B|376:368|464:304,1,180,0|8
376,168,71119,1,0
320,112,71277,1,0
256,64,71435,1,8
184,104,71593,1,8
128,168,71751,6,0,B|56:190|59:291|128:308,2,180,0|8|0
168,240,72542,1,0
216,176,72700,1,8
296,176,72858,1,0
256,248,73016,2,0,B|217:308|304:376|359:329,2,180,0|8|0
336,256,73806,1,0
416,272,73964,1,8
424,192,74122,1,0
376,128,74280,5,0
256,16,74596,1,8
136,128,74913,1,0
256,240,75229,1,8
296,168,75387,1,0
216,168,75545,1,4
256,328,75861,1,8
128,224,76177,5,0
176,288,76335,1,0
256,328,76493,1,8
336,288,76651,1,8
384,224,76809,1,4
344,72,77125,2,0,B|160:72,1,180,2|0
256,208,77758,1,2
176,288,77916,2,0,B|256:360|336:288,1,180
176,128,78548,2,0,B|256:56|336:128,1,180,2|0
256,360,79338,5,0
216,200,79654,1,0
296,200,79813,2,2,B|376:144|280:144|256:96|336:56,1,180
216,200,80445,2,0,B|136:144|232:144|256:96|176:56,2,180,2|0|2
72,280,81393,5,0
120,344,81551,1,2
200,344,81709,1,0
256,280,81867,2,0,B|352:248|424:328,1,180,0|2
456,248,82341,1,0
424,168,82500,1,0
344,168,82658,1,0
256,304,82974,5,2
168,168,83290,1,0
344,168,83606,1,2
256,304,83922,1,2
256,64,84396,5,2
120,152,84712,1,0
120,152,84870,1,2
392,152,85187,1,0
248,160,85503,2,2,B|216:200|216:200|216:224|240:232|256:208|256:208|272:232|296:224|296:200|296:200|264:160,2,180
256,320,86451,5,0
336,312,86609,1,2
392,256,86767,1,0
392,176,86925,2,0,B|368:80|256:80,1,180,4|2
254,303,87558,2,0,B|144:304|120:208,1,180,0|2
224,208,88032,1,0
336,128,88348,2,2,B|255:55|176:128,2,180
112,56,89454,6,0,B|16:112|56:216,1,180,2|0
136,152,89928,2,0,B|240:152|272:256,1,180,2|0
256,88,90561,1,2
344,224,90877,1,0
168,224,91193,1,2
256,360,91509,5,0
328,320,91667,1,0
256,280,91825,1,0
184,320,91983,1,2
328,240,92299,1,2
256,200,92457,1,0
184,240,92615,1,0
256,280,92774,1,0
328,136,93090,2,2,B|327:84|184:80|183:142,2,180
256,16,94038,1,2
472,192,94512,6,0,B|504:304|400:344,1,180
392,248,94986,2,0,B|304:200|216:248,1,180,2|0
136,104,95619,2,2,B|40:144|48:256,2,180
256,336,96567,1,0
336,328,96725,1,2
392,264,96883,1,0
392,184,97041,2,2,B|400:72|296:48,1,180,2|2
120,184,97673,2,2,B|112:72|216:48,1,180
208,152,98148,2,2,B|192:192|216:216|256:208|296:216|320:192|304:152,2,180
368,304,99096,1,0
296,344,99254,1,2
216,344,99412,1,0
144,304,99570,6,0,B|56:240|112:144,1,180,2|0
176,216,100044,2,0,B|256:288|336:216,1,180,2|0
368,304,100677,2,0,B|456:240|400:144,2,180,2|0|2
256,168,101625,1,0
312,104,101783,1,2
256,48,101941,1,0
200,104,102099,2,0,B|134:150|170:248|237:246,1,180,0|2
312,104,102731,1,2
312,104,102889,2,0,B|378:150|342:248|275:246,1,180
256,320,103364,2,0,B|344:336|392:295|428:241|435:190|431:149|420:114|392:74,1,360,2|0
256,168,104312,21,0
256,88,104470,1,0
176,80,104628,1,4
128,232,104944,1,2
256,328,105260,1,0
384,232,105576,1,2
336,80,105893,1,0
256,224,106209,1,2
256,192,106367,12,0,108422
218,83,109054,38,0,B|194:51|154:91|186:139|218:171|255:197|255:197|298:171|330:139|346:99|322:51|290:85,1,360,0|4
144,216,110002,21,8
256,336,110318,1,0
328,296,110476,1,0
408,320,110634,1,8
464,264,110792,1,0
464,184,110951,2,0,B|400:216|336:136|400:80,2,180,0|8|0
480,104,111741,1,0
456,24,111899,1,8
376,8,112057,1,0
304,48,112215,6,0,B|240:8|176:48|184:120,2,180,0|8|0
264,120,113005,1,0
240,200,113163,1,8
160,216,113321,1,0
104,144,113480,2,0,B|24:136|0:232|72:264,2,180,0|8|0
160,216,114270,1,0
200,288,114428,1,8
280,288,114586,1,8
320,216,114744,6,0,B|352:280|440:280|456:200,2,180,0|8|0
384,168,115534,1,0
328,112,115692,1,8
256,80,115850,1,0
184,112,116009,2,0,B|72:80|40:200,2,180,0|8|0
144,208,116799,1,0
216,248,116957,1,8
296,248,117115,1,0
360,200,117273,1,0
256,192,117431,12,0,119802
256,48,120434,5,0
328,88,120592,1,0
328,168,120750,1,2
256,208,120908,2,0,B|160:168|88:248,2,180,0|2|0
408,144,121857,1,2
344,288,122173,1,0
344,288,122331,2,2,B|256:256|168:288,1,180
167,288,122805,2,0,B|80:248|80:144,2,180
168,128,123753,5,0
192,48,123912,1,2
256,96,124070,1,0
320,48,124228,1,0
344,128,124386,1,0
352,208,124544,2,2,B|168:208,1,180
312,336,125176,5,0
256,272,125334,1,0
200,336,125492,1,2
160,264,125650,1,2
352,264,125966,1,2
160,176,126282,1,0
352,176,126599,1,2
256,48,126915,1,2
88,208,127389,6,2,B|128:320|232:320,1,180
296,319,127863,2,2,B|384:320|424:208,1,180
392,48,128495,2,2,B|304:112|256:224|256:224|208:104|120:48,1,450
168,288,129602,2,2,B|256:336|344:288,1,180
296,48,130392,5,0
216,48,130550,1,0
256,120,130708,1,0
176,272,131024,1,2
336,272,131340,1,0
256,120,131657,1,2
166,342,131973,1,2
166,342,132131,2,2,B|350:342,1,180
360,184,132763,5,2
296,136,132921,1,0
216,136,133079,1,0
152,184,133237,1,0
256,64,133553,1,2
360,184,133869,1,0
152,184,134186,1,2
256,312,134502,1,2
40,192,134976,5,2
104,144,135134,1,0
184,136,135292,1,0
256,96,135450,1,0
328,136,135608,1,2
472,192,135924,5,0
408,144,136082,1,0
328,136,136240,1,2
256,96,136398,1,0
184,136,136556,1,2
104,144,136715,1,0
40,192,136873,1,2
184,272,137189,5,0
256,312,137347,1,0
328,272,137505,1,2
256,128,137821,1,0
216,200,137979,1,0
296,200,138137,2,2,B|352:144|432:176,2,135
328,272,138769,1,2
256,48,139718,5,0
176,192,140034,1,0
256,328,140350,1,0
336,192,140666,1,0
256,48,140982,1,0
176,96,141140,2,0,B|256:168|336:96,3,180
168,304,142563,6,0,B|352:304,1,180
344,224,143037,2,0,B|152:224,1,180
168,64,143669,2,0,B|256:96|352:64,2,180
64,192,144618,1,0
112,256,144776,1,0
192,256,144934,1,0
240,192,145092,6,0,B|320:128|416:184,1,180,4|0
368,248,145566,1,0
400,320,145724,1,0
456,256,145882,1,0
432,96,146198,2,0,B|352:160|256:112,2,180,2|0|2
456,256,147147,1,2
256,40,147621,5,4
256,200,147937,1,0
208,264,148095,2,0,B|200:336|256:336|312:336|304:264,1,180
176,144,148727,2,0,B|256:72|336:144,2,180,2|2|2
176,304,149676,1,0
256,248,149834,1,0
336,304,149992,1,0
256,320,150150,5,2
160,192,150467,1,0
256,56,150783,1,2
352,192,151099,1,0
352,192,151257,2,2,B|456:240|400:344,2,180
56,328,152521,5,0
136,328,152679,2,2,B|240:344|280:248,1,180
184,240,153154,2,2,B|152:136|40:136,1,180
168,16,153786,2,2,B|360:16,2,180
424,328,155208,5,0
424,168,155524,1,2
256,112,155841,1,0
88,168,156157,1,2
88,328,156473,1,0
256,280,156789,1,2
424,328,157105,1,0
256,280,157421,1,2
360,112,157737,22,0,B|432:192|360:288,2,180,0|2|0
160,112,158686,2,0,B|88:192|160:288,2,180,2|0|2
256,192,159476,12,0,161531
218,83,163427,22,0,B|194:51|154:91|186:139|218:171|255:197|255:197|298:171|330:139|346:99|322:51|290:85,1,360,0|4
256,336,164375,5,8
336,192,164691,1,0
328,112,164849,1,0
256,80,165007,1,8
184,112,165165,1,0
184,192,165323,2,0,B|200:256|120:304|64:256,2,180,0|8|0
104,184,166114,1,0
80,104,166272,1,8
136,40,166430,1,0
216,40,166588,6,0,B|288:112|384:64,2,180,0|8|0
200,120,167378,1,0
264,168,167536,1,8
344,168,167694,1,0
416,128,167852,2,0,B|496:200|416:296,1,180,0|8
296,328,168485,1,0
216,328,168643,1,0
176,256,168801,1,8
216,184,168959,1,8
296,184,169117,6,0,B|368:162|365:61|296:44,2,180,0|8|0
256,112,169907,1,0
184,80,170065,1,8
120,128,170223,1,0
120,208,170381,2,0,B|159:268|72:336|17:289,2,180,0|8|0
40,216,171172,1,0
40,136,171330,1,8
88,72,171488,1,0
168,72,171646,5,0
256,208,171962,1,8
336,72,172278,1,0
256,208,172594,1,8
296,280,172752,1,0
216,280,172910,1,4
256,120,173226,1,0
144,240,173542,1,0
184,312,173701,1,0
256,344,173859,1,0
328,312,174017,1,0
368,240,174175,6,0,B|472:248|504:136,2,180,0|8|0
328,168,174965,1,0
256,128,175123,1,8
184,168,175281,1,0
144,240,175439,2,0,B|40:248|8:136,2,180,0|8|0
184,168,176230,1,0
256,128,176388,1,8
328,168,176546,1,0
368,240,176704,6,0,B|312:328|208:312,2,180,0|8|0
424,184,177494,1,0
424,104,177652,1,8
360,56,177810,1,0
280,56,177968,2,0,B|200:112|96:64,2,180,0|8|0
312,136,178759,1,0
304,216,178917,1,8
224,240,179075,1,8
152,208,179233,6,0,B|56:216|32:336,2,180,0|8|0
160,288,180023,1,0
224,336,180181,1,8
304,328,180339,1,0
360,264,180497,2,0,B|400:168|512:192,2,180,0|8|0
72,112,181762,5,0
136,256,182078,1,0
256,144,182394,1,0
376,248,182710,1,0
440,112,183026,1,0
344,240,183343,2,0,B|368:128|256:24|144:136|176:240,1,360
312,328,184291,5,0
312,328,184370,1,0
312,328,184449,1,0
200,328,184607,1,0
200,328,184686,1,0
200,328,184765,1,0
256,272,184923,1,0
336,128,185239,1,0
176,128,185555,1,0
256,192,185713,12,0,188084
