osu file format v9

[General]
AudioFilename: Nightcore - All I Want For Christmas.mp3
AudioLeadIn: 0
PreviewTime: 67958
Countdown: 0
SampleSet: Soft
StackLeniency: 0.7
Mode: 0
LetterboxInBreaks: 1
SkinPreference:Holiday

[Editor]
DistanceSpacing: 0.6
BeatDivisor: 2
GridSize: 8

[Metadata]
Title:All I Want For Christmas
Artist:Nightcore
Creator:ztrot
Version:Easy
Source:
Tags:Holiday nekos MetalMario201 Mariah Carey DiamondCrash

[Difficulty]
HPDrainRate:3
CircleSize:3
OverallDifficulty:2
ApproachRate:3
SliderMultiplier:1.2
SliderTickRate:2

[Events]
//Background and Video events
0,0,"BG.png"
//Break Periods
//Storyboard Layer 0 (Background)
//Storyboard Layer 1 (Fail)
//Storyboard Layer 2 (Pass)
//Storyboard Layer 3 (Foreground)
//Storyboard Sound Samples
//Background Colour Transformations
3,100,163,162,255

[TimingPoints]
2205,316.122233930453,4,2,0,80,1,0
23701,-100,4,2,0,80,0,1
33817,-100,4,2,0,80,0,0
66693,-100,4,2,0,80,0,1
76809,-100,4,2,0,80,0,0
109686,-100,4,2,0,80,0,1
119802,-100,4,2,0,80,0,0
164059,-100,4,2,0,80,0,1
181130,-100,4,2,0,80,0,0
185713,-100,4,2,0,0,0,0

[Colours]
Combo1 : 128,191,255
Combo2 : 235,235,235
Combo3 : 255,149,255
Combo4 : 164,255,164

[HitObjects]
40,40,12320,1,0
184,40,12953,1,2
328,40,13585,1,0
472,40,14217,1,2
472,256,14849,5,0
328,256,15482,1,2
184,256,16114,1,0
40,256,16746,1,2
168,192,17378,5,0
256,80,18011,1,2
344,192,18643,1,0
96,48,19907,5,0
96,192,20540,1,2
96,336,21172,1,0
152,264,21488,6,2,B|96:144|72:64|256:-16|440:64|432:152|360:272,1,600
256,368,23701,5,4
256,368,24017,1,8
256,152,24965,5,0
296,216,25281,1,8
216,216,25598,1,0
80,56,26230,6,0,B|448:56,1,360
440,144,27494,2,0,B|200:144,1,240
256,280,28759,5,0
256,280,29075,1,8
256,280,29391,1,0
112,280,30023,5,0
112,280,30339,1,8
112,280,30656,1,0
48,152,31288,6,0,B|256:-64|464:160,2,480,4|0|4
256,352,35081,5,0
400,352,35713,1,2
400,208,36346,1,0
256,208,36978,1,2
112,208,37610,6,0,B|48:152|112:24|216:48,1,240,0|2
256,176,38875,1,0
312,48,39507,1,2
432,128,40139,5,0
472,264,40771,1,2
328,264,41404,1,0
184,264,42036,1,2
64,344,42668,6,0,B|64:96,1,240,0|2
256,104,43933,2,0,B|256:344,1,240,0|2
448,344,45197,6,0,B|448:96,1,240,0|2
256,40,46462,1,0
256,184,47094,1,2
256,328,47726,6,2,B|120:368|48:240,1,240
56,104,48991,1,0
184,40,49623,1,2
328,40,50255,5,0
456,104,50887,1,2
460,246,51520,2,0,B|392:368|256:328,1,240,0|2
256,184,52784,6,0,B|192:80|32:112,1,240,0|2
256,184,54049,2,0,B|320:80|480:112,1,240,0|2
360,240,55313,5,0
360,240,55945,1,2
152,240,56578,5,0
152,240,57210,1,2
256,64,57842,5,0
256,64,58474,1,2
256,240,59107,5,0
256,240,59739,1,2
152,144,60371,5,0
72,264,61003,1,2
104,120,61635,2,2,B|176:176|224:136|224:136|224:112|224:64|224:64|256:104|288:64|288:64|288:112|288:136|288:136|320:176|416:120,1,480
392,272,63532,1,0
256,320,64164,1,4
256,320,64481,1,0
256,192,64955,12,4,66693
256,48,67958,5,0
192,80,68274,1,8
128,112,68590,1,0
256,208,69222,5,0
320,248,69539,1,8
384,288,69855,1,0
256,360,70487,6,0,B|112:368|64:240,1,240,2|2
64,104,71751,5,0
136,104,72068,1,8
208,104,72384,1,0
440,104,73016,5,0
368,104,73332,1,8
296,104,73648,1,0
496,240,74280,6,2,B|16:240,1,480
16,240,76177,1,0
256,32,76809,5,0
112,32,77441,1,2
112,176,78074,1,0
256,176,78706,1,2
400,176,79338,6,0,B|464:232|400:360|296:336,1,240,0|2
256,208,80603,1,0
200,336,81235,1,2
80,256,81867,5,0
40,120,82499,1,2
184,120,83132,1,0
328,120,83764,1,2
448,40,84396,6,0,B|448:288,1,240,0|2
256,280,85661,2,0,B|256:40,1,240,0|2
64,40,86925,6,0,B|64:288,1,240,0|2
256,344,88190,1,0
256,200,88822,1,2
256,56,89454,6,0,B|392:16|464:144,1,240,0|2
456,280,90719,1,0
328,344,91351,1,2
184,336,91983,5,0
56,280,92615,1,2
51,137,93248,2,0,B|120:16|256:56,1,240,0|2
256,200,94512,6,0,B|320:304|480:272,1,240,0|2
256,200,95777,2,0,B|192:304|32:272,1,240,0|2
152,144,97041,5,0
152,144,97673,1,2
360,144,98306,5,0
360,144,98938,1,2
256,320,99570,5,0
256,320,100202,1,2
256,144,100835,5,0
256,144,101467,1,2
360,240,102099,5,2
440,120,102731,1,0
408,264,103363,2,2,B|336:208|288:248|288:248|288:272|288:320|288:320|256:280|224:320|224:320|224:272|224:248|224:248|192:208|96:264,1,480
120,112,105260,1,2
256,64,105892,1,0
256,64,106209,1,2
256,192,106683,12,4,108421
256,72,109054,6,0,B|184:80|152:160|208:232|296:200,1,240,0|2
256,232,110951,5,0
296,168,111267,1,8
216,168,111584,1,0
80,328,112216,6,0,B|448:328,1,360,4|0
440,240,113480,2,0,B|200:240,1,240,2|0
256,104,114745,5,0
256,104,115061,1,8
256,104,115377,1,0
112,104,116009,5,0
112,104,116325,1,8
112,104,116642,1,0
48,232,117274,6,0,B|256:448|464:224,2,480,0|4|4
184,184,120434,5,2
328,184,121066,1,0
256,312,121699,1,2
256,168,122331,5,0
328,40,122963,1,2
184,40,123595,1,0
256,168,124228,6,0,B|256:296,2,120,2|0|2
96,88,125492,6,2,B|96:328,1,240
256,336,126757,2,2,B|256:80,1,240
416,88,128021,2,2,B|416:328,1,240
316,223,129286,2,0,B|196:223,2,120,2|0|2
256,88,130550,5,2
112,88,131182,1,0
112,232,131815,1,2
112,232,132131,1,2
112,232,132447,1,2
256,264,133079,5,2
400,232,133711,1,0
400,88,134344,1,2
256,56,134976,6,0,B|136:56,1,120,2|0
136,128,135608,1,2
136,200,135924,1,0
136,272,136240,2,0,B|136:344|64:360,2,120,2|2|2
256,352,137505,5,4
256,208,138137,1,0
256,64,138769,1,0
256,352,140034,5,0
112,352,140666,1,2
112,208,141299,1,0
256,208,141931,1,2
400,208,142563,6,0,B|464:152|400:24|296:48,1,240,0|2
256,176,143828,1,0
200,48,144460,1,2
80,128,145092,5,0
40,264,145724,1,2
184,264,146357,1,0
328,264,146989,1,2
448,344,147621,6,0,B|448:96,1,240,0|2
256,104,148886,2,0,B|256:344,1,240,0|2
64,344,150150,6,0,B|64:96,1,240,0|2
256,40,151415,1,0
256,184,152047,1,2
256,328,152679,6,0,B|392:368|464:240,1,240,0|2
456,104,153944,1,0
328,40,154576,1,2
184,40,155208,5,0
56,104,155840,1,2
51,246,156473,2,0,B|120:368|256:328,1,240,0|2
256,184,157737,6,0,B|320:80|480:112,1,240,0|2
400,240,159001,1,2
400,240,159317,1,2
256,192,159949,12,0,164059
256,232,165324,5,0
216,168,165640,1,8
296,168,165957,1,0
432,328,166589,6,0,B|64:328,1,360
72,240,167853,2,0,B|312:240,1,240
256,104,169118,5,2
256,104,169434,1,2
256,104,169750,1,2
400,104,170382,5,2
400,104,170698,1,2
400,104,171015,1,2
464,232,171647,6,0,B|256:448|48:224,2,480,2|4|6
464,232,174491,1,0
464,232,174807,1,2
256,336,175440,5,2
192,304,175756,1,8
128,272,176072,1,2
256,176,176704,5,2
376,96,177337,1,0
256,24,177969,6,0,B|112:16|64:144,1,240,2|2
64,280,179233,5,2
136,280,179550,1,8
208,280,179866,1,2
440,280,180498,5,2
368,280,180814,1,8
296,280,181130,1,2
496,144,181762,6,0,B|16:144,1,480,4|0
16,144,183343,1,0
160,304,184291,5,0
216,352,184607,1,0
296,352,184923,1,0
352,304,185239,1,0
256,288,185555,1,0
256,192,185872,12,0,188084
