osu file format v5

[General]
AudioFilename: 21. Nien - NB RANGERS _ Returns.mp3
AudioLeadIn: 993
PreviewTime: -1
Countdown: 0
SampleSet: Soft
StackLeniency: 0.2
Mode: 0
LetterboxInBreaks: 0
EditorDistanceSpacing: 1

[Metadata]
Title:NB RANGERS: Returns
Artist:Nien
Creator:dumpsterdiver
Version:Hard Style
Source:DJ Max Portable 2
Tags:

[Difficulty]
HPDrainRate:7
CircleSize:7
OverallDifficulty:8
SliderMultiplier:0.4
SliderTickRate:4

[Events]
//Background and Video events
1,-100,"nbreturns.avi"
0,0,"background.png"
//Break Periods
2,88833,91400
2,95454,101331
//Storyboard Layer 0 (Background)
//Storyboard Layer 1 (Failing)
//Storyboard Layer 2 (Passing)
//Storyboard Layer 3 (Foreground)
//Storyboard Sound Samples
//Background Colour Transformations
3,100,163,162,255

[TimingPoints]
7117,413.793103448276,4,1,0,100,1,0
55530,-100,4,2,0,100,0,0
82012,-100,4,1,0,100,0,0

[Colours]
Combo1 : 0,0,32
Combo2 : 0,0,32

[HitObjects]
24,64,13530,2,0,B|152:64,1,120
185,99,15185,2,0,B|307:99,1,120
323,59,16634,1,0
344,23,16841,2,0,B|472:23,1,120
482,275,18496,6,0,B|394:275,1,80,0|0
323,229,20151,2,0,B|179:229,1,140
163,318,21806,2,0,B|35:318,1,120
36,90,23461,6,0,B|123:89,1,80
136,52,24496,1,0
156,32,24703,1,4
175,52,24910,1,0
195,76,25117,1,0
215,52,25323,1,0
236,31,25530,1,4
256,51,25737,1,0
274,76,25944,1,0
296,52,26151,1,0
316,29,26358,1,4
336,53,26565,1,0
357,85,26772,2,0,B|480:85,1,120
482,252,28427,6,0,B|394:252,1,80
321,220,30082,2,0,B|193:220,1,120
161,280,31737,2,0,B|33:280,1,120
30,72,33392,6,0,B|174:72,1,140
190,32,35048,2,0,B|251:32,1,60,0|0
269,75,35875,2,0,B|333:75,1,60
351,125,36703,2,0,B|495:125,1,140
484,236,40013,5,0
463,294,40219,1,0
452,294,40323,1,0
444,294,40427,1,0
422,237,40634,1,0
383,293,41047,1,0
363,236,41254,1,4
322,235,41667,1,0
301,293,41873,1,0
290,293,41977,1,0
282,293,42081,1,0
260,236,42288,1,0
221,292,42701,1,0
201,235,42908,1,4
162,235,43323,1,0
141,293,43529,1,0
130,293,43633,1,0
122,293,43737,1,0
100,236,43944,1,0
61,292,44357,1,0
41,235,44564,1,4
30,56,44978,5,0
51,114,45184,1,0
62,114,45288,1,0
70,114,45392,1,0
92,57,45599,1,0
131,113,46012,1,0
151,56,46219,1,4
190,55,46633,1,0
211,113,46839,1,0
222,113,46943,1,0
230,113,47047,1,0
252,56,47254,1,0
291,112,47667,1,0
311,55,47874,1,4
349,54,48288,1,0
370,112,48494,1,0
381,112,48598,1,0
389,112,48702,1,0
411,55,48909,1,0
450,111,49322,1,0
470,54,49529,1,4
387,269,49943,5,0
376,269,50047,1,0
365,269,50151,1,0
355,269,50254,1,0
345,269,50357,1,0
334,269,50461,1,0
324,269,50564,1,0
313,269,50668,1,0
303,269,50771,1,0
246,269,51392,1,0
235,269,51496,1,0
224,269,51600,1,0
214,269,51703,1,0
204,269,51806,1,0
193,269,51910,1,0
183,269,52013,1,0
172,269,52117,1,0
162,269,52220,1,0
127,74,52840,1,0
138,74,52944,1,0
149,74,53048,1,0
159,74,53151,1,0
169,74,53254,1,0
180,74,53358,1,0
190,74,53461,1,0
200,74,53565,1,0
209,74,53668,1,0
267,74,54288,1,0
278,74,54392,1,0
289,74,54496,1,0
299,74,54599,1,0
309,74,54702,1,0
320,74,54806,1,0
330,74,54909,1,0
340,74,55013,1,0
349,74,55116,1,0
462,332,56564,5,0
444,304,56771,1,0
423,274,56977,1,0
402,310,57184,2,0,B|258:310,1,140
221,328,59048,2,0,B|56:328,1,160,0|0
30,81,61736,5,0
90,60,62356,2,0,B|218:60,1,120
250,28,64011,2,0,B|378:28,1,120
386,309,65666,6,0,B|136:309,1,240
105,253,68564,1,0
97,267,68667,1,2
85,253,68771,1,0
9,102,68978,6,0,B|177:102,1,160
288,102,71874,1,0
329,83,72288,2,0,B|497:83,1,160
417,312,75185,5,0
376,272,75598,2,0,B|232:272,1,140
216,233,77254,2,0,B|72:233,1,140
126,103,78909,6,0,B|413:103,1,280
483,300,82219,5,0
442,300,82633,1,0
423,258,82839,1,0
383,245,83254,1,0
343,257,83667,1,0
303,284,84081,1,0
263,316,84495,1,0
222,284,84909,1,0
183,248,85323,2,0,B|95:248,1,80
30,117,86564,5,0
71,43,86978,2,0,B|119:43,1,40
170,115,88012,1,0
200,92,88219,1,0
230,24,88633,1,0
483,288,92150,5,0
443,309,92564,1,0
424,309,92771,1,0
383,243,93185,1,0
342,274,93598,1,0
242,313,94633,1,0
222,287,94839,1,0
182,217,95254,1,0
30,75,102081,5,0
70,97,102495,1,0
90,98,102701,1,0
129,126,103116,1,0
169,125,103530,1,0
210,143,103943,1,0
269,83,104564,1,0
291,69,104771,1,0
330,32,105185,1,0
370,18,105598,1,0
410,18,106012,1,0
450,91,106426,1,0
482,253,106840,6,0,B|418:253,1,60,0|0
383,319,107874,1,0
363,296,108081,1,0
323,233,108495,1,0
284,220,108909,1,0
241,219,109323,1,0
203,250,109736,1,0
164,285,110150,1,0
123,316,110564,1,0
83,341,110978,1,0
44,370,111392,1,0
29,116,111805,6,0,B|213:116,1,180,0|0
483,265,115323,5,0
444,265,115736,1,0
423,291,115943,1,0
384,305,116357,1,0
344,319,116771,1,0
303,335,117185,1,0
244,278,117805,1,0
222,250,118012,1,0
183,220,118426,1,0
144,200,118840,1,0
103,199,119254,1,0
62,199,119667,1,0
23,215,120081,1,0
30,126,120495,6,0,B|94:126,1,60,0|0
130,90,121530,1,0
151,90,121736,1,0
189,90,122150,1,0
229,123,122564,1,0
270,92,122978,1,0
309,141,123392,1,0
349,92,123805,1,0
370,118,124012,1,0
390,31,124219,1,0
430,91,124633,1,0
483,248,125047,5,0
464,300,125254,1,0
453,300,125358,1,0
442,300,125462,1,0
432,300,125565,1,0
422,300,125668,1,0
411,300,125772,1,0
401,300,125875,1,0
390,300,125979,1,0
380,300,126082,1,0
322,300,126703,1,0
311,300,126807,1,0
300,300,126911,1,0
290,300,127014,1,0
280,300,127117,1,0
269,300,127221,1,0
259,300,127324,1,0
248,300,127428,1,0
238,300,127531,1,0
183,247,128151,1,0
172,247,128255,1,0
161,247,128359,1,0
151,247,128462,1,0
141,247,128565,1,0
130,247,128669,1,0
120,247,128772,1,0
109,247,128876,1,0
99,247,128979,1,0
30,101,129599,5,0
40,113,129703,1,0
50,125,129807,1,0
58,112,129910,1,0
70,99,130013,1,0
79,84,130117,1,0
89,68,130220,1,0
99,51,130324,1,0
111,15,130427,1,0
128,15,130633,1,0
