osu file format v5

[General]
AudioFilename: 21. Nien - NB RANGERS _ Returns.mp3
AudioLeadIn: 1015
PreviewTime: -1
Countdown: 0
SampleSet: Normal
StackLeniency: 0.2
Mode: 0
LetterboxInBreaks: 0
EditorDistanceSpacing: 1

[Metadata]
Title:NB RANGERS: Returns
Artist:Nien
Creator:dumpsterdiver
Version:Easy Style
Source:DJ Max Portable 2
Tags:

[Difficulty]
HPDrainRate:3
CircleSize:6
OverallDifficulty:3
SliderMultiplier:0.4
SliderTickRate:1

[Events]
//Background and Video events
1,-100,"nbreturns.avi"
0,0,"background.png"
//Break Periods
2,88833,91400
2,95454,101331
//Storyboard Layer 0 (Background)
//Storyboard Layer 1 (Failing)
//Storyboard Layer 2 (Passing)
//Storyboard Layer 3 (Foreground)
//Storyboard Sound Samples
//Background Colour Transformations
3,100,163,162,255

[TimingPoints]
7117,413.793103448276,4,1,0,100,1,0
55530,-100,4,2,0,100,0,0
82012,-100,4,1,0,100,0,0

[Colours]
Combo1 : 0,0,32
Combo2 : 0,0,32

[HitObjects]
24,64,13530,2,0,B|152:64,1,120
184,96,15185,2,0,B|311:96,1,120
344,23,16841,2,0,B|472:23,1,120
482,275,18496,6,0,B|394:275,1,80,0|0
323,229,20151,2,0,B|179:229,1,140
163,318,21806,2,0,B|35:318,1,120
36,90,23461,6,0,B|125:90,1,80
195,76,25117,1,0
274,76,25944,1,0
357,85,26772,2,0,B|522:85,1,160
403,280,29254,1,0
321,220,30082,2,0,B|193:220,1,120
161,280,31737,2,0,B|33:280,1,120
30,72,33392,6,0,B|174:72,1,140
190,32,35048,2,0,B|252:32,1,60,0|0
269,75,35875,2,0,B|333:75,1,60
351,125,36703,2,0,B|495:125,1,140
484,236,40013,5,0
422,237,40634,1,0
383,293,41047,1,0
363,236,41254,1,4
322,235,41667,1,0
260,236,42288,1,0
221,292,42701,1,0
201,235,42908,1,4
162,235,43323,1,0
100,236,43944,1,0
61,292,44357,1,0
41,235,44564,1,4
30,56,44978,5,0
92,57,45599,1,0
131,113,46012,1,0
151,56,46219,1,4
190,55,46633,1,0
252,56,47254,1,0
291,112,47667,1,0
311,55,47874,1,4
349,54,48288,1,0
411,55,48909,1,0
450,111,49322,1,0
470,54,49529,1,4
387,269,49943,5,0
345,269,50357,1,0
303,269,50771,1,0
246,269,51392,1,0
204,269,51806,1,0
162,269,52220,1,0
127,74,52840,1,0
169,74,53254,1,0
209,74,53668,1,0
267,74,54288,1,0
309,74,54702,1,0
349,74,55116,1,0
444,304,56771,5,0
402,310,57184,2,0,B|258:310,1,140
222,342,59046,2,0,B|75:341,1,140
30,81,61736,5,0
90,60,62356,2,0,B|218:60,1,120
250,28,64011,2,0,B|378:28,1,120
385,258,65666,6,0,B|97:258,1,280
9,81,68978,6,0,B|177:81,1,160
288,102,71874,1,0
329,83,72289,2,0,B|497:83,1,160
417,312,75185,5,0
376,272,75598,2,0,B|232:272,1,140
216,233,77254,2,0,B|72:233,1,140
126,103,78909,6,0,B|415:103,1,280
483,300,82220,5,0
423,258,82839,1,0
343,257,83667,1,0
303,284,84081,1,0
263,316,84495,1,0
222,284,84909,1,0
183,248,85323,2,0,B|95:248,1,80
71,43,86978,2,0,B|119:43,1,40
168,116,88012,1,0
230,24,88633,1,0
483,288,92150,5,0
424,309,92771,1,0
342,274,93598,1,0
242,313,94633,1,0
182,217,95254,1,0
30,75,102081,5,0
90,98,102703,1,0
169,125,103530,1,0
210,143,103943,1,0
269,83,104564,1,0
330,32,105185,1,0
410,18,106012,1,0
482,253,106840,6,0,B|418:253,1,60,0|0
383,319,107874,1,0
323,233,108495,1,0
241,219,109323,1,0
164,285,110150,1,0
123,316,110564,1,0
83,341,110978,1,0
29,116,111805,6,0,B|213:116,1,180,0|0
483,265,115323,5,0
423,291,115943,1,0
344,319,116771,1,0
303,335,117185,1,0
244,278,117805,1,0
183,220,118426,1,0
103,199,119254,1,0
30,126,120495,6,0,B|94:126,1,60,0|0
151,90,121736,1,0
229,123,122564,1,0
270,92,122978,1,0
309,141,123392,1,0
390,31,124219,1,0
430,91,124633,1,0
464,300,125254,1,0
422,300,125668,1,0
380,300,126082,1,0
322,300,126703,1,0
280,300,127117,1,0
238,300,127531,1,0
183,247,128151,1,0
141,247,128565,1,0
99,247,128979,1,0
30,101,129599,5,0
70,99,130013,1,0
111,15,130427,1,0
128,15,130633,1,0
