osu file format v14

[General]
AudioFilename: NieN - FOR THE IKARUS.mp3
AudioLeadIn: 1500
PreviewTime: 40507
Countdown: 0
SampleSet: None
StackLeniency: 0.5
Mode: 0
LetterboxInBreaks: 1
WidescreenStoryboard: 0

[Editor]
DistanceSpacing: 1.1
BeatDivisor: 8
GridSize: 4
TimelineZoom: 2.6

[Metadata]
Title:For the Ikarus
TitleUnicode:For the Ikarus
Artist:NieN
ArtistUnicode:NieN
Creator:Guu
Version:MX
Source:DJMAX
Tags:
BeatmapID:751607
BeatmapSetID:217909

[Difficulty]
HPDrainRate:6
CircleSize:4
OverallDifficulty:7
ApproachRate:9
SliderMultiplier:2.2
SliderTickRate:1

[Events]
//Background and Video events
0,0,"Ikarus.JPG",0,0
//Break Periods
//Storyboard Layer 0 (Background)
//Storyboard Layer 1 (Fail)
//Storyboard Layer 2 (Pass)
//Storyboard Layer 3 (Foreground)
//Storyboard Sound Samples

[TimingPoints]
85,389.61038961039,4,3,1,60,1,0
15669,-133.333333333333,4,3,1,60,0,0
21513,-200,4,3,1,60,0,0
21708,-133.333333333333,4,3,1,60,0,0
26383,-142.857142857143,4,3,1,60,0,0
26822,-133.333333333333,4,3,1,60,0,0
34370,-166.666666666667,4,3,1,60,0,0
34662,-133.333333333333,4,3,1,60,0,0
37487,-166.666666666667,4,3,1,60,0,0
37828,-133.333333333333,4,3,1,60,0,0
40604,-100,4,3,1,70,0,1
65734,-133.333333333333,4,3,1,60,0,0
96708,-100,4,3,1,70,0,1
121643,-100,4,3,1,70,0,0
123396,-166.666666666667,4,3,1,70,0,0
123981,-200,4,3,1,20,0,0

[Colours]
Combo1 : 165,157,255
Combo2 : 255,236,130
Combo3 : 138,255,223
Combo4 : 255,174,94

[HitObjects]
256,192,85,12,0,2812,0:0:0:0:
4,220,3202,5,12,0:0:0:0:
104,88,3397,2,0,B|112:32,1,55
96,192,3591,1,10,0:0:0:0:
136,180,3689,1,0,0:0:0:0:
176,168,3786,1,0,0:0:0:0:
216,156,3884,1,0,0:0:0:0:
260,144,3981,2,0,L|276:24,1,110,10|0,0:0|0:0,0:0:0:0:
96,192,4370,1,2,0:0:0:0:
248,252,4565,1,0,0:0:0:0:
100,140,4760,5,8,0:0:0:0:
304,124,4955,2,0,L|296:69,1,55
320,212,5150,1,2,0:0:0:0:
360,236,5247,1,0,0:0:0:0:
400,260,5345,1,0,0:0:0:0:
440,284,5442,1,0,0:0:0:0:
480,308,5540,2,0,L|464:200,1,110,8|0,0:0|0:0,0:0:0:0:
320,212,5929,1,8,0:0:0:0:
268,348,6124,1,0,0:0:0:0:
84,252,6319,5,8,0:0:0:0:
208,276,6514,1,0,0:0:0:0:
92,108,6708,1,2,0:0:0:0:
84,252,6903,1,0,0:0:0:0:
260,168,7098,1,8,0:0:0:0:
36,176,7292,1,0,0:0:0:0:
148,40,7487,1,2,0:0:0:0:
156,212,7682,1,0,0:0:0:0:
36,176,7877,5,8,0:0:0:0:
204,104,8072,1,0,0:0:0:0:
108,340,8266,1,2,0:0:0:0:
276,264,8461,1,0,0:0:0:0:
248,80,8656,1,8,0:0:0:0:
200,80,8754,1,0,0:0:0:0:
152,80,8851,1,0,0:0:0:0:
104,80,8949,1,0,0:0:0:0:
56,84,9046,1,2,0:0:0:0:
80,128,9144,1,0,0:0:0:0:
104,172,9241,1,0,0:0:0:0:
128,216,9338,1,0,0:0:0:0:
156,256,9436,6,0,B|92:352,1,110,12|0,0:0|0:0,0:0:0:0:
28,224,9825,1,2,0:0:0:0:
60,232,9923,1,0,0:0:0:0:
88,240,10020,1,0,0:0:0:0:
124,248,10118,1,0,0:0:0:0:
156,256,10215,2,0,L|276:288,1,110,8|0,0:0|0:0,0:0:0:0:
348,164,10605,2,0,L|455:187,1,110,2|0,0:0|0:0,0:0:0:0:
392,340,10994,5,8,0:0:0:0:
348,164,11189,1,0,0:0:0:0:
504,116,11384,1,2,0:0:0:0:
456,104,11481,1,0,0:0:0:0:
408,92,11579,1,0,0:0:0:0:
360,80,11676,1,0,0:0:0:0:
312,68,11773,2,0,L|222:132,1,110,8|0,0:0|0:0,0:0:0:0:
208,24,12162,1,10,0:0:0:0:
348,164,12357,1,0,0:0:0:0:
224,132,12553,5,8,0:0:0:0:
218,154,12747,1,0,0:0:0:0:
136,56,12942,1,10,0:0:0:0:
80,112,13137,1,0,0:0:0:0:
222,173,13332,1,8,0:0:0:0:
52,268,13527,1,0,0:0:0:0:
52,188,13721,1,10,0:0:0:0:
236,188,13916,1,0,0:0:0:0:
196,352,14110,5,8,0:0:0:0:
52,268,14305,1,0,0:0:0:0:
252,196,14501,1,10,0:0:0:0:
196,352,14695,1,0,0:0:0:0:
392,280,14890,1,2,0:0:0:0:
408,240,14988,1,2,0:0:0:0:
424,204,15085,1,2,0:0:0:0:
440,168,15182,1,2,0:0:0:0:
432,128,15280,1,10,0:0:0:0:
392,144,15377,1,0,0:0:0:0:
352,160,15475,1,2,0:0:0:0:
308,176,15572,1,2,0:0:0:0:
268,200,15669,6,0,L|253:286,1,82.5000031471254,12|0,0:0|0:0,0:0:0:0:
308,176,16059,1,2,0:0:0:0:
178,99,16253,2,0,L|160:193,1,82.5000031471254,0|8,0:0|0:0,0:0:0:0:
224,76,16644,1,0,0:0:0:0:
253,281,16838,2,0,L|268:200,1,82.5000031471254,2|0,0:0|0:0,0:0:0:0:
28,178,17227,6,0,L|43:260,1,82.5000031471254,12|0,0:0|0:0,0:0:0:0:
0,140,17617,1,2,0:0:0:0:
118,77,17812,2,0,L|136:172,1,82.5000031471254,0|8,0:0|0:0,0:0:0:0:
92,36,18202,1,0,0:0:0:0:
43,260,18396,2,0,L|28:178,1,82.5000031471254,2|0,0:0|0:0,0:0:0:0:
118,77,18786,6,0,L|196:40,1,82.5000031471254,8|0,0:0|0:0,0:0:0:0:
348,24,19176,1,2,0:0:0:0:
192,128,19371,2,0,L|272:88,1,82.5000031471254,0|8,0:0|0:0,0:0:0:0:
348,24,19760,1,0,0:0:0:0:
272,173,19955,2,0,L|265:91,1,82.5000031471254,2|0,0:0|0:0,0:0:0:0:
452,36,20344,2,0,L|459:121,1,82.5000031471254,8|0,0:0|0:0,0:0:0:0:
354,64,20733,2,0,L|349:24,2,41.2500015735627,2|0|0,0:0|0:0|0:0,0:0:0:0:
360,92,21026,1,0,0:0:0:0:
364,120,21123,1,8,0:0:0:0:
456,176,21318,2,0,L|480:152,2,20.6250007867813,8|8|8,0:0|0:0|0:0,0:0:0:0:
436,200,21513,2,0,B|452:260,1,55,8|8,0:0|0:0,0:0:0:0:
328,264,21903,6,0,B|304:355,1,82.5000031471254,8|0,0:0|0:0,0:0:0:0:
340,216,22293,1,2,0:0:0:0:
364,120,22487,2,0,B|376:72,2,41.2500015735627,0|8|0,0:0|0:0|0:0,0:0:0:0:
216,168,22877,1,0,0:0:0:0:
248,44,23072,2,0,B|227:124,1,82.5000031471254,2|0,0:0|0:0,0:0:0:0:
68,140,23461,6,0,B|44:49,1,82.5000031471254,8|0,0:0|0:0,0:0:0:0:
80,188,23851,1,2,0:0:0:0:
108,284,24045,2,0,B|120:332,2,41.2500015735627,0|8|0,0:0|0:0|0:0,0:0:0:0:
216,168,24435,1,0,0:0:0:0:
248,292,24630,2,0,B|227:212,1,82.5000031471254,2|0,0:0|0:0,0:0:0:0:
256,108,25020,6,0,B|216:92|216:92|192:124,1,82.5000031471254,8|0,0:0|0:0,0:0:0:0:
336,200,25410,1,2,0:0:0:0:
512,224,25604,2,0,B|488:256|488:256|448:240,1,82.5000031471254,0|8,0:0|0:0,0:0:0:0:
336,200,25994,1,0,0:0:0:0:
256,332,26188,1,2,0:0:0:0:
180,253,26383,6,0,L|164:88,1,153.999995300293,8|2,0:0|0:0,0:0:0:0:
160,64,26871,1,0,0:0:0:0:
196,48,26968,1,2,0:0:0:0:
232,32,27066,1,2,0:0:0:0:
268,20,27163,1,0,0:0:0:0:
304,4,27260,1,2,0:0:0:0:
328,44,27358,1,0,0:0:0:0:
300,84,27455,1,0,0:0:0:0:
272,124,27553,1,8,0:0:0:0:
244,164,27650,1,0,0:0:0:0:
284,196,27747,1,2,0:0:0:0:
336,200,27845,1,2,0:0:0:0:
388,208,27942,1,2,0:0:0:0:
440,212,28040,1,2,0:0:0:0:
468,256,28137,6,0,B|489:291|509:327,1,82.5000031471254,12|0,0:0|0:0,0:0:0:0:
352,272,28527,1,2,0:0:0:0:
234,284,28721,2,0,B|256:320|276:356,1,82.5000031471254,0|8,0:0|0:0,0:0:0:0:
120,296,29111,1,0,0:0:0:0:
287,234,29306,2,0,L|244:164,1,82.5000031471254,2|0,0:0|0:0,0:0:0:0:
479,199,29695,2,0,B|404:232,1,82.5000031471254,8|0,0:0|0:0,0:0:0:0:
484,76,30085,1,2,0:0:0:0:
403,232,30279,1,0,0:0:0:0:
336,20,30474,1,8,0:0:0:0:
244,164,30669,1,0,0:0:0:0:
167,194,30864,2,0,B|244:164,1,82.5000031471254,2|0,0:0|0:0,0:0:0:0:
259,50,31254,6,0,L|181:20,1,82.5000031471254,8|0,0:0|0:0,0:0:0:0:
64,100,31644,1,2,0:0:0:0:
244,164,31838,2,0,L|152:128,1,82.5000031471254,0|8,0:0|0:0,0:0:0:0:
24,88,32228,1,0,0:0:0:0:
182,20,32423,2,0,B|184:112,1,82.5000031471254,2|0,0:0|0:0,0:0:0:0:
104,116,32715,1,0,0:0:0:0:
104,116,32812,2,0,B|104:212,1,82.5000031471254,8|0,0:0|0:0,0:0:0:0:
104,364,33202,1,2,0:0:0:0:
140,336,33299,1,2,0:0:0:0:
176,308,33397,1,2,0:0:0:0:
208,280,33494,1,2,0:0:0:0:
248,296,33592,1,2,0:0:0:0:
288,312,33689,1,2,0:0:0:0:
327,326,33786,1,2,0:0:0:0:
340,332,33981,5,8,0:0:0:0:
476,172,34176,1,8,0:0:0:0:
312,196,34371,6,0,B|344:272,1,65.9999979858399,12|0,0:0|0:0,0:0:0:0:
476,172,34760,1,2,0:0:0:0:
312,196,34955,1,0,0:0:0:0:
288,56,35150,1,8,0:0:0:0:
464,36,35344,1,0,0:0:0:0:
464,36,35442,1,0,0:0:0:0:
464,36,35539,2,0,L|488:104,1,41.2500015735627
408,76,35734,2,0,L|436:168,1,82.5000031471254,8|8,0:0|0:0,0:0:0:0:
324,228,36124,2,0,L|324:144,1,82.5000031471254,0|2,0:0|0:0,0:0:0:0:
200,264,36513,2,0,L|224:185,1,82.5000031471254,0|8,0:0|0:0,0:0:0:0:
76,324,36903,1,0,0:0:0:0:
128,144,37098,1,2,0:0:0:0:
0,204,37293,1,8,0:0:0:0:
0,204,37390,1,0,0:0:0:0:
0,204,37488,6,0,P|12:156|0:108,1,98.9999969787599,8|0,0:0|0:0,0:0:0:0:
92,16,37877,6,0,L|140:16,1,41.2500015735627,2|0,0:0|0:0,0:0:0:0:
193,216,38072,2,0,L|152:216,1,41.2500015735627,8|0,0:0|0:0,0:0:0:0:
281,48,38267,2,0,L|240:48,1,41.2500015735627,8|0,0:0|0:0,0:0:0:0:
353,204,38462,2,0,L|312:204,1,41.2500015735627,8|0,0:0|0:0,0:0:0:0:
388,76,38656,2,0,L|440:76,1,41.2500015735627,8|0,0:0|0:0,0:0:0:0:
497,180,38851,2,0,L|456:180,1,41.2500015735627,8|0,0:0|0:0,0:0:0:0:
512,108,39046,5,2,0:0:0:0:
316,120,39241,1,8,0:0:0:0:
432,272,39436,1,8,0:0:0:0:
236,284,39631,1,10,0:0:0:0:
208,268,39728,1,2,0:0:0:0:
184,251,39825,1,2,0:0:0:0:
157,232,39923,1,2,0:0:0:0:
129,212,40020,1,2,0:0:0:0:
106,196,40118,1,2,0:0:0:0:
79,178,40215,1,2,0:0:0:0:
51,158,40312,1,2,0:0:0:0:
28,141,40410,2,0,L|3:161,3,20.6250007867813,2|2|2|2,0:0|0:0|0:0|0:0,0:0:0:0:
50,125,40605,6,0,L|142:47,1,110,8|0,0:0|0:0,0:0:0:0:
268,68,40994,1,2,0:0:0:0:
316,60,41092,1,0,0:0:0:0:
364,52,41189,1,0,0:0:0:0:
412,44,41286,1,0,0:0:0:0:
460,36,41384,2,0,L|508:172,1,110,8|0,0:0|0:0,0:0:0:0:
464,348,41773,2,0,L|426:235,1,110,2|0,0:0|0:0,0:0:0:0:
412,196,42066,1,0,0:0:0:0:
384,236,42163,5,8,0:0:0:0:
192,336,42358,1,0,0:0:0:0:
196,128,42553,1,2,0:0:0:0:
144,128,42650,1,0,0:0:0:0:
92,128,42747,1,0,0:0:0:0:
40,128,42845,1,0,0:0:0:0:
64,176,42942,2,0,L|144:328,1,165,8|0,0:0|0:0,0:0:0:0:
192,336,43332,1,2,0:0:0:0:
196,128,43527,1,0,0:0:0:0:
388,248,43721,5,8,0:0:0:0:
388,232,43916,1,0,0:0:0:0:
196,180,44111,5,2,0:0:0:0:
196,152,44306,1,0,0:0:0:0:
448,168,44501,5,8,0:0:0:0:
448,104,44695,1,0,0:0:0:0:
136,88,44890,5,2,0:0:0:0:
136,4,45085,1,0,0:0:0:0:
448,104,45280,5,8,0:0:0:0:
388,248,45474,1,0,0:0:0:0:
196,180,45669,1,10,0:0:0:0:
208,4,45864,1,0,0:0:0:0:
404,24,46059,1,2,0:0:0:0:
376,60,46156,1,2,0:0:0:0:
352,96,46254,1,0,0:0:0:0:
328,132,46351,1,8,0:0:0:0:
300,172,46449,1,2,0:0:0:0:
324,220,46546,1,0,0:0:0:0:
344,268,46644,1,0,0:0:0:0:
364,316,46741,1,0,0:0:0:0:
312,308,46838,6,0,L|244:296,1,55
144,328,47033,2,0,L|156:268,1,55
144,236,47228,1,2,0:0:0:0:
132,200,47325,1,0,0:0:0:0:
120,168,47423,1,0,0:0:0:0:
108,136,47520,1,0,0:0:0:0:
68,128,47618,2,0,L|88:8,1,110,8|0,0:0|0:0,0:0:0:0:
207,37,48007,2,0,L|316:56,1,110,2|0,0:0|0:0,0:0:0:0:
200,196,48397,5,8,0:0:0:0:
127,26,48592,1,0,0:0:0:0:
316,56,48786,1,2,0:0:0:0:
360,48,48884,1,0,0:0:0:0:
404,40,48981,1,0,0:0:0:0:
448,32,49079,1,0,0:0:0:0:
492,24,49176,2,0,L|464:200,1,165,8|0,0:0|0:0,0:0:0:0:
460,228,49566,1,2,0:0:0:0:
316,56,49760,1,0,0:0:0:0:
272,208,49955,5,8,0:0:0:0:
412,204,50150,1,0,0:0:0:0:
428,20,50345,1,2,0:0:0:0:
264,116,50540,1,0,0:0:0:0:
456,116,50734,1,8,0:0:0:0:
260,20,50929,1,0,0:0:0:0:
340,204,51124,1,2,0:0:0:0:
428,20,51319,1,0,0:0:0:0:
188,72,51514,5,8,0:0:0:0:
412,204,51708,1,0,0:0:0:0:
212,264,51903,1,2,0:0:0:0:
260,20,52097,1,0,0:0:0:0:
296,156,52293,1,2,0:0:0:0:
264,180,52390,1,2,0:0:0:0:
232,200,52488,1,2,0:0:0:0:
200,220,52585,1,2,0:0:0:0:
152,212,52682,1,2,0:0:0:0:
168,256,52779,1,0,0:0:0:0:
184,300,52877,1,10,0:0:0:0:
200,344,52974,1,0,0:0:0:0:
164,364,53072,6,0,B|280:364,1,110,8|0,0:0|0:0,0:0:0:0:
508,304,53462,2,0,L|455:258,1,55,2|0,0:0|0:0,0:0:0:0:
388,204,53656,2,0,L|448:168,1,55
456,52,53851,2,0,B|304:140,1,165,8|0,0:0|0:0,0:0:0:0:
228,63,54240,2,0,L|312:134,1,110,2|8,0:0|0:0,0:0:0:0:
348,172,54534,1,0,0:0:0:0:
388,204,54631,5,8,0:0:0:0:
212,264,54825,1,0,0:0:0:0:
348,360,55020,1,2,0:0:0:0:
348,312,55117,1,0,0:0:0:0:
348,264,55215,1,0,0:0:0:0:
348,220,55312,1,0,0:0:0:0:
348,172,55410,2,0,B|348:120|348:120|364:88|364:88|364:8,1,165,8|0,0:0|0:0,0:0:0:0:
320,20,55799,1,2,0:0:0:0:
432,140,55994,1,0,0:0:0:0:
272,208,56189,5,8,0:0:0:0:
160,88,56384,1,0,0:0:0:0:
148,284,56579,1,2,0:0:0:0:
272,96,56773,1,0,0:0:0:0:
72,200,56968,1,8,0:0:0:0:
212,368,57163,1,0,0:0:0:0:
208,156,57358,1,2,0:0:0:0:
48,300,57553,1,0,0:0:0:0:
268,304,57747,5,8,0:0:0:0:
259,52,57942,1,0,0:0:0:0:
402,232,58137,1,2,0:0:0:0:
208,156,58332,2,0,L|176:108,1,55
152,68,58527,1,2,0:0:0:0:
116,104,58624,1,2,0:0:0:0:
80,140,58721,1,0,0:0:0:0:
44,184,58819,1,2,0:0:0:0:
96,204,58916,1,2,0:0:0:0:
148,223,59014,1,0,0:0:0:0:
202,238,59111,1,10,0:0:0:0:
255,257,59208,1,0,0:0:0:0:
308,276,59306,6,0,P|266:344|346:346,1,192.5,12|10,0:0|0:0,0:0:0:0:
92,284,60085,1,8,0:0:0:0:
308,166,60474,2,0,L|308:276,1,110,10|0,0:0|0:0,0:0:0:0:
346,95,60864,6,0,P|387:164|308:166,1,192.5,12|10,0:0|0:0,0:0:0:0:
488,224,61643,1,8,0:0:0:0:
307,55,62033,2,0,L|307:165,1,110,10|0,0:0|0:0,0:0:0:0:
224,0,62423,5,8,0:0:0:0:
384,48,62618,1,0,0:0:0:0:
200,148,62812,1,2,0:0:0:0:
304,24,63007,1,0,0:0:0:0:
392,200,63202,1,8,0:0:0:0:
152,200,63396,1,0,0:0:0:0:
224,0,63591,1,2,0:0:0:0:
344,212,63786,1,0,0:0:0:0:
376,248,63884,1,0,0:0:0:0:
408,284,63981,5,10,0:0:0:0:
408,284,64176,1,0,0:0:0:0:
152,200,64371,1,2,0:0:0:0:
152,200,64566,1,0,0:0:0:0:
408,84,64760,1,10,0:0:0:0:
264,236,64955,1,2,0:0:0:0:
184,44,65150,1,0,0:0:0:0:
408,84,65345,2,0,L|460:56,2,55,2|2|2,0:0|0:0|0:0,0:0:0:0:
248,28,65734,6,0,L|175:68,1,82.5000031471254
88,154,66027,2,0,L|96:72,1,82.5000031471254
20,200,66319,2,0,L|55:274,1,82.5000031471254,0|0,0:0|0:0,0:0:0:0:
24,352,66611,1,0,0:0:0:0:
24,352,66708,1,0,0:0:0:0:
140,264,66903,1,0,0:0:0:0:
409,216,67293,6,0,P|441:241|463:275,1,82.5000031471254
362,313,67585,2,0,P|328:335|288:344,1,82.5000031471254
204,211,67877,2,0,B|244:203|282:227,1,82.5000031471254
362,313,68169,1,0,0:0:0:0:
362,313,68267,1,0,0:0:0:0:
340,160,68461,1,0,0:0:0:0:
172,16,68851,6,0,B|184:104,1,82.5000031471254
204,211,69144,2,0,B|164:204|164:204|120:247,1,82.5000031471254
268,140,69435,2,0,B|308:147|308:147|336:112,1,82.5000031471254
264,48,69728,1,0,0:0:0:0:
264,48,69825,1,0,0:0:0:0:
164,140,70020,1,0,0:0:0:0:
275,221,70214,1,0,0:0:0:0:
112,332,70409,5,0,0:0:0:0:
275,221,70605,1,0,0:0:0:0:
275,221,70702,2,0,L|267:139,1,82.5000031471254
88,132,70994,2,0,L|-8:124,1,82.5000031471254
134,233,71286,2,0,L|240:240,1,82.5000031471254,2|0,0:0|0:0,0:0:0:0:
192,328,71579,1,0,0:0:0:0:
275,221,71773,6,0,L|340:140,1,82.5000031471254,12|0,0:0|0:0,0:0:0:0:
340,68,72162,2,0,L|292:56,3,41.2500015735627,2|0|0|0,0:0|0:0|0:0|0:0,0:0:0:0:
260,44,72553,2,0,B|168:16,1,82.5000031471254,8|0,0:0|0:0,0:0:0:0:
88,132,72942,2,0,B|88:40,1,82.5000031471254,2|0,0:0|0:0,0:0:0:0:
340,68,73331,6,0,L|405:149,1,82.5000031471254,12|0,0:0|0:0,0:0:0:0:
405,221,73720,2,0,L|357:233,3,41.2500015735627,2|0|0|0,0:0|0:0|0:0|0:0,0:0:0:0:
325,245,74111,2,0,B|233:273,1,82.5000031471254,8|0,0:0|0:0,0:0:0:0:
164,148,74500,2,0,B|164:232,1,82.5000031471254,2|0,0:0|0:0,0:0:0:0:
204,348,74890,6,0,L|120:348,1,82.5000031471254,8|0,0:0|0:0,0:0:0:0:
308,348,75279,2,0,L|360:348,1,41.2500015735627,2|0,0:0|0:0,0:0:0:0:
396,324,75474,2,0,L|452:324,1,41.2500015735627
484,348,75669,1,8,0:0:0:0:
484,188,75864,2,0,L|412:248,1,82.5000031471254,0|2,0:0|0:0,0:0:0:0:
308,348,76253,1,0,0:0:0:0:
204,221,76449,6,0,B|288:221,1,82.5000031471254,8|0,0:0|0:0,0:0:0:0:
420,80,76838,2,0,L|360:80,1,41.2500015735627,2|0,0:0|0:0,0:0:0:0:
336,108,77033,2,0,L|276:108,1,41.2500015735627
256,80,77228,1,8,0:0:0:0:
116,172,77423,2,0,L|104:137,2,20.6250007867813,8|8|8,0:0|0:0|0:0,0:0:0:0:
124,194,77618,2,0,B|203:220,1,82.5000031471254,8|8,0:0|0:0,0:0:0:0:
268,344,78007,6,0,B|356:292,1,82.5000031471254,8|0,0:0|0:0,0:0:0:0:
468,232,78397,2,0,L|417:262,2,41.2500015735627,2|0|0,0:0|0:0|0:0,0:0:0:0:
448,196,78689,1,0,0:0:0:0:
424,160,78786,1,8,0:0:0:0:
339,302,78981,1,0,0:0:0:0:
185,344,79176,2,0,L|285:344,1,82.5000031471254,2|0,0:0|0:0,0:0:0:0:
260,160,79565,6,0,B|172:212,1,82.5000031471254,8|0,0:0|0:0,0:0:0:0:
60,272,79955,2,0,L|111:242,2,41.2500015735627,2|0|0,0:0|0:0|0:0,0:0:0:0:
80,308,80247,1,0,0:0:0:0:
104,344,80344,1,8,0:0:0:0:
189,202,80539,1,0,0:0:0:0:
343,160,80734,2,0,L|243:160,1,82.5000031471254,2|0,0:0|0:0,0:0:0:0:
64,68,81124,6,0,B|152:68,1,82.5000031471254,8|0,0:0|0:0,0:0:0:0:
148,168,81514,1,2,0:0:0:0:
180,48,81708,2,0,L|278:48,1,82.5000031471254,0|8,0:0|0:0,0:0:0:0:
148,168,82098,1,0,0:0:0:0:
296,24,82293,2,0,L|392:24,1,82.5000031471254,2|0,0:0|0:0,0:0:0:0:
468,68,82585,1,0,0:0:0:0:
468,68,82682,6,0,L|396:120,1,82.5000031471254,8|2,0:0|0:0,0:0:0:0:
364,140,82974,1,0,0:0:0:0:
328,168,83072,1,10,0:0:0:0:
364,192,83169,1,2,0:0:0:0:
400,220,83267,1,0,0:0:0:0:
436,244,83364,1,2,0:0:0:0:
472,264,83462,1,10,0:0:0:0:
432,288,83559,1,0,0:0:0:0:
396,312,83656,1,10,0:0:0:0:
356,336,83754,1,0,0:0:0:0:
308,352,83851,1,10,0:0:0:0:
264,336,83949,1,10,0:0:0:0:
220,352,84046,1,10,0:0:0:0:
176,336,84144,1,10,0:0:0:0:
88,312,84241,6,0,L|144:248,1,82.5000031471254,8|0,0:0|0:0,0:0:0:0:
222,161,84631,1,2,0:0:0:0:
94,45,84825,2,0,L|186:73,1,82.5000031471254,0|8,0:0|0:0,0:0:0:0:
222,161,85215,1,0,0:0:0:0:
26,133,85410,2,0,L|114:145,1,82.5000031471254,2|0,0:0|0:0,0:0:0:0:
404,232,85799,6,0,L|337:166,1,82.5000031471254,8|0,0:0|0:0,0:0:0:0:
222,161,86189,1,2,0:0:0:0:
280,320,86383,1,0,0:0:0:0:
440,140,86578,1,8,0:0:0:0:
208,256,86773,1,0,0:0:0:0:
404,232,86968,2,0,B|492:220,1,82.5000031471254,2|0,0:0|0:0,0:0:0:0:
303,150,87358,6,0,L|222:161,1,82.5000031471254,8|0,0:0|0:0,0:0:0:0:
300,12,87747,1,2,0:0:0:0:
385,141,87942,2,0,L|298:151,1,82.5000031471254,0|8,0:0|0:0,0:0:0:0:
216,20,88332,1,0,0:0:0:0:
143,170,88527,2,0,L|136:88,1,82.5000031471254,2|0,0:0|0:0,0:0:0:0:
72,320,88916,6,0,L|80:228,1,82.5000031471254,8|0,0:0|0:0,0:0:0:0:
216,352,89306,1,2,0:0:0:0:
212,308,89403,1,2,0:0:0:0:
208,264,89501,1,2,0:0:0:0:
204,220,89598,1,2,0:0:0:0:
244,200,89695,1,2,0:0:0:0:
248,156,89793,1,2,0:0:0:0:
252,112,89890,1,2,0:0:0:0:
164,244,90085,1,10,0:0:0:0:
256,64,90280,1,0,0:0:0:0:
380,312,90475,6,0,B|355:269|355:269|357:247|357:247|324:190,1,123.750004720688,12|0,0:0|0:0,0:0:0:0:
288,316,90864,2,0,L|276:364,2,41.2500015735627,2|0|0,0:0|0:0|0:0,0:0:0:0:
432,152,91254,1,8,0:0:0:0:
432,152,91449,2,0,L|444:104,2,41.2500015735627,0|0|2,0:0|0:0|0:0,0:0:0:0:
457,292,91838,2,0,B|416:292|416:292|380:312,1,82.5000031471254,0|8,0:0|0:0,0:0:0:0:
292,148,92227,2,0,B|292:189|292:189|272:225,1,82.5000031471254,0|2,0:0|0:0,0:0:0:0:
106,80,92617,2,0,B|142:60|142:60|183:60,1,82.5000031471254,0|8,0:0|0:0,0:0:0:0:
106,80,93007,1,0,0:0:0:0:
271,225,93202,1,2,0:0:0:0:
32,220,93397,1,8,0:0:0:0:
32,220,93494,1,0,0:0:0:0:
32,220,93592,6,0,B|56:244|56:244|60:260|60:260|92:292,1,82.5000031471254,8|0,0:0|0:0,0:0:0:0:
271,225,93981,1,2,0:0:0:0:
296,350,94176,2,0,L|256:344,1,41.2500015735627
363,270,94371,2,0,L|404:264,1,41.2500015735627,8|0,0:0|0:0,0:0:0:0:
256,184,94566,2,0,L|300:192,1,41.2500015735627
420,112,94760,2,0,L|376:120,1,41.2500015735627,10|0,0:0|0:0,0:0:0:0:
296,36,94955,2,0,L|255:29,1,41.2500015735627
428,0,95150,5,2,0:0:0:0:
256,184,95345,1,10,0:0:0:0:
488,240,95540,1,10,0:0:0:0:
344,100,95734,5,2,0:0:0:0:
300,96,95832,1,2,0:0:0:0:
256,92,95929,1,2,0:0:0:0:
212,88,96027,1,2,0:0:0:0:
168,84,96124,1,2,0:0:0:0:
120,80,96221,1,2,0:0:0:0:
140,132,96319,1,2,0:0:0:0:
160,184,96416,1,2,0:0:0:0:
180,236,96514,2,0,L|208:220,3,20.6250007867813,2|2|2|2,0:0|0:0|0:0|0:0,0:0:0:0:
160,248,96708,6,0,B|208:372,1,110,8|0,0:0|0:0,0:0:0:0:
40,288,97098,1,2,0:0:0:0:
64,248,97195,1,0,0:0:0:0:
88,208,97293,1,0,0:0:0:0:
112,168,97390,1,0,0:0:0:0:
140,132,97488,2,0,B|184:244,1,110,8|0,0:0|0:0,0:0:0:0:
352,312,97877,2,0,L|392:209,1,110,2|0,0:0|0:0,0:0:0:0:
360,180,98169,1,0,0:0:0:0:
332,144,98266,6,0,B|284:268,1,110,8|0,0:0|0:0,0:0:0:0:
452,184,98656,1,2,0:0:0:0:
428,144,98753,1,0,0:0:0:0:
404,104,98851,1,0,0:0:0:0:
380,64,98948,1,0,0:0:0:0:
352,28,99046,2,0,B|308:140,1,110,8|0,0:0|0:0,0:0:0:0:
180,234,99435,2,0,L|139:131,1,110,2|0,0:0|0:0,0:0:0:0:
352,28,99825,5,8,0:0:0:0:
352,28,100020,1,0,0:0:0:0:
139,131,100215,1,2,0:0:0:0:
139,131,100410,1,0,0:0:0:0:
352,28,100605,1,8,0:0:0:0:
139,131,100799,1,0,0:0:0:0:
292,172,100994,1,2,0:0:0:0:
216,16,101189,1,0,0:0:0:0:
200,216,101384,5,8,0:0:0:0:
400,136,101578,1,0,0:0:0:0:
284,272,101773,1,2,0:0:0:0:
160,79,101968,2,0,L|162:25,1,55
124,40,102163,1,2,0:0:0:0:
88,52,102260,1,2,0:0:0:0:
52,68,102358,1,0,0:0:0:0:
16,80,102455,1,8,0:0:0:0:
48,120,102553,1,2,0:0:0:0:
80,160,102650,1,0,0:0:0:0:
112,200,102747,1,2,0:0:0:0:
148,236,102845,1,2,0:0:0:0:
160,284,102942,6,0,L|160:148,1,110,12|0,0:0|0:0,0:0:0:0:
160,128,103234,1,0,0:0:0:0:
204,112,103332,1,2,0:0:0:0:
248,96,103429,1,0,0:0:0:0:
292,80,103527,1,0,0:0:0:0:
336,64,103624,1,0,0:0:0:0:
304,28,103721,2,0,B|376:116,1,110,8|0,0:0|0:0,0:0:0:0:
204,112,104111,2,0,B|280:204,1,110,2|0,0:0|0:0,0:0:0:0:
304,232,104403,1,0,0:0:0:0:
336,268,104501,5,8,0:0:0:0:
336,64,104695,1,0,0:0:0:0:
208,208,104890,1,2,0:0:0:0:
184,244,104988,1,0,0:0:0:0:
160,280,105085,1,0,0:0:0:0:
136,316,105182,1,0,0:0:0:0:
112,352,105280,2,0,B|112:196,1,137.5,8|0,0:0|0:0,0:0:0:0:
220,360,105669,1,2,0:0:0:0:
232,168,105864,1,0,0:0:0:0:
28,192,106059,5,8,0:0:0:0:
232,168,106254,1,0,0:0:0:0:
436,116,106449,1,2,0:0:0:0:
232,128,106644,1,0,0:0:0:0:
28,64,106838,1,8,0:0:0:0:
232,80,107033,1,0,0:0:0:0:
436,0,107228,1,2,0:0:0:0:
232,16,107423,1,0,0:0:0:0:
120,240,107618,5,8,0:0:0:0:
28,64,107812,1,0,0:0:0:0:
232,128,108007,1,2,0:0:0:0:
392,86,108202,2,0,L|340:103,1,55
340,152,108397,1,2,0:0:0:0:
340,200,108494,1,2,0:0:0:0:
340,248,108592,1,2,0:0:0:0:
340,296,108689,1,2,0:0:0:0:
292,292,108786,1,2,0:0:0:0:
244,288,108884,1,0,0:0:0:0:
196,284,108981,1,10,0:0:0:0:
148,280,109079,1,0,0:0:0:0:
76,313,109176,6,0,B|76:200,1,110,8|0,0:0|0:0,0:0:0:0:
308,104,109566,2,0,L|308:168,1,55,2|0,0:0|0:0,0:0:0:0:
372,140,109760,2,0,L|372:196,1,55
436,286,109955,2,0,L|436:176,1,110,8|0,0:0|0:0,0:0:0:0:
204,104,110345,1,2,0:0:0:0:
76,313,110540,1,0,0:0:0:0:
128,289,110637,1,0,0:0:0:0:
180,268,110734,5,8,0:0:0:0:
308,104,110929,1,0,0:0:0:0:
436,286,111123,2,0,L|436:222,1,55,2|0,0:0|0:0,0:0:0:0:
372,250,111317,2,0,L|372:194,1,55
308,104,111512,2,0,L|308:214,1,110,8|0,0:0|0:0,0:0:0:0:
228,352,111903,1,2,0:0:0:0:
132,184,112098,1,0,0:0:0:0:
308,214,112293,5,8,0:0:0:0:
308,214,112488,1,0,0:0:0:0:
460,168,112682,1,2,0:0:0:0:
460,168,112877,1,0,0:0:0:0:
308,214,113072,1,8,0:0:0:0:
412,288,113267,1,0,0:0:0:0:
352,92,113462,1,2,0:0:0:0:
460,168,113656,1,0,0:0:0:0:
312,324,113851,5,8,0:0:0:0:
512,260,114046,1,0,0:0:0:0:
304,144,114241,1,2,0:0:0:0:
504,80,114436,2,0,L|440:64,1,55
328,28,114631,1,2,0:0:0:0:
280,40,114728,1,2,0:0:0:0:
232,52,114825,1,0,0:0:0:0:
188,64,114923,1,2,0:0:0:0:
132,64,115020,1,2,0:0:0:0:
172,104,115118,1,0,0:0:0:0:
212,144,115215,1,10,0:0:0:0:
252,184,115312,1,0,0:0:0:0:
308,184,115410,6,0,L|252:240,1,55,12|0,0:0|0:0,0:0:0:0:
308,260,115605,2,0,L|224:340,1,110,0|2,0:0|0:0,0:0:0:0:
176,336,115897,1,0,0:0:0:0:
124,336,115994,1,0,0:0:0:0:
72,336,116092,1,0,0:0:0:0:
20,336,116189,2,0,L|108:253,1,110,8|0,0:0|0:0,0:0:0:0:
71,170,116481,1,0,0:0:0:0:
71,170,116578,2,0,L|151:94,1,110,2|0,0:0|0:0,0:0:0:0:
224,168,116870,1,0,0:0:0:0:
224,168,116968,6,0,L|280:224,1,55,12|0,0:0|0:0,0:0:0:0:
224,244,117163,2,0,L|308:324,1,110,0|2,0:0|0:0,0:0:0:0:
356,320,117455,1,0,0:0:0:0:
408,320,117552,1,0,0:0:0:0:
460,320,117650,1,0,0:0:0:0:
512,320,117747,2,0,L|424:237,1,110,8|0,0:0|0:0,0:0:0:0:
380,79,118039,1,0,0:0:0:0:
380,79,118137,2,0,L|459:155,1,110,2|0,0:0|0:0,0:0:0:0:
368,40,118527,5,8,0:0:0:0:
496,164,118721,1,0,0:0:0:0:
336,72,118916,1,2,0:0:0:0:
408,276,119111,1,0,0:0:0:0:
292,84,119306,1,8,0:0:0:0:
224,300,119501,1,0,0:0:0:0:
52,156,119695,1,2,0:0:0:0:
244,84,119890,1,0,0:0:0:0:
292,84,119988,1,0,0:0:0:0:
268,44,120085,5,8,0:0:0:0:
52,20,120279,1,0,0:0:0:0:
136,224,120475,1,10,0:0:0:0:
348,188,120669,2,0,L|348:124,1,55,2|2,0:0|0:0,0:0:0:0:
128,112,120864,2,0,L|128:52,1,55,2|2,0:0|0:0,0:0:0:0:
192,188,121059,2,0,L|192:120,1,55,2|2,0:0|0:0,0:0:0:0:
256,268,121254,2,0,L|256:200,1,55,2|2,0:0|0:0,0:0:0:0:
320,348,121449,2,0,L|320:276,1,55,2|2,0:0|0:0,0:0:0:0:
256,188,121643,5,6,0:0:0:0:
256,268,121838,1,8,0:0:0:0:
256,268,122033,1,8,0:0:0:0:
180,156,122228,5,6,0:0:0:0:
388,240,122423,1,8,0:0:0:0:
388,240,122618,1,8,0:0:0:0:
100,172,122812,5,6,0:0:0:0:
384,116,123007,1,8,0:0:0:0:
384,116,123202,1,8,0:0:0:0:
28,136,123397,6,0,B|208:124,1,164.9999949646,6|0,0:0|0:0,0:0:0:0:
256,208,123981,6,0,L|256:228,15,13.75,8|0|0|0|0|0|0|0|0|0|0|0|0|0|0|0,0:0|0:0|0:0|0:0|0:0|0:0|0:0|0:0|0:0|0:0|0:0|0:0|0:0|0:0|0:0|0:0,0:0:0:0:
256,192,124760,5,14,0:0:0:0:
256,192,125344,1,14,0:0:0:0:
256,192,125539,12,0,130214,0:0:0:0:
