osu file format v14

[General]
AudioFilename: NieN - FOR THE IKARUS.mp3
AudioLeadIn: 1500
PreviewTime: 40426
Countdown: 0
SampleSet: None
StackLeniency: 0.5
Mode: 0
LetterboxInBreaks: 1
WidescreenStoryboard: 0

[Editor]
DistanceSpacing: 1.2
BeatDivisor: 4
GridSize: 4
TimelineZoom: 1.8

[Metadata]
Title:For the Ikarus
TitleUnicode:For the Ikarus
Artist:NieN
ArtistUnicode:NieN
Creator:Guu
Version:HD
Source:DJMAX
Tags:
BeatmapID:510978
BeatmapSetID:217909

[Difficulty]
HPDrainRate:6
CircleSize:4
OverallDifficulty:6
ApproachRate:8
SliderMultiplier:1.4
SliderTickRate:1

[Events]
//Background and Video events
0,0,"Ikarus.JPG",0,0
//Break Periods
//Storyboard Layer 0 (Background)
//Storyboard Layer 1 (Fail)
//Storyboard Layer 2 (Pass)
//Storyboard Layer 3 (Foreground)
//Storyboard Sound Samples

[TimingPoints]
85,389.61038961039,4,3,1,60,1,0
85,-83.3333333333333,4,3,1,60,0,0
15669,-100,4,3,1,60,0,0
40604,-100,4,3,1,70,0,1
65344,-83.3333333333333,4,3,1,70,0,1
65539,-111.111111111111,4,3,1,60,0,0
71773,-100,4,3,1,60,0,0
96708,-100,4,3,1,70,0,1
121643,-100,4,3,1,70,0,0
123396,-166.666666666667,4,3,1,70,0,0
123981,-133.333333333333,4,3,1,20,0,0

[Colours]
Combo1 : 165,157,255
Combo2 : 255,236,130
Combo3 : 138,255,223
Combo4 : 255,174,94

[HitObjects]
256,192,85,12,0,2812,0:0:0:0:
380,208,3201,6,0,L|457:241,1,83.9999974365235,8|0,0:0|0:0,0:0:0:0:
432,332,3591,2,0,B|476:348,2,41.9999987182618,2|0|0,0:0|0:0|0:0,0:0:0:0:
340,332,3981,2,0,L|184:268,1,167.999994873047,8|2,0:0|0:0,0:0:0:0:
132,176,4760,2,0,L|54:142,1,83.9999974365235,8|0,0:0|0:0,0:0:0:0:
80,52,5150,2,0,B|36:36,2,41.9999987182618,2|0|0,0:0|0:0|0:0,0:0:0:0:
172,52,5540,2,0,L|328:116,1,167.999994873047,8|2,0:0|0:0,0:0:0:0:
248,280,6318,6,0,B|194:256|194:256|166:152,1,167.999994873047,8|2,0:0|0:0,0:0:0:0:
252,188,6903,2,0,B|316:220|316:220|344:332,1,167.999994873047,8|0,0:0|0:0,0:0:0:0:
428,344,7487,2,0,L|400:248,1,83.9999974365235,2|0,0:0|0:0,0:0:0:0:
480,204,7877,2,0,L|456:112,1,83.9999974365235,8|0,0:0|0:0,0:0:0:0:
368,112,8266,2,0,L|328:28,1,83.9999974365235,2|0,0:0|0:0,0:0:0:0:
240,52,8656,2,0,L|204:20,2,41.9999987182618,10|2|2,0:0|0:0|0:0,0:0:0:0:
156,92,9046,2,0,P|112:96|68:88,1,83.9999974365235,2|0,0:0|0:0,0:0:0:0:
40,176,9435,6,0,P|72:200|88:260,1,83.9999974365235,8|0,0:0|0:0,0:0:0:0:
116,328,9825,2,0,B|88:380,2,41.9999987182618,2|0|0,0:0|0:0|0:0,0:0:0:0:
172,256,10214,2,0,L|252:100,1,167.999994873047,8|2,0:0|0:0,0:0:0:0:
260,292,10994,6,0,L|308:368,1,83.9999974365235,8|0,0:0|0:0,0:0:0:0:
376,304,11384,2,0,B|424:348,2,41.9999987182618,2|0|0,0:0|0:0|0:0,0:0:0:0:
412,216,11773,2,0,P|452:148|404:68,1,167.999994873047,8|2,0:0|0:0,0:0:0:0:
190,88,12552,6,0,B|168:172|168:172|198:247,1,167.999994873047,8|2,0:0|0:0,0:0:0:0:
112,288,13136,2,0,B|81:210|81:210|-3:158,1,167.999994873047,8|0,0:0|0:0,0:0:0:0:
4,260,13721,2,0,L|44:352,1,83.9999974365235,2|0,0:0|0:0,0:0:0:0:
120,372,14110,2,0,P|159:356|189:320,1,83.9999974365235,8|0,0:0|0:0,0:0:0:0:
276,348,14500,2,0,P|285:309|269:265,1,83.9999974365235,2|0,0:0|0:0,0:0:0:0:
232,188,14890,2,0,P|213:204|203:231,3,41.9999987182618,10|2|2|0,0:0|0:0|0:0|0:0,0:0:0:0:
180,264,15279,2,0,B|184:220|184:220|180:180,1,83.9999974365235,2|0,0:0|0:0,0:0:0:0:
124,120,15669,6,0,B|127:81|127:81|148:40,2,70,12|0|2,0:0|0:0|0:0,0:0:0:0:
208,108,16253,2,0,B|216:148|216:148|236:180,2,70,0|8|0,0:0|0:0|0:0,0:0:0:0:
220,24,16838,2,0,L|312:40,1,70,2|0,0:0|0:0,0:0:0:0:
372,96,17227,2,0,B|404:84|404:84|448:84,2,70,8|0|2,0:0|0:0|0:0,0:0:0:0:
420,164,17812,2,0,B|384:176|384:176|336:172,2,70,0|8|0,0:0|0:0|0:0,0:0:0:0:
500,140,18396,2,0,L|496:220,1,70,2|0,0:0|0:0,0:0:0:0:
488,308,18786,6,0,B|420:336,2,70,8|0|2,0:0|0:0|0:0,0:0:0:0:
424,248,19370,2,0,L|352:248,1,70,0|8,0:0|0:0,0:0:0:0:
268,248,19760,1,0,0:0:0:0:
268,248,19955,2,0,P|236:260|200:288,1,70,2|0,0:0|0:0,0:0:0:0:
168,208,20344,6,0,P|143:233|120:280,1,70,8|0,0:0|0:0,0:0:0:0:
44,288,20734,2,0,P|63:319|106:348,1,70,2|0,0:0|0:0,0:0:0:0:
172,332,21123,1,8,0:0:0:0:
172,332,21318,2,0,L|148:296,1,35,8|8,0:0|0:0,0:0:0:0:
126,262,21513,2,0,P|136:228|132:188,1,70,8|8,0:0|0:0,0:0:0:0:
52,100,21903,6,0,P|44:132|52:172,1,70,8|0,0:0|0:0,0:0:0:0:
108,32,22292,1,2,0:0:0:0:
148,112,22487,2,0,B|180:96|180:96|219:92,1,70,0|8,0:0|0:0,0:0:0:0:
300,92,22877,1,0,0:0:0:0:
384,88,23072,2,0,B|380:120|380:120|360:151,1,70,2|0,0:0|0:0,0:0:0:0:
214,92,23461,2,0,B|215:54|248:24,2,70,8|0|2,0:0|0:0|0:0,0:0:0:0:
360,151,24240,2,0,B|383:121|383:87,2,70,8|0|2,0:0|0:0|0:0,0:0:0:0:
312,60,24825,1,0,0:0:0:0:
312,60,25020,6,0,B|252:204,2,140,8|2|8,0:0|0:0|0:0,0:0:0:0:
356,220,26188,1,2,0:0:0:0:
440,220,26383,6,0,B|404:288|404:288|336:328,1,140,0|2,0:0|0:0,0:0:0:0:
286,375,26968,1,2,0:0:0:0:
287,375,27065,2,0,B|259:346|266:301,1,70,2|0,0:0|0:0,0:0:0:0:
248,228,27357,2,0,P|216:240|192:272,1,70,2|8,0:0|0:0,0:0:0:0:
112,288,27747,2,0,L|112:248,3,35,2|2|2|2,0:0|0:0|0:0|0:0,0:0:0:0:
112,204,28136,6,0,B|104:168|104:168|112:136,1,70,12|0,0:0|0:0,0:0:0:0:
36,196,28526,1,2,0:0:0:0:
36,196,28721,2,0,B|0:124,2,70,0|8|0,0:0|0:0|0:0,0:0:0:0:
84,124,29305,2,0,B|84:88|108:52,1,70,2|0,0:0|0:0,0:0:0:0:
176,140,29695,2,0,B|212:140|212:140|244:124,1,70,8|0,0:0|0:0,0:0:0:0:
284,60,30085,1,2,0:0:0:0:
327,131,30279,2,0,B|292:200,2,70,0|8|0,0:0|0:0|0:0,0:0:0:0:
408,92,30864,1,2,0:0:0:0:
364,16,31059,1,0,0:0:0:0:
284,60,31253,6,0,P|248:72|208:68,2,70,8|0|2,0:0|0:0|0:0,0:0:0:0:
364,16,31838,1,0,0:0:0:0:
456,20,32033,2,0,P|492:92|464:156,1,140,8|2,0:0|0:0,0:0:0:0:
416,216,32617,2,0,B|352:192|352:192|272:204,1,140,8|2,0:0|0:0,0:0:0:0:
228,140,33201,2,0,P|212:168|200:204,1,70,8|2,0:0|0:0,0:0:0:0:
200,248,33494,1,2,0:0:0:0:
200,248,33591,2,0,L|208:296,2,35,2|2|2,0:0|0:0|0:0,0:0:0:0:
120,276,33981,1,2,0:0:0:0:
92,196,34175,1,8,0:0:0:0:
172,168,34370,6,0,B|204:168|204:168|220:132|220:132|256:192|256:192|288:168|288:168|392:168|392:168,1,280,12|8,0:0|0:0,0:0:0:0:
352,92,35344,1,0,0:0:0:0:
460,128,35539,1,2,0:0:0:0:
352,92,35734,6,0,P|368:56|400:32,1,70,8|0,0:0|0:0,0:0:0:0:
460,128,36123,2,0,P|440:168|412:188,1,70,2|0,0:0|0:0,0:0:0:0:
352,92,36513,2,0,P|336:60|300:32,1,70,0|8,0:0|0:0,0:0:0:0:
222,158,36903,2,0,P|251:140|272:112,1,70,0|2,0:0|0:0,0:0:0:0:
196,80,37292,1,2,0:0:0:0:
196,80,37390,1,2,0:0:0:0:
196,80,37487,6,0,B|148:64|148:64|64:100|64:100,1,140,8|2,0:0|0:0,0:0:0:0:
49,183,38072,1,0,0:0:0:0:
35,266,38267,1,8,0:0:0:0:
99,320,38462,1,0,0:0:0:0:
178,291,38657,1,2,0:0:0:0:
192,209,38852,1,0,0:0:0:0:
128,156,39046,5,2,0:0:0:0:
178,291,39240,1,10,0:0:0:0:
35,266,39435,1,10,0:0:0:0:
128,156,39630,1,10,0:0:0:0:
272,180,39825,6,0,L|324:188,3,35,2|2|0|0,0:0|0:0|0:0|0:0,0:0:0:0:
356,132,40214,2,0,L|376:168,3,35,2|2|0|0,0:0|0:0|0:0|0:0,0:0:0:0:
456,152,40604,6,0,L|432:232,1,70,12|0,0:0|0:0,0:0:0:0:
468,296,40994,2,0,B|496:276,2,35,2|0|0,0:0|0:0|0:0,0:0:0:0:
384,288,41383,2,0,B|342:281|342:281|324:304|324:304|244:294,1,140,8|2,0:0|0:0,0:0:0:0:
240,128,42162,6,0,L|264:208,1,70,8|0,0:0|0:0,0:0:0:0:
208,260,42552,2,0,B|236:280,2,35,2|0|0,0:0|0:0|0:0,0:0:0:0:
176,184,42942,2,0,B|134:191|134:191|116:168|116:168|36:178,1,140,8|2,0:0|0:0,0:0:0:0:
40,344,43721,5,8,0:0:0:0:
40,344,43916,2,0,P|51:305|70:275,1,70,0|2,0:0|0:0,0:0:0:0:
148,260,44305,1,0,0:0:0:0:
228,240,44500,1,8,0:0:0:0:
228,240,44695,2,0,P|217:201|198:171,1,70,0|2,0:0|0:0,0:0:0:0:
144,116,45085,1,0,0:0:0:0:
100,44,45279,6,0,L|24:36,1,70,8|0,0:0|0:0,0:0:0:0:
184,44,45669,2,0,L|264:36,1,70,2|0,0:0|0:0,0:0:0:0:
336,20,46059,2,0,L|352:50,3,35,2|2|0|0,0:0|0:0|0:0|0:0,0:0:0:0:
344,92,46448,2,0,L|264:100,1,70,2|0,0:0|0:0,0:0:0:0:
272,184,46838,6,0,L|304:264,1,70,12|0,0:0|0:0,0:0:0:0:
364,176,47227,2,0,L|364:224,2,35,2|0|0,0:0|0:0|0:0,0:0:0:0:
448,192,47617,2,0,B|448:240|448:240|428:264|428:264|432:340,1,140,8|2,0:0|0:0,0:0:0:0:
352,352,48396,6,0,L|320:272,1,70,8|0,0:0|0:0,0:0:0:0:
244,304,48785,2,0,L|244:256,2,35,2|0|0,0:0|0:0|0:0,0:0:0:0:
160,282,49175,2,0,B|160:234|160:234|180:210|180:210|176:134,1,140,8|2,0:0|0:0,0:0:0:0:
244,100,49955,6,0,L|328:64,1,70,8|0,0:0|0:0,0:0:0:0:
388,40,50344,1,2,0:0:0:0:
332,104,50539,1,0,0:0:0:0:
280,168,50734,2,0,L|356:188,1,70,8|0,0:0|0:0,0:0:0:0:
428,208,51123,1,2,0:0:0:0:
348,228,51318,1,0,0:0:0:0:
268,248,51513,6,0,P|272:288|284:324,1,70,8|0,0:0|0:0,0:0:0:0:
200,180,51903,2,0,P|196:140|184:104,1,70,2|0,0:0|0:0,0:0:0:0:
148,36,52292,2,0,L|108:72,3,35,2|2|0|0,0:0|0:0|0:0|0:0,0:0:0:0:
92,92,52682,2,0,P|94:126|104:160,1,70,2|0,0:0|0:0,0:0:0:0:
124,244,53072,6,0,L|82:318,2,70,12|0|2,0:0|0:0|0:0,0:0:0:0:
188,300,53656,1,0,0:0:0:0:
188,300,53753,1,0,0:0:0:0:
188,300,53851,2,0,B|229:315|229:315|248:309|248:309|323:336,1,140,8|2,0:0|0:0,0:0:0:0:
476,276,54630,6,0,L|518:350,2,70,8|0|2,0:0|0:0|0:0,0:0:0:0:
436,204,55214,1,0,0:0:0:0:
436,204,55312,1,0,0:0:0:0:
436,204,55409,2,0,B|394:189|394:189|375:195|375:195|292:168,1,140,8|2,0:0|0:0,0:0:0:0:
168,60,56188,6,0,L|248:20,1,70,8|0,0:0|0:0,0:0:0:0:
396,80,56578,2,0,L|334:33,1,70,2|0,0:0|0:0,0:0:0:0:
168,60,56968,2,0,L|99:49,1,70,8|0,0:0|0:0,0:0:0:0:
231,113,57357,2,0,L|256:185,1,70,2|0,0:0|0:0,0:0:0:0:
160,159,57747,5,8,0:0:0:0:
231,113,57942,1,0,0:0:0:0:
313,107,58137,1,2,0:0:0:0:
388,147,58332,1,0,0:0:0:0:
312,204,58526,2,0,L|260:224,3,35,2|2|0|0,0:0|0:0|0:0|0:0,0:0:0:0:
244,244,58916,2,0,P|232:280|236:328,1,70,2|0,0:0|0:0,0:0:0:0:
305,288,59305,6,0,B|372:272|372:272|392:196,1,140,12|2,0:0|0:0,0:0:0:0:
256,348,60085,1,8,0:0:0:0:
160,244,60474,2,0,B|184:312,1,70,2|0,0:0|0:0,0:0:0:0:
206,175,60864,6,0,B|140:160|140:160|122:91,1,140,12|2,0:0|0:0,0:0:0:0:
256,236,61643,1,8,0:0:0:0:
352,132,62033,2,0,B|324:208,1,70,2|0,0:0|0:0,0:0:0:0:
276,96,62422,6,0,L|200:88,1,70,8|0,0:0|0:0,0:0:0:0:
140,108,62812,2,0,L|212:88,1,70,2|0,0:0|0:0,0:0:0:0:
153,26,63201,2,0,L|81:46,1,70,8|0,0:0|0:0,0:0:0:0:
248,16,63591,2,0,L|324:24,1,70,2|0,0:0|0:0,0:0:0:0:
396,56,63981,5,10,0:0:0:0:
476,28,64175,1,0,0:0:0:0:
476,112,64370,1,2,0:0:0:0:
396,140,64565,1,0,0:0:0:0:
320,112,64760,1,10,0:0:0:0:
380,224,64955,1,2,0:0:0:0:
252,180,65149,1,2,0:0:0:0:
312,292,65344,2,0,B|352:368,1,83.9999974365235,2|0,0:0|0:0,0:0:0:0:
404,312,65734,6,0,L|452:252,1,62.9999980773926
456,228,66026,2,0,L|500:172,1,62.9999980773926
472,148,66318,2,0,B|432:88,1,62.9999980773926
404,76,66610,1,0,0:0:0:0:
404,76,66903,2,0,L|372:20,1,62.9999980773926
300,40,67292,6,0,P|272:54|250:77,1,62.9999980773926
228,108,67585,2,0,P|252:129|267:156,1,62.9999980773926
280,192,67877,2,0,P|263:218|255:248,1,62.9999980773926
248,288,68169,1,0,0:0:0:0:
372,324,68461,1,0,0:0:0:0:
140,324,68851,6,0,L|92:264,1,62.9999980773926
88,240,69143,2,0,L|44:184,1,62.9999980773926
72,160,69435,2,0,B|112:100,1,62.9999980773926
140,88,69727,1,0,0:0:0:0:
140,88,70020,2,0,L|172:32,1,62.9999980773926
200,140,70409,6,0,L|256:80,1,62.9999980773926
272,68,70702,2,0,P|288:94|296:124,1,62.9999980773926
328,148,70994,2,0,P|359:138|391:138,1,62.9999980773926
372,212,71286,1,0,0:0:0:0:
228,240,71578,1,0,0:0:0:0:
296,288,71773,6,0,P|272:312|220:324,1,70,8|0,0:0|0:0,0:0:0:0:
156,324,72162,2,0,L|136:368,3,35,2|0|0|0,0:0|0:0|0:0|0:0,0:0:0:0:
112,324,72552,2,0,L|100:240,1,70,8|0,0:0|0:0,0:0:0:0:
32,208,72942,2,0,L|20:292,1,70,2|0,0:0|0:0,0:0:0:0:
102,255,73331,2,0,P|126:231|178:219,1,70,8|0,0:0|0:0,0:0:0:0:
242,219,73720,2,0,L|262:175,3,35,2|0|0|0,0:0|0:0|0:0|0:0,0:0:0:0:
286,219,74110,2,0,L|298:303,1,70,8|0,0:0|0:0,0:0:0:0:
366,335,74500,2,0,L|378:251,1,70,2|0,0:0|0:0,0:0:0:0:
448,312,74890,5,8,0:0:0:0:
488,240,75085,1,0,0:0:0:0:
416,200,75279,2,0,L|400:148,3,35,2|0|0|0,0:0|0:0|0:0|0:0,0:0:0:0:
392,128,75669,1,8,0:0:0:0:
472,104,75864,2,0,P|456:72|416:48,1,70,0|2,0:0|0:0,0:0:0:0:
352,20,76253,1,0,0:0:0:0:
316,96,76448,5,8,0:0:0:0:
392,128,76643,1,0,0:0:0:0:
304,180,76838,2,0,P|264:164|240:132,1,70,2|0,0:0|0:0,0:0:0:0:
224,108,77130,1,0,0:0:0:0:
204,144,77227,2,0,L|156:220,1,70
144,240,77617,2,0,P|176:256|200:296,1,70,8|8,0:0|0:0,0:0:0:0:
120,324,78007,5,8,0:0:0:0:
70,254,78201,1,0,0:0:0:0:
136,220,78396,2,0,L|80:188,3,35,2|0|0|0,0:0|0:0|0:0|0:0,0:0:0:0:
64,184,78786,2,0,L|57:114,1,70,8|0,0:0|0:0,0:0:0:0:
52,32,79175,2,0,L|132:48,1,70,2|0,0:0|0:0,0:0:0:0:
128,128,79565,5,8,0:0:0:0:
208,148,79759,1,0,0:0:0:0:
204,64,79955,2,0,L|256:80,3,35,2|0|0|0,0:0|0:0|0:0|0:0,0:0:0:0:
280,72,80344,2,0,L|286:2,1,70,8|0,0:0|0:0,0:0:0:0:
364,36,80733,1,2,0:0:0:0:
364,36,80734,2,0,L|356:116,1,70,2|0,0:0|0:0,0:0:0:0:
384,200,81123,6,0,B|448:168|448:168|472:100,2,140,8|2|8,0:0|0:0|0:0,0:0:0:0:
480,356,82292,1,2,0:0:0:0:
480,356,82487,6,0,P|416:340|364:280,1,140,8|2,0:0|0:0,0:0:0:0:
284,272,83072,2,0,L|248:236,1,35,2|2,0:0|0:0,0:0:0:0:
204,308,83364,2,0,L|164:284,1,35,2|2,0:0|0:0,0:0:0:0:
104,336,83656,1,10,0:0:0:0:
76,256,83851,2,0,L|124:248,3,35,10|10|10|10,0:0|0:0|0:0|0:0,0:0:0:0:
140,244,84240,6,0,L|176:180,1,70,12|0,0:0|0:0,0:0:0:0:
216,112,84630,1,2,0:0:0:0:
136,84,84825,1,0,0:0:0:0:
136,85,85020,2,0,L|188:32,1,70,8|0,0:0|0:0,0:0:0:0:
216,112,85409,2,0,L|176:184,1,70,2|0,0:0|0:0,0:0:0:0:
260,200,85799,6,0,L|208:253,1,70,8|0,0:0|0:0,0:0:0:0:
132,272,86188,1,2,0:0:0:0:
104,192,86383,1,0,0:0:0:0:
48,252,86578,1,8,0:0:0:0:
48,251,86773,2,0,P|47:286|60:319,1,70,0|2,0:0|0:0,0:0:0:0:
132,272,87162,1,0,0:0:0:0:
212,250,87357,6,0,L|270:297,2,70,8|0|2,0:0|0:0|0:0,0:0:0:0:
192,332,87942,1,0,0:0:0:0:
84,344,88137,2,0,P|52:276|76:208,1,140,8|2,0:0|0:0,0:0:0:0:
126,119,88721,6,0,B|136:156|136:156|196:168|196:168|208:208,1,140,8|2,0:0|0:0,0:0:0:0:
312,252,89305,2,0,P|312:216|316:176,1,70,8|2,0:0|0:0,0:0:0:0:
312,136,89598,1,2,0:0:0:0:
312,136,89695,2,0,L|304:88,2,35,2|2|2,0:0|0:0|0:0,0:0:0:0:
392,108,90085,1,2,0:0:0:0:
420,188,90279,1,8,0:0:0:0:
340,216,90474,6,0,B|304:224|276:244|276:244|296:272|308:304|308:304|276:328|248:340|248:340|220:316|208:280|208:280,1,280,12|8,0:0|0:0,0:0:0:0:
208,281,91448,1,0,0:0:0:0:
180,204,91643,1,2,0:0:0:0:
160,292,91838,6,0,P|136:340|88:368,1,105,8|0,0:0|0:0,0:0:0:0:
52,256,92227,2,0,P|76:208|124:180,1,105,2|0,0:0|0:0,0:0:0:0:
187,228,92617,2,0,P|170:258|159:303,1,70,0|8,0:0|0:0,0:0:0:0:
240,288,93007,1,0,0:0:0:0:
204,364,93201,1,2,0:0:0:0:
296,352,93396,1,2,0:0:0:0:
296,352,93494,1,2,0:0:0:0:
296,352,93591,6,0,B|372:356|372:356|384:288,1,140,10|2,0:0|0:0,0:0:0:0:
438,229,94176,1,0,0:0:0:0:
424,146,94371,1,8,0:0:0:0:
351,106,94566,1,0,0:0:0:0:
273,138,94761,1,2,0:0:0:0:
250,219,94956,1,0,0:0:0:0:
299,287,95150,5,2,0:0:0:0:
273,138,95344,1,10,0:0:0:0:
424,146,95539,1,10,0:0:0:0:
383,293,95734,1,10,0:0:0:0:
250,219,95929,6,0,L|198:211,3,35,2|2|0|0,0:0|0:0|0:0|0:0,0:0:0:0:
156,264,96318,2,0,L|136:228,3,35,2|2|0|0,0:0|0:0|0:0|0:0,0:0:0:0:
56,232,96708,6,0,L|80:152,1,70,12|0,0:0|0:0,0:0:0:0:
44,88,97098,2,0,B|16:108,2,35,2|0|0,0:0|0:0|0:0,0:0:0:0:
128,100,97487,2,0,B|161:87|161:87|169:53|169:53|244:26,1,140,8|2,0:0|0:0,0:0:0:0:
304,84,98266,6,0,P|276:108|236:116,1,70,12|0,0:0|0:0,0:0:0:0:
312,168,98656,2,0,L|312:208,2,35,2|0|0,0:0|0:0|0:0,0:0:0:0:
304,84,99046,2,0,B|337:71|337:71|365:92|365:92|440:65,1,140,8|2,0:0|0:0,0:0:0:0:
431,69,99825,5,8,0:0:0:0:
504,108,100020,2,0,P|476:136|444:152,1,70,0|2,0:0|0:0,0:0:0:0:
368,172,100409,1,0,0:0:0:0:
292,136,100604,1,8,0:0:0:0:
368,172,100799,2,0,P|379:211|398:241,1,70,0|2,0:0|0:0,0:0:0:0:
460,292,101188,1,0,0:0:0:0:
412,364,101383,6,0,L|488:372,1,70,8|0,0:0|0:0,0:0:0:0:
328,364,101773,2,0,L|248:372,1,70,2|0,0:0|0:0,0:0:0:0:
236,288,102163,2,0,L|196:292,3,35,2|2|0|0,0:0|0:0|0:0|0:0,0:0:0:0:
180,328,102552,2,0,L|96:335,1,70,2|0,0:0|0:0,0:0:0:0:
64,266,102942,6,0,L|68:336,1,70,12|0,0:0|0:0,0:0:0:0:
88,184,103331,2,0,L|88:136,2,35,2|0|0,0:0|0:0|0:0,0:0:0:0:
172,196,103721,2,0,B|176:160|176:160|200:136|200:136|208:56,1,140,8|2,0:0|0:0,0:0:0:0:
328,104,104500,6,0,L|336:34,1,70,12|0,0:0|0:0,0:0:0:0:
345,187,104889,2,0,L|341:234,2,35,2|0|0,0:0|0:0|0:0,0:0:0:0:
429,181,105279,2,0,B|430:217|430:217|452:242|452:242|455:323,1,140,8|2,0:0|0:0,0:0:0:0:
343,363,106059,6,0,L|408:336,1,70,8|0,0:0|0:0,0:0:0:0:
348,280,106448,1,2,0:0:0:0:
360,196,106643,1,0,0:0:0:0:
355,112,106838,2,0,L|420:140,1,70,8|0,0:0|0:0,0:0:0:0:
360,196,107227,1,2,0:0:0:0:
372,280,107422,1,0,0:0:0:0:
292,252,107617,6,0,P|288:212|276:176,1,70,8|0,0:0|0:0,0:0:0:0:
196,200,108007,2,0,P|200:160|212:124,1,70,2|0,0:0|0:0,0:0:0:0:
248,56,108396,2,0,L|288:20,3,35,2|2|0|0,0:0|0:0|0:0|0:0,0:0:0:0:
316,32,108786,2,0,P|350:30|384:20,1,70,2|0,0:0|0:0,0:0:0:0:
396,100,109176,6,0,P|380:131|371:165,2,70,12|0|2,0:0|0:0|0:0,0:0:0:0:
456,160,109760,1,0,0:0:0:0:
456,160,109857,1,0,0:0:0:0:
456,160,109955,2,0,B|414:145|414:145|404:128|404:128|329:100,1,140,8|2,0:0|0:0,0:0:0:0:
124,132,110734,6,0,P|139:100|148:66,2,70,12|0|2,0:0|0:0|0:0,0:0:0:0:
64,72,111318,1,0,0:0:0:0:
64,72,111415,1,0,0:0:0:0:
64,72,111513,2,0,B|105:86|105:86|115:103|115:103|190:131,1,140,8|2,0:0|0:0,0:0:0:0:
268,160,112292,5,8,0:0:0:0:
347,189,112487,1,0,0:0:0:0:
318,267,112682,1,2,0:0:0:0:
239,239,112877,1,0,0:0:0:0:
268,160,113072,1,8,0:0:0:0:
203,95,113267,1,0,0:0:0:0:
139,159,113462,1,2,0:0:0:0:
203,224,113656,1,0,0:0:0:0:
268,160,113851,6,0,L|355:160,1,70,8|0,0:0|0:0,0:0:0:0:
412,233,114240,2,0,L|343:234,1,70,2|0,0:0|0:0,0:0:0:0:
268,160,114630,2,0,L|300:124,3,35,2|2|0|0,0:0|0:0|0:0|0:0,0:0:0:0:
358,151,115020,2,0,P|357:116|343:85,1,70,2|0,0:0|0:0,0:0:0:0:
328,48,115409,6,0,B|192:88,1,140,12|2,0:0|0:0,0:0:0:0:
193,87,116189,1,8,0:0:0:0:
33,81,116578,2,0,B|52:60|52:60|92:48,1,70,2|0,0:0|0:0,0:0:0:0:
108,156,116968,6,0,B|244:196,1,140,12|2,0:0|0:0,0:0:0:0:
243,195,117748,1,8,0:0:0:0:
402,189,118137,2,0,B|384:168|384:168|344:156,1,70,2|0,0:0|0:0,0:0:0:0:
336,248,118526,6,0,L|396:304,1,70,12|0,0:0|0:0,0:0:0:0:
303,327,118916,2,0,L|252:280,1,70,2|0,0:0|0:0,0:0:0:0:
116,268,119305,2,0,L|168:316,1,70,8|0,0:0|0:0,0:0:0:0:
84,348,119695,2,0,L|24:292,1,70,2|0,0:0|0:0,0:0:0:0:
116,268,120085,5,12,0:0:0:0:
192,232,120279,1,0,0:0:0:0:
227,308,120474,1,2,0:0:0:0:
152,343,120669,1,0,0:0:0:0:
228,308,120864,5,10,0:0:0:0:
272,180,121059,1,2,0:0:0:0:
152,144,121253,1,2,0:0:0:0:
116,268,121448,1,0,0:0:0:0:
152,144,121643,5,6,0:0:0:0:
192,232,121838,2,8,L|152:148,1,70,8|0,0:0|0:0,0:0:0:0:
192,156,122227,5,6,0:0:0:0:
376,211,122422,2,0,L|302:188,1,70,8|8,0:0|0:0,0:0:0:0:
232,168,122812,5,6,0:0:0:0:
382,24,123007,2,0,L|321:86,1,70,8|8,0:0|0:0,0:0:0:0:
272,180,123396,6,0,B|252:92,1,83.9999974365235,6|0,0:0|0:0,0:0:0:0:
148,20,123981,6,0,L|96:180,1,157.500006008148,8|0,0:0|0:0,0:0:0:0:
88,208,124760,1,6,0:0:0:0:
84,220,125344,5,6,0:0:0:0:
256,192,125539,12,0,130215,0:0:0:0:
