osu file format v5

[General]
AudioFilename: 23. NieN - Chrono Breakers.mp3
AudioLeadIn: 0
PreviewTime: -1
Countdown: 1
SampleSet: Normal
StackLeniency: 0.7
Mode: 0
LetterboxInBreaks: 1

[Metadata]
Title:Chrono Breakers
Artist:NieN
Creator:Cyclone
Version:Normal
Source:DJMAX
Tags:

[Difficulty]
HPDrainRate:3
CircleSize:4
OverallDifficulty:5
SliderMultiplier:1
SliderTickRate:0.5

[Events]
//Background and Video events
0,0,"Chrono Breakers NM.JPG"
1,0,"Chrono Breakers.avi"
//Break Periods
2,83775,90970
//Storyboard Layer 0 (Background)
//Storyboard Layer 1 (Failing)
//Storyboard Layer 2 (Passing)
//Storyboard Layer 3 (Foreground)
//Storyboard Sound Samples
//Background Colour Transformations
3,100,163,162,255

[TimingPoints]
6047,337.078651685393,4,1,0,100,1

[HitObjects]
88,336,5715,1,0
184,336,6048,2,0,B|184:184,1,150,0|8
184,32,7058,1,0
280,32,7395,2,0,B|440:32,1,150,0|8
432,280,8743,6,0,B|256:280,1,150,0|8
184,312,9586,1,0
136,312,9754,1,0
40,344,10091,2,0,B|40:192,1,150,0|8
48,40,11103,5,0
120,104,11440,2,0,B|296:104,1,150,0|8
392,192,12451,1,0
328,272,12788,2,0,B|160:272,1,150,0|8
48,192,13799,1,0
144,192,14136,6,0,B|312:192,1,150,0|8
400,192,14979,1,0
440,192,15148,1,0
440,288,15485,1,0
352,240,15822,2,8,B|280:240,2,50
408,88,16833,5,4
248,88,17507,1,0
200,88,17844,1,0
152,88,18181,1,0
152,184,18855,1,0
200,184,19193,1,0
248,184,19530,1,2
336,136,20204,1,2
384,136,20541,1,0
432,136,20878,1,0
432,336,22226,5,2
328,336,22900,1,0
280,336,23238,1,0
232,336,23575,1,0
184,336,23912,1,0
136,336,24249,1,0
88,336,24586,1,0
40,336,24923,2,2,B|40:192|144:72|312:80,1,400
488,80,27620,5,2
424,160,28294,1,0
392,200,28631,1,0
360,240,28968,1,0
288,312,29642,1,0
248,280,29979,1,0
208,248,30316,1,2
264,168,30990,1,0
296,128,31327,1,0
264,88,31664,1,0
64,88,33013,5,2
64,184,33687,1,0
104,208,34024,1,0
152,224,34361,1,0
200,224,34698,1,0
248,208,35035,1,0
288,184,35372,1,0
256,192,35709,12,4,38575
256,192,39754,5,4
152,120,40597,1,0
88,72,41103,1,4
88,168,41777,1,0
88,216,42114,1,0
88,264,42451,2,2,B|80:304|264:352|408:256|416:144,1,400,2|6
480,24,44811,5,0
480,24,45148,1,4
480,176,46159,1,0
480,224,46496,1,4
480,320,47170,1,4
432,320,47507,1,0
384,320,47844,1,4
256,192,48181,12,0,50709
48,192,51889,5,4
200,192,52900,1,0
248,192,53238,1,0
248,344,54249,1,0
248,296,54586,1,4
248,248,54923,1,0
248,200,55260,1,0
248,152,55597,1,0
248,104,55934,1,4
400,104,56945,5,0
448,104,57282,1,4
448,280,58462,2,0,B|384:280,1,50,0|4
344,280,58968,1,0
296,264,59305,1,0
264,224,59642,1,0
256,176,59979,1,0
256,192,60316,12,4,61833
40,336,62676,5,8
192,336,63687,1,8
240,336,64024,1,8
352,240,65035,1,0
320,200,65372,1,8
272,176,65709,1,0
224,176,66046,1,8
176,200,66384,1,8
152,240,66721,2,0,B|264:240,1,100
400,240,68069,5,4
400,88,69080,1,0
400,88,69249,1,0
400,88,69417,1,4
200,88,70766,1,4
304,160,71608,1,0
304,240,72114,1,4
304,288,72451,2,8,B|304:360,3,50
224,336,73462,5,4
224,136,74811,1,0
224,208,75316,1,0
224,208,75485,1,0
320,208,76159,1,0
392,208,76664,1,8
416,168,77002,1,0
416,120,77339,1,0
392,72,77676,1,0
352,48,78013,1,8
352,48,78181,1,0
144,40,79361,5,8
144,136,79867,1,0
144,136,80204,1,0
240,136,80709,1,8
240,232,81215,1,0
240,232,81552,1,0
144,232,82058,1,8
144,328,82563,1,0
144,328,82900,1,0
88,328,83238,1,8
88,328,83406,1,8
88,328,83575,1,8
256,192,92170,5,4
184,120,92844,2,2,B|336:120,1,150
336,192,93855,2,2,B|168:192,1,150
88,192,95035,1,4
88,264,95541,5,8
184,264,96046,1,0
184,264,96384,1,0
184,168,96889,1,8
280,168,97395,1,0
280,168,97732,1,0
280,264,98238,1,8
376,264,98743,1,0
376,264,99080,1,0
376,168,99586,1,8
376,96,100091,5,0
376,96,100429,1,4
256,24,101440,1,0
256,24,101777,1,4
256,224,103125,1,4
256,320,103799,1,0
208,320,104136,1,0
160,320,104473,2,4,B|160:104,1,200
232,48,105822,5,8
304,48,106327,1,0
352,48,106664,1,0
352,120,107170,5,8
352,192,107676,1,0
352,240,108013,1,0
352,312,108518,5,8
248,312,109193,1,8
200,312,109530,1,0
152,312,109867,1,8
80,128,111215,5,8
152,128,111721,1,0
200,128,112058,1,0
272,128,112563,1,8
272,200,113069,1,0
272,200,113238,1,0
272,248,113575,1,0
272,296,113912,1,8
256,192,114080,12,0,115766
256,192,116608,12,0,118462
192,96,118968,6,2,B|312:96,2,100
192,248,120653,2,2,B|192:352,1,100
344,344,122002,5,4
344,192,123013,1,0
344,192,123181,1,0
344,192,123350,1,4
144,192,124698,1,4
232,96,125541,1,0
304,96,126046,1,4
256,192,126215,12,4,127395
