osu file format v8

[General]
AudioFilename: DJMAX Technika2 - NB Rangers (Nonstop Remix) NieN (Remixed by Paul Bazooka).mp3
AudioLeadIn: 0
PreviewTime: 67657
Countdown: 0
SampleSet: Normal
StackLeniency: 0.7
Mode: 0
LetterboxInBreaks: 1

[Editor]
Bookmarks: 18166,31878,43876,52446,67872,120238,156238,169536,190292,200671,211049
DistanceSpacing: 0.7
BeatDivisor: 2
GridSize: 8

[Metadata]
Title:NB Rangers (Nonstop Remix)
Artist:NieN (Remixed by Paul Bazooka)
Creator:DJNightmare
Version:Ranger Emdyion
Source:DJMAX
Tags:DJ MAX

[Difficulty]
HPDrainRate:6
CircleSize:4
OverallDifficulty:5
ApproachRate:4
SliderMultiplier:1.7
SliderTickRate:2

[Events]
//Background and Video events
0,0,"10153Z9A53 copy.jpg"
//Break Periods
2,45790,51554
2,102133,104256
2,112655,118918
2,151573,155080
//Storyboard Layer 0 (Background)
//Storyboard Layer 1 (Fail)
//Storyboard Layer 2 (Pass)
//Storyboard Layer 3 (Foreground)
//Storyboard Sound Samples
//Background Colour Transformations
3,100,255,0,0

[TimingPoints]
4455,428.494911622924,4,1,0,100,1,0
18166,-100,4,1,0,100,0,1
31825,-100,4,1,0,100,0,0
31878,-100,4,1,0,100,0,1
31932,-100,4,1,0,100,0,0
67443,-100,4,2,0,0,0,0
67871,856.989823245849,4,1,0,100,1,0
68514,-200,4,2,0,100,0,0
79654,-100,4,1,0,100,0,0
79868,428.479611511819,4,1,0,100,1,0
81581,-100,4,1,0,100,0,1
95293,-100,4,1,0,100,0,0
112455,324.324324324324,4,1,0,100,1,0
112455,-200,4,1,0,100,0,0
120238,-100,4,1,0,100,0,0
140995,-100,4,1,0,100,0,1
151373,-100,4,1,0,100,0,0
169536,-100,4,1,0,100,0,1
183644,-100,4,2,0,0,0,1
184941,-100,4,1,0,100,0,1
190130,-100,4,1,0,100,0,0
190292,-100,4,1,0,100,0,1
200509,-100,4,1,0,100,0,0
200671,-100,4,1,0,100,0,1
200833,-100,4,1,0,100,0,0
215914,648.648648648649,4,1,0,100,1,0
215914,-200,4,1,0,100,0,0
215995,-200,4,2,0,0,0,0
216562,-200,4,1,0,100,0,0

[Colours]
Combo1 : 0,0,160
Combo2 : 236,0,6
Combo3 : 249,255,4
Combo4 : 0,236,6
Combo5 : 0,0,0

[HitObjects]
256,192,4455,5,4
136,192,4883,1,8
376,192,5740,5,8
376,72,6168,1,0
256,72,6597,1,8
256,312,7454,5,8
136,312,7882,1,4
376,312,8739,5,0
376,192,9168,1,8
376,72,9596,1,0
136,72,10453,5,0
136,192,10882,1,8
256,192,11310,6,0,B|256:280,1,85,4|0
224,328,11739,2,0,B|128:328,1,85,8|0
112,280,12167,2,0,B|112:176,1,85
144,144,12596,1,8
256,192,13024,6,0,B|256:280,1,85,4|0
288,328,13453,2,0,B|384:328,1,85,8|0
400,280,13881,2,0,B|400:176,1,85
368,144,14310,1,8
344,32,14738,6,0,B|168:32,1,170,4|8
176,152,15595,2,0,B|368:152,1,170,4|8
456,192,16452,5,4
360,264,16881,1,12
256,328,17309,1,4
152,264,17738,1,12
56,192,18166,6,0,B|56:48|216:48,2,170,4|8|0
176,192,19452,1,2
296,192,19880,2,0,B|296:336|136:336,2,170,0|8|0
256,80,21166,2,0,B|256:-15,2,85,8|0|4
376,80,22023,5,8
136,80,22880,1,8
256,80,23308,6,0,B|336:152,1,85,0|2
256,136,23737,2,0,B|176:208,1,85,8|2
256,200,24165,2,0,B|336:272,1,85,0|2
376,280,24594,1,8
456,192,25022,6,0,B|456:48|296:48,2,170,4|8|0
336,192,26308,1,2
216,192,26736,2,0,B|216:336|376:336,2,170,0|8|0
256,80,28022,2,0,B|256:-15,2,85,8|0|4
136,80,28879,5,8
376,80,29736,1,8
256,80,30164,6,0,B|176:152,1,85,0|2
256,136,30593,2,0,B|336:208,1,85,8|2
256,200,31021,2,0,B|176:272,1,85,0|2
136,280,31450,1,8
104,168,31878,6,0,B|104:40,9,127.5,4|2|0|2|0|2|0|2|0|6
192,40,35092,5,0
192,40,35306,2,0,B|192:168,9,127.5,4|2|0|2|0|2|0|2|0|6
280,168,38520,5,0
280,168,38734,2,0,B|280:8,3,127.5,4|2|0|2
368,40,40020,2,0,B|368:200,3,127.5,0|2|0|2
456,168,41305,2,0,B|456:24,2,127.5,0|6|0
456,224,42162,6,0,B|456:360,1,127.5,4|2
368,352,42805,2,0,B|368:216,1,127.5,0|2
280,224,43448,2,0,B|280:360,1,127.5,0|2
192,352,44090,2,0,B|192:216,1,127.5,0|2
104,224,44733,2,0,B|104:360,1,127.5,0|6
16,352,45376,2,0,B|16:248,1,85,0|4
256,48,52874,5,8
448,192,53731,1,8
256,328,54588,1,8
64,192,55445,1,8
184,192,55874,1,0
128,88,56302,5,8
368,88,57159,1,8
368,328,58016,1,8
128,328,58873,1,8
48,240,59302,6,0,B|48:144,3,85,0|2|8|2
104,160,60159,2,0,B|104:256,3,85,0|2|8|2
160,248,61016,2,0,B|160:152,3,85,0|2|8|2
216,168,61873,2,0,B|216:264,2,85,0|2|12
464,240,62730,6,0,B|464:144,3,85,0|2|8|2
408,160,63587,2,0,B|408:256,3,85,0|2|8|2
352,248,64444,2,0,B|352:152,3,85,0|2|8|2
296,168,65301,2,0,B|296:264,2,85,0|2|12
256,192,66158,12,4,67872
40,144,69586,6,0,B|128:128,1,85,2|8
192,80,71299,2,0,B|336:80,1,127.5,4|2
376,168,73012,2,0,B|480:152,1,85,4|6
464,288,74726,6,0,B|328:288,1,127.5,4|0
288,224,76440,2,0,B|216:224,1,63.75,2|0
216,272,77297,2,0,B|136:272,1,63.75,2|0
144,328,78154,2,0,B|-31:328,1,170,2|4
40,224,80296,5,4
144,176,80724,1,4
256,128,81153,1,4
368,176,81581,6,0,B|488:112|336:32,3,170,6|8|0|8
256,96,83295,2,0,B|72:96,3,170,2|8|2|8
144,208,85009,6,0,B|24:272|176:352,3,170,6|8|0|8
256,288,86723,2,0,B|440:288,3,170,2|8|2|8
472,176,88437,6,0,B|472:64|352:64,3,170,2|8|0|8
256,112,90151,1,2
141,64,90579,2,0,B|40:64|40:176,2,170,8|2|8
256,192,91865,12,4,94436
128,352,95293,6,0,B|384:352,1,255,4|8
320,248,96364,1,2
200,248,96792,1,8
176,128,97221,2,0,B|256:72|352:136,3,170,2|8|2|12
96,152,99363,6,0,B|96:40|224:40,1,170,8|2
320,40,100220,2,0,B|423:38|423:150,1,170,8|2
384,320,101291,2,0,B|120:320,1,255,8|4
128,32,105576,6,0,B|416:32,1,255,4|8
312,128,106647,1,2
192,128,107076,1,12
136,152,107290,5,4
192,256,107719,1,4
312,256,108147,1,4
376,152,108576,1,4
256,192,109004,12,4,112455
256,32,120238,5,4
136,168,120725,6,8,B|136:352,1,170
256,336,121373,2,8,B|256:144,1,170
376,168,122022,2,8,B|376:352,2,170,8|8|12
256,166,122995,6,8,B|256:336,1,170
136,338,123643,2,8,B|136:168,1,170,8|12
8,40,124454,6,0,B|360:40,1,340,4|2
348,40,125265,1,4
256,192,125427,12,8,126725
368,288,127049,5,8
480,224,127373,1,8
368,192,127698,1,8
256,224,128022,2,0,B|80:224,1,170,4|2
88,104,128671,5,8
184,32,128995,1,8
256,128,129319,1,8
328,32,129644,1,8
424,104,129968,1,8
488,336,130617,5,4
24,240,131914,5,8
488,144,133211,5,0
24,32,134509,5,8
376,352,135806,5,4
136,352,136454,1,0
360,272,137103,5,4
120,272,137752,1,0
256,192,138400,12,4,140346
32,128,140995,6,0,B|256:0|256:0|512:144,1,510,4|2
480,248,142292,2,0,B|256:376|256:376|0:232,1,510,0|2
128,176,143590,6,0,B|408:176,2,255,0|8|2
88,64,144887,2,0,B|440:64,1,340,0|2
336,136,145860,1,8
256,224,146184,6,0,B|280:408|8:368,2,340,4|2|4
144,192,147806,1,0
256,144,148130,1,8
368,192,148454,1,0
256,224,148779,6,0,B|232:408|504:368,2,340,4|2|4
368,192,150401,1,0
256,144,150725,1,8
144,192,151049,1,0
24,192,151373,5,4
256,192,156400,12,0,158833
256,32,159157,5,4
80,192,159806,1,0
256,352,160454,1,0
432,192,161103,1,0
256,32,161752,6,0,B|72:80,1,170,4|0
96,192,162400,2,0,B|144:376,1,170
256,352,163049,6,0,B|440:304,1,170,4|0
416,192,163698,2,0,B|368:8,1,170,0|0
256,32,164346,5,4
168,112,164671,1,0
80,192,164995,5,4
168,272,165319,1,0
256,352,165643,5,4
344,272,165968,1,0
432,192,166292,5,4
344,112,166617,1,0
256,192,166941,12,4,169536
256,192,170184,5,8
48,72,170833,2,0,B|48:344,1,255,0|2
144,256,171644,1,2
144,136,171968,1,6
256,192,172779,5,8
464,72,173428,2,0,B|464:344,1,255,0|2
368,256,174239,1,2
368,136,174563,1,6
88,32,175373,6,0,B|0:192|88:360,1,340,8|0
256,288,176509,1,2
320,184,176833,1,2
192,184,177157,1,6
424,32,177968,6,0,B|512:192|424:360,1,340,8|0
256,288,179104,1,2
192,184,179428,1,2
320,184,179752,1,6
192,304,180238,5,0
72,304,180562,1,8
136,200,180886,1,0
376,200,181536,5,0
432,304,181860,1,8
312,304,182184,1,4
160,120,182833,5,0
256,48,183157,1,8
352,120,183482,1,0
256,184,183806,2,0,B|256:360,3,170,0|0|8|0
376,352,185103,5,4
480,296,185427,1,0
360,272,185752,1,8
464,216,186076,1,0
136,352,186725,5,0
32,296,187049,1,8
152,272,187374,1,0
48,216,187698,1,4
256,192,188022,12,4,189644
256,192,190292,6,0,B|48:368,2,255,4|8|0
256,192,191590,2,0,B|256:8,2,170,0|0|2
256,192,192563,1,2
256,192,192887,2,0,B|464:368,2,255,4|8|0
152,128,194184,5,2
256,72,194509,1,0
360,128,194833,1,8
464,272,195319,2,0,B|24:272,1,425,6|2
128,192,196454,5,2
192,96,196779,1,4
312,96,197103,1,2
384,192,197427,1,4
312,288,197752,1,2
192,288,198076,1,4
256,192,198400,12,4,200671
24,40,200995,5,2
144,40,201319,1,8
264,40,201644,1,2
80,192,202292,5,2
200,192,202617,1,8
320,192,202941,1,2
136,344,203590,5,2
256,344,203914,1,8
376,344,204238,1,2
136,344,204887,5,2
256,344,205211,1,8
376,344,205535,1,6
192,192,206184,5,2
312,192,206508,1,8
432,192,206833,1,2
248,40,207481,5,2
368,40,207806,1,8
488,40,208130,1,2
256,192,208454,12,0,210400
40,16,211049,6,0,B|320:16,1,255,2|10
480,16,212022,1,2
480,136,212346,6,0,B|200:136,1,255,2|10
40,136,213319,1,2
40,256,213644,6,0,B|320:256,1,255,2|8
480,256,214617,1,0
480,376,214941,6,0,B|200:376,1,255,0|8
40,376,215914,2,0,B|40:256,1,85,0|4
