osu file format v14

[General]
AudioFilename: 09. Shuuen no Claudia.mp3
AudioLeadIn: 0
PreviewTime: 73761
Countdown: 0
SampleSet: None
StackLeniency: 0.7
Mode: 0
LetterboxInBreaks: 0
WidescreenStoryboard: 0

[Editor]
Bookmarks: 10194,23166,33545,43923,54302,64680,75058,85437,95815
DistanceSpacing: 1
BeatDivisor: 4
GridSize: 4
TimelineZoom: 3.099999

[Metadata]
Title:Shuuen no Claudia
TitleUnicode:終焔のClaudia
Artist:Nidaime Suzaku
ArtistUnicode:二代目朱雀
Creator:Nerova Riuz GX
Version:VerdeT DeS KriegeS
Source:REFLEC BEAT colette -Autumn-
Tags:DJ TOTTO Yoshihiro Tagawa Feuerrote Phonix konami bemani verdet des krieges plus 2nd generation
BeatmapID:669336
BeatmapSetID:298234

[Difficulty]
HPDrainRate:7.5
CircleSize:4
OverallDifficulty:8
ApproachRate:9.5
SliderMultiplier:1.8
SliderTickRate:1

[Events]
//Background and Video events
0,0,"ShuuennoClaudiaBG.jpg",0,0
//Break Periods
//Storyboard Layer 0 (Background)
//Storyboard Layer 1 (Fail)
//Storyboard Layer 2 (Pass)
//Storyboard Layer 3 (Foreground)
//Storyboard Sound Samples

[TimingPoints]
530,324.324324324324,3,3,1,100,1,0
530,-100,3,3,1,50,0,0
4421,-133.333333333333,3,3,1,50,0,0
5394,352.941176470588,3,3,1,50,1,0
5394,-133.333333333333,3,3,1,50,0,0
5746,375,3,3,1,50,1,0
6121,428.571428571429,3,3,1,50,1,0
6549,500,3,3,1,50,1,0
6549,-133.333333333333,3,3,1,50,0,0
7049,545.454545454546,3,3,1,50,1,0
7594,600,3,3,1,50,1,0
8194,666.666666666667,3,3,1,50,1,0
8194,-200,3,3,1,50,0,0
10194,324.324324324324,4,3,1,100,1,0
10194,-100,4,3,1,100,0,0
20572,-100,4,3,2,100,0,0
20612,-100,4,3,1,100,0,0
23166,-133.333333333333,4,3,1,100,0,0
27869,-100,4,3,1,100,0,0
28356,-100,4,3,1,100,0,0
41329,-100,4,3,2,100,0,0
41369,-100,4,3,1,100,0,0
43923,-80,4,3,1,100,0,1
54302,-100,4,3,1,50,0,0
62085,-66.6666666666667,4,3,1,50,0,0
62410,-71.4285714285714,4,3,1,50,0,0
62734,-76.9230769230769,4,3,1,50,0,0
63058,-83.3333333333333,4,3,1,50,0,0
63383,-100,4,3,1,50,0,0
64031,-83.3333333333333,4,3,1,50,0,0
64680,-100,4,3,2,50,0,0
64721,-100,4,3,1,100,0,0
72788,-66.6666666666667,4,3,1,100,0,0
73761,-66.6666666666667,4,3,2,100,0,0
73802,-66.6666666666667,4,3,1,100,0,0
75058,-66.6666666666667,4,3,1,100,0,1
82842,-55.5555555555556,4,3,1,100,0,1
84136,-66.6666666666667,4,3,1,100,0,1
93383,-100,4,3,1,100,0,1
95166,-83.3333333333333,4,3,1,100,0,1
95815,-83.3333333333333,4,3,2,100,0,1
95856,-83.3333333333333,4,3,1,100,0,0
97761,-66.6666666666667,4,3,1,100,0,0
101004,-66.6666666666667,4,3,2,100,0,0
101045,-66.6666666666667,4,3,1,100,0,0
104572,-55.5555555555556,4,3,1,100,0,0
105058,-50,4,3,1,100,0,0
106518,-55.5555555555556,4,3,2,100,0,0
106599,-55.5555555555556,4,3,2,5,0,0

[HitObjects]
72,128,530,6,0,P|116:196|216:172,1,180
239,137,1016,1,0,0:0:0:0:
299,125,1178,1,0,0:0:0:0:
353,151,1340,1,0,0:0:0:0:
382,204,1502,6,0,P|392:292|312:344,1,180
180,312,2151,1,0,0:0:0:0:
64,216,2475,6,0,P|32:148|76:56,1,180
224,120,3124,1,0,0:0:0:0:
292,272,3448,6,0,P|364:304|444:244,1,180
473,198,3935,1,0,0:0:0:0:
478,138,4097,1,0,0:0:0:0:
453,82,4259,1,0,0:0:0:0:
404,46,4421,6,0,P|309:85|298:115,1,135.000005149842
299,150,4908,1,0,0:0:0:0:
279,189,5070,1,0,0:0:0:0:
244,215,5232,1,0,0:0:0:0:
204,232,5394,6,0,P|120:220|84:180,1,135.000005149842
168,100,6121,1,0,0:0:0:0:
304,320,6549,6,0,P|376:296|408:232,1,135.000005149842
368,128,7594,1,0,0:0:0:0:
196,88,7894,1,0,0:0:0:0:
196,88,8044,1,0,0:0:0:0:
196,88,8194,6,0,B|150:212|57:186|57:186|78:164|109:162,1,247.5
256,192,10194,5,4,0:0:0:0:
256,192,10275,12,0,11815,0:0:0:0:
160,128,12139,6,0,L|88:88,2,60
352,128,12464,2,0,L|424:88,2,60
256,224,12788,5,4,0:0:0:0:
256,192,12869,12,0,14410,0:0:0:0:
176,152,14734,5,0,0:0:0:0:
170,210,14842,1,0,0:0:0:0:
201,260,14950,1,0,0:0:0:0:
256,280,15058,2,0,L|340:268,2,60
256,192,15383,5,4,0:0:0:0:
256,192,15464,12,0,17004,0:0:0:0:
312,136,17329,6,0,P|368:104|400:108,2,60
200,248,17653,2,0,P|144:280|112:276,2,60
256,192,17977,5,4,0:0:0:0:
358,336,18302,2,0,P|403:335|444:316,2,90
112,296,18950,1,0,0:0:0:0:
51,63,19275,5,4,0:0:0:0:
108,48,19383,1,0,0:0:0:0:
163,70,19491,1,0,0:0:0:0:
196,118,19599,1,0,0:0:0:0:
223,172,19707,1,0,0:0:0:0:
275,198,19815,1,0,0:0:0:0:
331,181,19923,5,0,0:0:0:0:
385,158,20031,1,0,0:0:0:0:
441,174,20139,1,0,0:0:0:0:
475,223,20247,1,0,0:0:0:0:
470,281,20355,1,0,0:0:0:0:
430,324,20463,1,0,0:0:0:0:
372,332,20571,5,4,0:0:0:0:
256,192,20653,12,0,21545,0:0:0:0:
100,216,21869,6,0,P|156:128|316:184,1,270
412,169,22518,2,0,P|331:267|211:227,1,270
300,156,23166,5,4,0:0:0:0:
64,228,23491,1,0,0:0:0:0:
64,228,23653,2,0,P|84:296|164:308,1,135.000005149842
232,248,24139,2,0,P|288:236|356:280,1,135.000005149842
428,352,24626,2,0,P|476:300|456:216,1,135.000005149842
424,136,25112,1,0,0:0:0:0:
424,136,25275,1,0,0:0:0:0:
324,84,25437,1,0,0:0:0:0:
324,84,25599,1,0,0:0:0:0:
300,192,25761,6,0,P|232:232|168:208,1,135.000005149842,4|0,0:0|0:0,0:0:0:0:
144,52,26248,2,0,P|212:90|223:158,1,135.000005149842
100,256,26735,2,0,P|99:177|152:133,1,135.000005149842
300,192,27221,2,0,P|368:212|432:188,1,135.000005149842
364,104,27707,1,0,0:0:0:0:
364,104,27869,2,4,L|352:64,4,22.5
200,144,28193,1,0,0:0:0:0:
300,192,28356,6,0,P|392:216|400:324,1,180,6|0,0:0|0:0,0:0:0:0:
292,316,28842,2,0,P|209:340|147:280,1,180
216,180,29329,2,0,P|224:112|144:32,1,180
128,132,29815,1,0,0:0:0:0:
128,132,29977,2,0,L|316:64,1,180
428,88,30464,2,0,P|480:112|496:152,1,90
400,256,30788,1,0,0:0:0:0:
248,268,30950,6,0,P|164:300|80:248,1,180,4|0,0:0|0:0,0:0:0:0:
32,96,31437,2,0,P|116:64|200:116,1,180
248,268,31923,2,0,P|280:328|408:328,1,180
256,192,32329,12,0,33383,0:0:0:0:
136,112,33545,5,6,0:0:0:0:
151,128,33626,1,0,0:0:0:0:
171,139,33707,1,8,0:0:0:0:
193,143,33788,1,0,0:0:0:0:
215,141,33869,1,4,0:0:0:0:
380,116,34031,5,8,0:0:0:0:
412,109,34112,1,0,0:0:0:0:
444,120,34193,1,4,0:0:0:0:
466,145,34274,1,0,0:0:0:0:
474,177,34355,1,8,0:0:0:0:
424,320,34518,5,4,0:0:0:0:
386,343,34599,1,0,0:0:0:0:
342,352,34680,1,8,0:0:0:0:
298,344,34761,1,0,0:0:0:0:
260,320,34842,6,0,P|204:280|164:280,1,90,4|8,0:0|0:0,0:0:0:0:
44,220,35166,1,4,0:0:0:0:
256,160,35329,1,8,0:0:0:0:
116,72,35491,2,0,L|36:140,2,90,4|8|4,0:0|0:0|0:0,0:0:0:0:
288,32,35977,1,8,0:0:0:0:
451,86,36139,5,6,0:0:0:0:
472,112,36220,1,0,0:0:0:0:
484,144,36301,1,8,0:0:0:0:
484,177,36382,1,0,0:0:0:0:
474,209,36464,1,4,0:0:0:0:
400,340,36626,5,8,0:0:0:0:
362,318,36707,1,0,0:0:0:0:
318,308,36788,1,4,0:0:0:0:
273,313,36869,1,0,0:0:0:0:
232,331,36950,1,8,0:0:0:0:
80,336,37112,5,4,0:0:0:0:
47,290,37193,1,0,0:0:0:0:
34,236,37274,1,8,0:0:0:0:
43,181,37355,1,0,0:0:0:0:
72,133,37437,6,0,P|117:137|157:118,1,90,4|8,0:0|0:0,0:0:0:0:
272,55,37761,2,0,P|312:38|354:52,1,90,4|8,0:0|0:0,0:0:0:0:
471,182,38085,5,4,0:0:0:0:
444,244,38166,1,0,0:0:0:0:
416,305,38248,2,4,L|404:344,4,22.5,12|4|4|4|4,0:0|0:0|0:0|0:0|0:0,0:0:0:0:
74,92,38572,2,4,L|48:76,1,22.5,12|4,0:0|0:0,0:0:0:0:
88,76,38653,2,4,L|61:59,1,22.5
102,57,38734,5,6,0:0:0:0:
145,43,38815,1,0,0:0:0:0:
189,43,38896,1,12,0:0:0:0:
232,58,38977,1,0,0:0:0:0:
267,85,39058,2,0,L|288:136,1,45,4|0,0:0|0:0,0:0:0:0:
469,73,39221,5,12,0:0:0:0:
480,128,39302,1,0,0:0:0:0:
467,182,39383,1,4,0:0:0:0:
434,227,39464,1,0,0:0:0:0:
386,255,39545,2,0,L|345:273,1,45,12|0,0:0|0:0,0:0:0:0:
43,311,39707,5,4,0:0:0:0:
32,256,39788,1,0,0:0:0:0:
45,202,39869,1,12,0:0:0:0:
78,157,39950,1,0,0:0:0:0:
126,129,40031,6,0,L|166:110,1,45,6|0,0:0|0:0,0:0:0:0:
388,96,40193,2,0,L|347:114,1,45,12|0,0:0|0:0,0:0:0:0:
88,260,40356,2,0,L|128:241,1,45,4|0,0:0|0:0,0:0:0:0:
350,227,40518,2,0,L|309:245,1,45,12|0,0:0|0:0,0:0:0:0:
165,37,40680,2,0,L|183:78,1,45,4|0,0:0|0:0,0:0:0:0:
232,344,40842,2,0,L|213:303,1,45,12|0,0:0|0:0,0:0:0:0:
388,96,41004,2,0,L|362:132,1,45,4|0,0:0|0:0,0:0:0:0:
88,260,41166,2,0,L|113:223,1,45,12|0,0:0|0:0,0:0:0:0:
368,320,41329,5,6,0:0:0:0:
368,320,41410,1,0,0:0:0:0:
368,320,41491,2,4,L|392:340,4,22.5,12|4|4|4|4,0:0|0:0|0:0|0:0|0:0,0:0:0:0:
444,156,41815,2,4,L|468:176,4,22.5,14|4|4|4|4,0:0|0:0|0:0|0:0|0:0,0:0:0:0:
128,100,42139,1,8,0:0:0:0:
128,100,42221,1,0,0:0:0:0:
128,100,42302,2,4,L|110:85,8,22.5,6|4|4|4|12|4|4|4|4,0:0|0:0|0:0|0:0|0:0|0:0|0:0|0:0|0:0,0:0:0:0:
278,189,42788,5,14,0:0:0:0:
128,280,42950,1,4,0:0:0:0:
288,56,43112,5,12,0:0:0:0:
339,51,43193,1,4,0:0:0:0:
388,65,43274,1,6,0:0:0:0:
430,96,43355,1,4,0:0:0:0:
458,139,43437,6,4,L|488:128,1,22.5,12|4,0:0|0:0,0:0:0:0:
468,189,43518,2,4,L|504:188,1,22.5
461,240,43598,1,6,0:0:0:0:
435,285,43679,1,4,0:0:0:0:
396,318,43761,2,4,L|416:348,1,22.5,12|4,0:0|0:0,0:0:0:0:
347,335,43842,2,4,L|356:376,1,22.5
296,333,43922,5,6,0:0:0:0:
116,100,44085,1,0,0:0:0:0:
32,220,44248,2,0,P|100:264|168:228,1,112.5,4|0,0:0|0:0,0:0:0:0:
360,216,44572,1,4,0:0:0:0:
208,40,44734,1,0,0:0:0:0:
128,260,44896,1,4,0:0:0:0:
376,64,45058,6,0,P|468:72|500:116,1,112.5,0|4,0:0|0:0,0:0:0:0:
440,336,45383,1,0,0:0:0:0:
352,80,45545,1,4,0:0:0:0:
32,208,45707,2,0,P|72:284|120:312,1,112.5,0|4,0:0|0:0,0:0:0:0:
216,344,46031,1,0,0:0:0:0:
348,236,46193,1,4,0:0:0:0:
480,128,46356,1,4,0:0:0:0:
480,128,46437,1,4,0:0:0:0:
480,128,46518,6,0,P|436:80|364:56,1,112.5,4|0,0:0|0:0,0:0:0:0:
56,204,46842,2,0,P|100:252|172:276,1,112.5,4|0,0:0|0:0,0:0:0:0:
224,56,47166,1,4,0:0:0:0:
224,328,47329,1,0,0:0:0:0:
480,128,47491,1,4,0:0:0:0:
460,116,47653,2,0,P|406:102|351:115,1,112.5,0|4,0:0|0:0,0:0:0:0:
88,328,47977,6,0,P|141:341|196:328,1,112.5,0|4,0:0|0:0,0:0:0:0:
360,288,48302,1,0,0:0:0:0:
312,88,48464,1,4,0:0:0:0:
476,32,48626,1,0,0:0:0:0:
340,224,48788,1,4,0:0:0:0:
298,261,48869,1,4,0:0:0:0:
245,279,48950,1,4,0:0:0:0:
190,274,49031,1,4,0:0:0:0:
140,248,49112,6,0,P|88:188|84:108,1,112.5,4|0,0:0|0:0,0:0:0:0:
276,32,49437,2,0,P|328:92|332:172,1,112.5,4|0,0:0|0:0,0:0:0:0:
352,340,49761,1,4,0:0:0:0:
140,248,49923,1,0,0:0:0:0:
332,120,50085,1,4,0:0:0:0:
40,40,50248,2,0,P|64:112|128:156,1,112.5,0|4,0:0|0:0,0:0:0:0:
368,232,50572,5,0,0:0:0:0:
208,328,50734,1,4,0:0:0:0:
152,48,50896,2,0,P|205:32|258:47,1,112.5,0|4,0:0|0:0,0:0:0:0:
376,56,51221,1,0,0:0:0:0:
224,184,51384,1,4,0:0:0:0:
72,312,51545,1,4,0:0:0:0:
72,312,51626,1,4,0:0:0:0:
72,312,51707,6,0,P|125:326|178:311,1,112.5,4|0,0:0|0:0,0:0:0:0:
360,120,52031,2,0,P|306:105|253:120,1,112.5,4|0,0:0|0:0,0:0:0:0:
208,328,52356,1,4,0:0:0:0:
168,32,52518,1,0,0:0:0:0:
16,176,52680,1,4,0:0:0:0:
32,196,52842,2,0,P|83:215|137:201,1,112.5,0|4,0:0|0:0,0:0:0:0:
344,52,53166,6,0,P|400:64|428:117,1,112.5,0|4,0:0|0:0,0:0:0:0:
360,352,53491,1,0,0:0:0:0:
168,208,53653,1,4,0:0:0:0:
464,284,53815,1,0,0:0:0:0:
339,102,53977,1,4,0:0:0:0:
296,68,54058,1,4,0:0:0:0:
242,50,54139,1,4,0:0:0:0:
186,53,54220,1,4,0:0:0:0:
135,75,54302,6,0,L|47:133,1,90,6|0,0:0|0:0,0:0:0:0:
40,276,54626,2,0,L|114:225,1,90
236,124,54950,2,0,P|306:172|291:256,1,180
232,204,55437,1,0,0:0:0:0:
232,204,55518,1,0,0:0:0:0:
232,204,55599,6,0,P|217:288|287:336,2,180
245,117,56410,1,0,0:0:0:0:
314,63,56572,1,0,0:0:0:0:
402,73,56734,1,0,0:0:0:0:
458,141,56896,6,0,B|472:176|472:176|456:184|456:184|476:220|444:280|415:291,1,180
312,256,57383,1,0,0:0:0:0:
268,160,57545,2,0,P|233:132|189:120,1,90
84,144,57869,1,0,0:0:0:0:
32,240,58031,1,0,0:0:0:0:
128,308,58193,6,0,L|188:336,3,45
208,252,58518,2,0,L|268:224,3,45
268,328,58842,1,0,0:0:0:0:
364,272,59004,1,0,0:0:0:0:
460,216,59166,2,0,P|484:160|468:112,1,90
440,73,59491,5,0,0:0:0:0:
379,37,59653,1,0,0:0:0:0:
307,32,59815,1,0,0:0:0:0:
242,61,59977,1,0,0:0:0:0:
197,116,60139,2,0,P|164:168|108:180,1,90
116,100,60464,2,0,P|77:122|58:162,1,90
58,162,60707,1,0,0:0:0:0:
58,162,60788,6,0,L|76:276,1,90
205,316,61112,2,0,L|192:228,1,90
173,152,61437,1,0,0:0:0:0:
203,81,61599,1,0,0:0:0:0:
269,40,61761,1,0,0:0:0:0:
346,45,61923,1,0,0:0:0:0:
346,45,62004,1,0,0:0:0:0:
346,45,62085,6,0,L|456:88,1,90.0000034332277
429,77,62302,1,0,0:0:0:0:
288,136,62410,6,0,L|200:192,1,83.9999974365235
217,181,62626,1,0,0:0:0:0:
368,208,62734,6,0,L|460:240,1,77.9999964294435
441,233,62950,1,0,0:0:0:0:
309,298,63059,6,0,L|232:348,1,71.9999978027344
248,337,63275,1,0,0:0:0:0:
432,328,63383,6,0,L|476:328,7,45
470,265,64031,2,0,B|465:248|465:248|474:231|474:231|456:221|456:221|466:208|466:208|407:218|376:136|374:126|374:126|372:120|415:38|465:90|432:132|436:124,1,323.999990112305
256,192,64680,5,6,0:0:0:0:
256,192,64761,12,0,66302,0:0:0:0:
121,192,66626,5,0,0:0:0:0:
150,139,66734,1,0,0:0:0:0:
197,103,66842,1,0,0:0:0:0:
255,91,66950,1,0,0:0:0:0:
314,103,67058,1,0,0:0:0:0:
361,139,67166,1,0,0:0:0:0:
390,191,67274,1,4,0:0:0:0:
256,192,67356,12,0,68896,0:0:0:0:
171,259,69221,6,0,L|107:195,2,60
224,288,69545,1,0,0:0:0:0:
283,292,69653,1,0,0:0:0:0:
339,271,69761,1,0,0:0:0:0:
380,228,69869,1,4,0:0:0:0:
256,192,69950,12,0,71491,0:0:0:0:
176,312,71815,6,0,L|124:344,2,60
336,312,72139,2,0,L|388:344,2,60
256,192,72464,5,4,0:0:0:0:
176,60,72626,1,0,0:0:0:0:
176,60,72788,2,0,P|108:96|76:172,1,135.000005149842
336,324,73112,1,4,0:0:0:0:
336,324,73275,2,0,P|404:288|436:212,1,135.000005149842
256,192,73599,1,0,0:0:0:0:
256,192,73680,1,0,0:0:0:0:
256,192,73761,5,4,0:0:0:0:
256,192,73842,12,0,74410,0:0:0:0:
56,136,74572,5,0,0:0:0:0:
36,193,74653,1,0,0:0:0:0:
42,252,74734,1,0,0:0:0:0:
72,302,74815,1,0,0:0:0:0:
121,337,74896,1,0,0:0:0:0:
181,347,74977,1,0,0:0:0:0:
238,332,75058,6,0,P|329:317|385:352,1,135.000005149842,6|0,0:0|0:0,0:0:0:0:
484,160,75383,1,4,0:0:0:0:
320,52,75545,2,0,B|308:40|308:40|280:52|280:52|256:32|190:44,1,135.000005149842,0|4,0:0|0:0,0:0:0:0:
156,288,75869,1,0,0:0:0:0:
384,328,76031,1,4,0:0:0:0:
144,32,76193,1,4,0:0:0:0:
144,32,76275,1,4,0:0:0:0:
142,32,76356,6,0,P|52:56|16:132,1,135.000005149842,4|0,0:0|0:0,0:0:0:0:
48,276,76680,1,4,0:0:0:0:
237,352,76842,2,0,B|264:352|264:352|272:336|272:336|324:340|354:307,1,135.000005149842,0|4,0:0|0:0,0:0:0:0:
456,36,77166,2,0,P|412:120|332:132,1,135.000005149842,0|4,0:0|0:0,0:0:0:0:
328,136,77410,1,4,0:0:0:0:
281,155,77491,1,4,0:0:0:0:
243,188,77572,1,4,0:0:0:0:
218,232,77653,6,0,P|156:255|93:236,1,135.000005149842,4|0,0:0|0:0,0:0:0:0:
152,144,77977,1,4,0:0:0:0:
384,56,78139,1,0,0:0:0:0:
340,308,78302,1,4,0:0:0:0:
480,152,78464,1,0,0:0:0:0:
264,32,78626,1,4,0:0:0:0:
32,192,78788,1,4,0:0:0:0:
47,221,78869,1,4,0:0:0:0:
63,251,78950,6,0,P|107:300|171:320,1,135.000005149842,4|0,0:0|0:0,0:0:0:0:
364,288,79275,1,4,0:0:0:0:
155,177,79437,1,0,0:0:0:0:
448,168,79599,5,4,0:0:0:0:
140,32,79761,1,4,0:0:0:0:
78,57,79842,1,4,0:0:0:0:
40,112,79923,2,4,L|32:192,1,67.5000025749208
116,336,80085,2,4,L|124:256,1,67.5000025749208
228,112,80248,6,0,P|320:80|396:112,1,135.000005149842,6|0,0:0|0:0,0:0:0:0:
472,224,80572,1,4,0:0:0:0:
324,320,80734,2,0,B|304:336|304:336|288:320|288:320|232:352|156:320,1,135.000005149842,0|4,0:0|0:0,0:0:0:0:
56,220,81058,1,0,0:0:0:0:
383,85,81221,2,4,L|479:65,1,67.5000025749208
274,195,81383,2,4,L|178:215,1,67.5000025749208
392,68,81545,6,0,P|272:40|220:56,1,135.000005149842,4|0,0:0|0:0,0:0:0:0:
86,105,81869,1,4,0:0:0:0:
96,312,82031,2,0,B|112:328|112:328|128:316|128:316|188:352|244:320,1,135.000005149842,0|4,0:0|0:0,0:0:0:0:
440,256,82356,2,0,P|476:184|452:100,1,135.000005149842,0|4,0:0|0:0,0:0:0:0:
436,74,82599,1,4,0:0:0:0:
379,39,82680,1,4,0:0:0:0:
312,37,82761,1,4,0:0:0:0:
253,67,82842,6,0,P|199:125|120:135,1,161.999995056153,6|0,0:0|0:0,0:0:0:0:
88,60,83085,2,0,P|36:148|68:200,1,161.999995056153,6|0,0:0|0:0,0:0:0:0:
88,238,83329,1,6,0:0:0:0:
127,274,83410,1,0,0:0:0:0:
175,299,83491,2,0,L|256:328,1,80.9999975280763,6|0,0:0|0:0,0:0:0:0:
264,244,83653,2,0,L|344:272,1,80.9999975280763,0|6,0:0|0:0,0:0:0:0:
480,176,83815,2,0,L|399:204,1,80.9999975280763
391,120,83977,2,0,L|310:148,1,80.9999975280763,6|0,0:0|0:0,0:0:0:0:
303,64,84139,6,0,L|232:88,3,67.5000025749208,6|0|0|0,0:0|0:0|0:0|0:0,0:0:0:0:
213,93,84464,1,6,0:0:0:0:
187,101,84545,1,0,0:0:0:0:
161,109,84626,1,0,0:0:0:0:
135,117,84707,1,0,0:0:0:0:
110,125,84788,6,0,L|60:204,1,67.5000025749208,6|0,0:0|0:0,0:0:0:0:
376,296,84950,2,0,L|427:218,1,67.5000025749208,6|0,0:0|0:0,0:0:0:0:
288,72,85112,2,0,L|209:21,1,67.5000025749208,6|0,0:0|0:0,0:0:0:0:
96,284,85275,1,4,0:0:0:0:
124,302,85356,1,4,0:0:0:0:
152,320,85437,6,0,L|228:356,1,67.5000025749208,6|0,0:0|0:0,0:0:0:0:
376,296,85599,2,0,L|300:260,1,67.5000025749208
192,160,85761,1,4,0:0:0:0:
400,40,85923,2,0,B|424:64|424:64|424:84|424:84|456:104|472:168,1,135.000005149842,0|4,0:0|0:0,0:0:0:0:
304,264,86248,1,0,0:0:0:0:
448,336,86410,1,4,0:0:0:0:
240,40,86572,1,4,0:0:0:0:
207,49,86653,1,4,0:0:0:0:
175,58,86734,6,0,L|84:112,1,67.5000025749208,4|0,0:0|0:0,0:0:0:0:
44,264,86896,2,0,L|135:210,1,67.5000025749208
292,264,87058,1,4,0:0:0:0:
48,75,87221,2,0,B|44:96|44:96|64:104|64:104|59:140|113:178,1,135.000005149842,0|4,0:0|0:0,0:0:0:0:
248,100,87545,1,0,0:0:0:0:
480,192,87707,1,4,0:0:0:0:
483,242,87788,1,4,0:0:0:0:
465,288,87869,1,4,0:0:0:0:
428,323,87950,1,4,0:0:0:0:
376,340,88031,6,0,P|304:336|252:284,1,135.000005149842,4|0,0:0|0:0,0:0:0:0:
56,152,88356,2,0,P|128:156|180:208,1,135.000005149842,4|0,0:0|0:0,0:0:0:0:
260,296,88680,1,4,0:0:0:0:
356,44,88842,1,0,0:0:0:0:
432,160,89004,1,0,0:0:0:0:
144,48,89166,1,4,0:0:0:0:
110,52,89247,1,4,0:0:0:0:
80,68,89329,6,0,L|32:140,1,67.5000025749208,4|0,0:0|0:0,0:0:0:0:
184,292,89491,2,0,L|232:220,1,67.5000025749208
81,32,89653,1,4,0:0:0:0:
73,263,89815,1,0,0:0:0:0:
117,312,89896,1,0,0:0:0:0:
181,332,89977,6,0,P|281:307|333:335,1,135.000005149842,4|0,0:0|0:0,0:0:0:0:
337,330,90221,1,0,0:0:0:0:
368,345,90302,1,4,0:0:0:0:
426,311,90383,1,4,0:0:0:0:
466,257,90464,1,4,0:0:0:0:
480,192,90545,1,4,0:0:0:0:
466,126,90626,6,0,L|405:59,1,67.5000025749208,6|0,0:0|0:0,0:0:0:0:
237,83,90788,2,0,L|298:150,1,67.5000025749208,4|0,0:0|0:0,0:0:0:0:
440,48,90950,1,4,0:0:0:0:
344,232,91112,2,0,B|335:242|335:242|324:225|324:225|283:258|221:234,1,135.000005149842,0|4,0:0|0:0,0:0:0:0:
52,76,91437,2,0,P|144:56|200:116,1,135.000005149842,0|4,0:0|0:0,0:0:0:0:
212,107,91680,1,0,0:0:0:0:
227,155,91761,1,0,0:0:0:0:
217,203,91842,1,0,0:0:0:0:
184,241,91923,6,0,L|132:296,1,67.5000025749208,6|0,0:0|0:0,0:0:0:0:
336,196,92085,2,0,L|388:141,1,67.5000025749208,4|0,0:0|0:0,0:0:0:0:
264,336,92248,1,4,0:0:0:0:
371,40,92410,2,0,B|388:40|388:40|396:60|396:60|436:53|479:103,1,135.000005149842,0|4,0:0|0:0,0:0:0:0:
484,252,92734,1,0,0:0:0:0:
473,284,92815,1,0,0:0:0:0:
455,312,92896,2,0,L|396:356,1,67.5000025749208,4|0,0:0|0:0,0:0:0:0:
232,324,93058,2,0,L|291:280,1,67.5000025749208
256,128,93221,5,6,0:0:0:0:
113,87,93383,2,0,L|80:72,1,22.5,4|0,0:0|0:0,0:0:0:0:
88,124,93464,2,0,L|55:109,1,22.5
79,167,93545,1,4,0:0:0:0:
256,128,93707,5,4,0:0:0:0:
399,87,93869,2,0,L|432:72,1,22.5,6|0,0:0|0:0,0:0:0:0:
424,124,93950,2,0,L|457:109,1,22.5
433,167,94031,1,4,0:0:0:0:
161,254,94193,6,0,L|144:284,1,22.5,4|0,0:0|0:0,0:0:0:0:
206,278,94275,2,0,L|192:312,1,22.5
256,286,94356,2,0,L|256:324,1,22.5,4|0,0:0|0:0,0:0:0:0:
306,277,94437,2,0,L|320:316,1,22.5
350,254,94517,5,6,0:0:0:0:
80,168,94680,1,0,0:0:0:0:
433,167,94842,1,6,0:0:0:0:
256,32,95004,1,0,0:0:0:0:
256,32,95166,6,0,B|288:104|224:120|224:120|288:200|288:200|224:216|256:288,1,323.999990112305,6|4,0:0|0:0,0:0:0:0:
368,336,95815,5,14,0:0:0:0:
419,319,95896,1,0,0:0:0:0:
458,283,95977,1,0,0:0:0:0:
478,233,96058,1,0,0:0:0:0:
474,180,96139,1,0,0:0:0:0:
144,336,96302,5,14,0:0:0:0:
92,319,96383,1,0,0:0:0:0:
53,283,96464,1,0,0:0:0:0:
33,233,96545,1,0,0:0:0:0:
37,180,96626,1,0,0:0:0:0:
256,32,96788,5,14,0:0:0:0:
256,86,96869,1,0,0:0:0:0:
256,140,96950,1,0,0:0:0:0:
256,194,97031,1,0,0:0:0:0:
256,248,97112,1,0,0:0:0:0:
171,276,97275,6,0,P|256:332|340:276,1,215.999993408203,14|0,0:0|0:0,0:0:0:0:
428,56,97761,2,0,P|348:96|316:168,1,135.000005149842,6|0,0:0|0:0,0:0:0:0:
84,56,98085,2,0,P|164:96|196:168,1,135.000005149842,6|0,0:0|0:0,0:0:0:0:
312,256,98410,5,14,0:0:0:0:
337,299,98491,1,0,0:0:0:0:
377,330,98572,1,0,0:0:0:0:
425,344,98653,1,0,0:0:0:0:
475,339,98734,1,0,0:0:0:0:
200,256,98896,5,14,0:0:0:0:
174,299,98977,1,0,0:0:0:0:
134,330,99058,1,0,0:0:0:0:
86,344,99139,1,0,0:0:0:0:
36,339,99220,1,0,0:0:0:0:
171,107,99383,5,14,0:0:0:0:
205,66,99464,1,0,0:0:0:0:
256,51,99545,1,0,0:0:0:0:
307,66,99626,1,0,0:0:0:0:
340,107,99707,1,0,0:0:0:0:
256,136,99869,6,0,L|256:324,1,135.000005149842,14|0,0:0|0:0,0:0:0:0:
256,344,100193,1,0,0:0:0:0:
256,52,100356,1,6,0:0:0:0:
148,220,100518,2,4,L|120:240,4,33.7500012874604,4|4|4|4|6,0:0|0:0|0:0|0:0|0:0,0:0:0:0:
364,220,100842,6,4,L|392:240,2,33.7500012874604
392,288,101004,5,6,0:0:0:0:
436,264,101085,1,0,0:0:0:0:
465,223,101166,1,0,0:0:0:0:
474,174,101247,1,0,0:0:0:0:
462,125,101328,1,0,0:0:0:0:
120,284,101491,5,14,0:0:0:0:
76,260,101572,1,0,0:0:0:0:
47,219,101653,1,0,0:0:0:0:
38,170,101734,1,0,0:0:0:0:
50,121,101815,1,0,0:0:0:0:
256,32,101977,5,14,0:0:0:0:
256,65,102058,1,0,0:0:0:0:
256,99,102139,1,0,0:0:0:0:
256,133,102220,1,0,0:0:0:0:
256,167,102301,1,0,0:0:0:0:
140,324,102464,6,0,B|176:324|176:324|216:308|216:308|256:348|256:348|296:308|296:308|336:324|336:324|372:324,1,270.000010299683,14|0,0:0|0:0,0:0:0:0:
140,324,102950,2,0,B|84:248|84:248|24:228,1,135.000005149842,6|0,0:0|0:0,0:0:0:0:
372,324,103275,2,0,B|428:248|428:248|488:228,1,135.000005149842,6|0,0:0|0:0,0:0:0:0:
224,220,103599,6,0,B|192:156|192:156|128:124|128:124|64:124|32:28,1,269.999991760254,14|0,0:0|0:0,0:0:0:0:
288,220,104085,6,0,B|320:156|320:156|384:124|384:124|448:124|480:28,1,269.999991760254,14|0,0:0|0:0,0:0:0:0:
154,232,104572,6,0,B|183:290|183:290|227:290|256:348|256:348|284:290|328:290|328:290|357:232,1,323.999990112305,14|0,0:0|0:0,0:0:0:0:
256,344,105058,6,0,B|256:216|256:216|280:208|280:176|280:176|232:160|232:128|232:128|272:96|256:72|256:72|256:24,1,360,14|0,0:0|0:0,0:0:0:0:
108,188,105545,5,14,0:0:0:0:
145,216,105626,1,0,0:0:0:0:
187,235,105707,1,0,0:0:0:0:
232,245,105788,1,0,0:0:0:0:
278,245,105869,1,4,0:0:0:0:
323,235,105950,1,0,0:0:0:0:
365,216,106031,1,0,0:0:0:0:
402,188,106112,1,0,0:0:0:0:
256,32,106518,5,4,0:0:0:0:
256,192,106599,12,0,110085,0:0:0:0:
