osu file format v14

[General]
AudioFilename: 09. Shuuen no Claudia.mp3
AudioLeadIn: 0
PreviewTime: 73761
Countdown: 0
SampleSet: None
StackLeniency: 0.7
Mode: 0
LetterboxInBreaks: 0
WidescreenStoryboard: 0

[Editor]
Bookmarks: 10194,23166,29166,33545,43923,54302,64680,75058,85437,95815
DistanceSpacing: 1
BeatDivisor: 4
GridSize: 4
TimelineZoom: 1.4

[Metadata]
Title:Shuuen no Claudia
TitleUnicode:終焔のClaudia
Artist:Nidaime Suzaku
ArtistUnicode:二代目朱雀
Creator:Nerova Riuz GX
Version:Normal
Source:REFLEC BEAT colette -Autumn-
Tags:DJ TOTTO Yoshihiro Tagawa Feuerrote Phonix konami bemani verdet des krieges plus 2nd generation
BeatmapID:674817
BeatmapSetID:298234

[Difficulty]
HPDrainRate:3
CircleSize:3
OverallDifficulty:3
ApproachRate:5
SliderMultiplier:1
SliderTickRate:1

[Events]
//Background and Video events
0,0,"ShuuennoClaudiaBG.jpg",0,0
//Break Periods
2,10394,11588
2,12988,14183
2,15583,16777
2,23366,26507
2,28555,32248
2,54502,60885
2,64880,66075
2,67475,68669
2,70069,71264
//Storyboard Layer 0 (Background)
//Storyboard Layer 1 (Fail)
//Storyboard Layer 2 (Pass)
//Storyboard Layer 3 (Foreground)
//Storyboard Sound Samples

[TimingPoints]
530,324.324324324324,3,3,1,100,1,0
5394,352.941176470588,3,3,1,50,1,0
5746,375,3,3,1,50,1,0
6121,428.571428571429,3,3,1,50,1,0
6549,500,3,3,1,50,1,0
7049,545.454545454546,3,3,1,50,1,0
7594,600,3,3,1,50,1,0
8194,666.666666666667,3,3,1,50,1,0
10194,324.324324324324,4,3,1,100,1,0
20572,-100,4,3,2,100,0,0
20734,-100,4,3,1,100,0,0
43923,-100,4,3,1,100,0,1
54302,-100,4,3,1,100,0,0
64680,-100,4,3,2,100,0,0
64761,-100,4,3,1,100,0,0
73761,-100,4,3,2,100,0,0
73842,-100,4,3,1,100,0,0
75058,-100,4,3,1,100,0,1
95815,-100,4,3,2,100,0,0
95896,-100,4,3,1,100,0,0
101004,-100,4,3,2,100,0,0
101085,-100,4,3,1,100,0,0
106518,-100,4,3,2,100,0,0

[HitObjects]
256,192,8194,12,4,10194,0:0:0:0:
256,192,12788,5,4,0:0:0:0:
256,192,15383,5,4,0:0:0:0:
220,144,17977,6,0,B|284:144|284:144|331:104|331:104|387:104|387:104|395:232,1,300,4|0,0:0|0:0,0:0:0:0:
296,238,19275,2,0,B|231:237|231:237|184:278|184:278|128:278|128:278|120:150,1,300,4|0,0:0|0:0,0:0:0:0:
220,144,20572,1,4,0:0:0:0:
220,144,21869,5,0,0:0:0:0:
416,160,22518,1,0,0:0:0:0:
304,324,23166,1,4,0:0:0:0:
208,176,27707,6,0,P|256:192|304:176,2,100,0|0|4,0:0|0:0|0:0,0:0:0:0:
168,72,33545,6,0,P|209:98|258:102,1,100,6|0,0:0|0:0,0:0:0:0:
360,100,34193,2,0,P|416:132|436:192,1,100,4|0,0:0|0:0,0:0:0:0:
396,256,34842,1,4,0:0:0:0:
396,256,35166,1,0,0:0:0:0:
308,304,35491,1,4,0:0:0:0:
308,304,35815,1,0,0:0:0:0:
248,224,36139,6,0,P|176:272|168:312,1,100,4|0,0:0|0:0,0:0:0:0:
76,312,36788,2,0,P|40:260|44:204,1,100,4|0,0:0|0:0,0:0:0:0:
68,128,37437,1,4,0:0:0:0:
140,56,37761,1,0,0:0:0:0:
180,148,38085,1,4,0:0:0:0:
252,76,38409,1,0,0:0:0:0:
292,168,38734,6,0,L|308:296,1,100,4|4,0:0|0:0,0:0:0:0:
404,276,39383,2,0,L|388:148,1,100,4|4,0:0|0:0,0:0:0:0:
352,84,40031,1,4,0:0:0:0:
352,84,40356,1,4,0:0:0:0:
252,76,40680,1,4,0:0:0:0:
252,76,41004,1,4,0:0:0:0:
256,192,41329,12,0,43275,0:0:0:0:
363,91,43923,6,0,P|320:68|271:72,1,100,6|4,0:0|0:0,0:0:0:0:
204,148,44572,2,0,P|248:168|300:168,1,100
396,200,45221,2,0,P|416:245|412:294,2,100
300,168,46193,1,0,0:0:0:0:
263,260,46518,6,0,P|217:276|169:263,1,100,4|4,0:0|0:0,0:0:0:0:
76,228,47166,1,0,0:0:0:0:
48,132,47491,1,0,0:0:0:0:
112,56,47815,2,0,L|232:32,2,100
48,132,48788,1,4,0:0:0:0:
96,217,49112,6,4,P|133:249|181:257,1,100
173,160,49761,2,0,P|232:175|263:213,1,100
307,291,50410,2,0,P|351:314|401:313,2,100
259,203,51383,1,0,0:0:0:0:
352,164,51707,6,4,P|322:123|277:103,1,100
184,68,52356,1,0,0:0:0:0:
184,68,52680,1,0,0:0:0:0:
164,164,53004,2,0,L|136:280,2,100
184,68,53977,1,4,0:0:0:0:
260,132,54302,5,6,0:0:0:0:
256,192,62085,12,6,64680,0:0:0:0:
256,192,67275,5,4,0:0:0:0:
256,192,69869,5,4,0:0:0:0:
304,124,72464,6,0,P|372:196|376:276,2,150,4|0|0,0:0|0:0|0:0,0:0:0:0:
216,72,73761,1,4,0:0:0:0:
51,255,75058,6,4,P|90:286|140:290,1,100,6|4,0:0|0:0,0:0:0:0:
200,212,75707,1,0,0:0:0:0:
200,212,76031,1,0,0:0:0:0:
288,260,76356,2,0,P|352:252|396:216,1,100
416,140,77004,1,0,0:0:0:0:
416,140,77328,1,0,0:0:0:0:
344,72,77653,6,0,P|303:44|253:40,2,100,4|4|0,0:0|0:0|0:0,0:0:0:0:
416,140,78626,1,0,0:0:0:0:
436,240,78950,2,0,L|464:344,2,100
416,140,79923,1,0,0:0:0:0:
320,116,80248,6,4,P|264:164|260:204,1,100
248,284,80896,1,0,0:0:0:0:
248,284,81221,1,0,0:0:0:0:
148,276,81545,2,0,L|48:224,1,100
64,132,82193,1,0,0:0:0:0:
64,132,82518,1,0,0:0:0:0:
143,72,82842,6,4,P|191:58|239:71,1,100,6|4,0:0|0:0,0:0:0:0:
288,159,83491,2,4,P|240:173|192:160,1,100,6|4,0:0|0:0,0:0:0:0:
124,236,84139,2,4,P|72:264|48:308,2,100,6|6|6,0:0|0:0|0:0,0:0:0:0:
215,275,85112,1,6,0:0:0:0:
215,275,85437,6,0,P|256:303|306:305,1,100,6|0,0:0|0:0,0:0:0:0:
392,252,86085,1,0,0:0:0:0:
392,252,86410,1,0,0:0:0:0:
432,159,86734,2,0,P|432:110|403:70,1,100
308,48,87383,1,0,0:0:0:0:
308,48,87707,1,0,0:0:0:0:
212,76,88031,6,4,L|239:172,1,100
191,259,88680,2,0,P|239:272|287:258,2,100
132,180,89653,1,0,0:0:0:0:
55,244,89977,2,0,P|40:290|47:339,1,100
144,300,90626,6,4,P|220:316|260:304,1,100
332,268,91275,1,0,0:0:0:0:
332,268,91599,1,0,0:0:0:0:
392,188,91923,2,4,P|320:168|276:184,1,100
200,200,92572,1,0,0:0:0:0:
200,200,92896,1,0,0:0:0:0:
256,192,93221,12,0,95166,0:0:0:0:
132,172,95815,6,0,B|176:96|176:96|288:28|365:118,1,300,6|0,0:0|0:0,0:0:0:0:
435,202,97112,2,0,B|353:253|353:253|341:337|248:363|195:330,1,300,2|0,0:0|0:0,0:0:0:0:
248,236,98410,2,0,B|264:180|244:116|244:116|188:92|188:92|160:68|112:52|68:76,1,300,2|0,0:0|0:0,0:0:0:0:
116,172,99707,2,0,B|144:288|144:288|208:380|312:332,1,300,2|0,0:0|0:0,0:0:0:0:
396,300,101004,6,0,B|472:240|472:240|432:128|296:128,1,300,6|0,0:0|0:0,0:0:0:0:
248,204,102302,2,0,P|152:256|48:104,1,300,2|0,0:0|0:0,0:0:0:0:
256,192,103599,12,4,106518,0:0:0:0:
