osu file format v14

[General]
AudioFilename: 09. Shuuen no Claudia.mp3
AudioLeadIn: 0
PreviewTime: 73761
Countdown: 0
SampleSet: None
StackLeniency: 0.7
Mode: 0
LetterboxInBreaks: 0
WidescreenStoryboard: 0

[Editor]
Bookmarks: 10194,23166,29166,33545,43923,54302,64680,75058,85437,95815
DistanceSpacing: 1.5
BeatDivisor: 4
GridSize: 4
TimelineZoom: 2

[Metadata]
Title:Shuuen no Claudia
TitleUnicode:終焔のClaudia
Artist:Nidaime Suzaku
ArtistUnicode:二代目朱雀
Creator:Nerova Riuz GX
Version:Hyper
Source:REFLEC BEAT colette -Autumn-
Tags:DJ TOTTO Yoshihiro Tagawa Feuerrote Phonix konami bemani verdet des krieges plus 2nd generation
BeatmapID:674253
BeatmapSetID:298234

[Difficulty]
HPDrainRate:6
CircleSize:4
OverallDifficulty:6
ApproachRate:8
SliderMultiplier:1.5
SliderTickRate:1

[Events]
//Background and Video events
0,0,"ShuuennoClaudiaBG.jpg",0,0
//Break Periods
2,10394,11389
2,12989,13984
2,15584,16579
2,23366,26957
2,28556,32248
2,54501,60788
//Storyboard Layer 0 (Background)
//Storyboard Layer 1 (Fail)
//Storyboard Layer 2 (Pass)
//Storyboard Layer 3 (Foreground)
//Storyboard Sound Samples

[TimingPoints]
530,324.324324324324,3,3,1,100,1,0
530,-100,3,3,1,50,0,0
4421,-133.333333333333,3,3,1,50,0,0
5394,352.941176470588,3,3,1,50,1,0
5394,-133.333333333333,3,3,1,50,0,0
5746,375,3,3,1,50,1,0
6121,428.571428571429,3,3,1,50,1,0
6549,500,3,3,1,50,1,0
7049,545.454545454546,3,3,1,50,1,0
7594,600,3,3,1,50,1,0
7894,-100,3,3,1,50,0,0
8194,666.666666666667,3,3,1,50,1,0
10194,324.324324324324,4,3,1,100,1,0
10194,-100,4,3,1,100,0,0
20572,-100,4,3,2,100,0,0
20612,-100,4,3,1,100,0,0
23166,-133.333333333333,4,3,1,100,0,0
28356,-100,4,3,1,100,0,0
41329,-100,4,3,2,100,0,0
41369,-100,4,3,1,100,0,0
43923,-80,4,3,1,100,0,1
54302,-100,4,3,1,50,0,0
64680,-200,4,3,2,50,0,0
64721,-200,4,3,1,100,0,0
72464,-133.333333333333,4,3,1,100,0,0
73761,-66.6666666666667,4,3,2,100,0,0
73802,-66.6666666666667,4,3,1,100,0,0
75058,-66.6666666666667,4,3,1,100,0,1
82842,-55.5555555555556,4,3,1,100,0,1
84136,-66.6666666666667,4,3,1,100,0,1
93383,-66.6666666666667,4,3,1,100,0,1
95166,-200,4,3,1,100,0,1
95815,-83.3333333333333,4,3,2,100,0,1
95856,-83.3333333333333,4,3,1,100,0,0
101004,-66.6666666666667,4,3,2,100,0,0
101045,-66.6666666666667,4,3,1,100,0,0
105058,-50,4,3,1,100,0,0
106518,-55.5555555555556,4,3,2,100,0,0

[HitObjects]
339,139,530,6,0,P|404:172|475:154,2,150
356,40,1502,2,0,B|284:32|232:84|240:160|240:160|160:236,1,300
60,236,2475,6,0,P|92:308|168:336,2,150
60,132,3448,2,0,B|140:132|140:132|212:168,1,150
312,144,4097,1,0,0:0:0:0:
313,42,4421,6,0,P|366:58|404:100,1,112.500004291535
408,200,5070,1,0,0:0:0:0:
344,280,5394,6,0,P|272:248|232:260,1,112.500004291535
132,204,6121,1,0,0:0:0:0:
256,192,6549,12,0,7894,0:0:0:0:
256,192,8194,12,4,10194,0:0:0:0:
256,104,12139,5,0,0:0:0:0:
256,192,12464,1,0,0:0:0:0:
256,280,12789,1,4,0:0:0:0:
168,192,14734,5,0,0:0:0:0:
256,192,15059,1,0,0:0:0:0:
344,192,15384,1,4,0:0:0:0:
208,92,17329,6,0,L|268:57,2,50
84,92,17653,2,0,L|23:57,2,50
144,156,17977,2,0,B|144:248|144:248|211:272|211:272|280:252,1,225,4|0,0:0|0:0,0:0:0:0:
376,216,18626,2,0,B|376:124|376:124|308:99|308:99|240:120,1,225
256,192,19275,12,4,20572,0:0:0:0:
188,120,21869,6,0,P|156:200|184:260,1,150
324,264,22518,2,0,P|356:184|328:124,1,150
256,192,23166,5,4,0:0:0:0:
256,269,27707,5,0,0:0:0:0:
256,269,27869,2,0,L|256:312,2,28.1250010728836
189,153,28193,1,0,0:0:0:0:
322,153,28356,1,4,0:0:0:0:
96,80,33545,6,0,P|188:76|228:116,1,150,4|4,0:0|0:0,0:0:0:0:
144,164,34031,1,0,0:0:0:0:
100,252,34193,2,0,B|104:308|156:316|156:316|232:316,1,150,4|4,0:0|0:0,0:0:0:0:
272,232,34680,1,0,0:0:0:0:
272,232,34842,1,4,0:0:0:0:
440,320,35166,1,4,0:0:0:0:
464,140,35491,1,4,0:0:0:0:
296,52,35815,1,4,0:0:0:0:
88,124,36139,6,0,B|88:200|88:200|140:252,1,150,4|4,0:0|0:0,0:0:0:0:
224,320,36626,1,0,0:0:0:0:
328,284,36788,2,0,B|328:208|328:208|275:155,1,150,4|4,0:0|0:0,0:0:0:0:
192,88,37275,1,0,0:0:0:0:
192,88,37437,1,4,0:0:0:0:
100,239,37761,1,4,0:0:0:0:
288,231,38085,1,4,0:0:0:0:
380,80,38409,1,4,0:0:0:0:
464,224,38734,6,0,P|432:296|364:316,1,150,4|4,0:0|0:0,0:0:0:0:
376,228,39221,1,0,0:0:0:0:
352,136,39383,2,0,P|288:80|200:80,1,150,4|4,0:0|0:0,0:0:0:0:
148,120,39869,1,0,0:0:0:0:
148,120,40031,1,4,0:0:0:0:
184,300,40356,1,4,0:0:0:0:
364,264,40680,1,4,0:0:0:0:
328,84,41004,1,4,0:0:0:0:
256,192,41329,6,0,B|216:256|216:256|140:272,1,150,4|0,0:0|0:0,0:0:0:0:
40,252,41815,2,0,B|80:188|80:188|156:172,1,150,4|0,0:0|0:0,0:0:0:0:
256,192,42302,2,0,B|296:256|296:256|372:272,1,150,4|0,0:0|0:0,0:0:0:0:
472,252,42788,2,0,B|432:188|432:188|356:172,1,150,4|0,0:0|0:0,0:0:0:0:
236,340,43275,1,4,0:0:0:0:
112,192,43599,1,4,0:0:0:0:
236,44,43923,6,0,B|290:38|290:38|384:32|408:128,2,187.5,4|4|0,0:0|0:0|0:0,0:0:0:0:
141,88,44734,2,0,B|156:156|249:149|249:149|304:144,1,187.5
456,292,45383,1,0,0:0:0:0:
288,305,45707,1,0,0:0:0:0:
144,200,46031,2,0,B|136:248|136:248|104:300,2,93.75,0|4|0,0:0|0:0|0:0,0:0:0:0:
136,96,46518,6,0,B|196:44|268:56|268:56|300:92,2,187.5,4|4|0,0:0|0:0|0:0,0:0:0:0:
45,56,47329,1,0,0:0:0:0:
48,152,47491,1,0,0:0:0:0:
48,152,47653,2,0,B|96:216|168:192|168:192|216:240,1,187.5
352,344,48302,1,0,0:0:0:0:
484,208,48627,1,0,0:0:0:0:
484,208,48788,2,0,L|416:112,1,93.75,4|0,0:0|0:0,0:0:0:0:
344,56,49112,6,0,P|296:124|176:104,2,187.5,4|4|0,0:0|0:0|0:0,0:0:0:0:
248,40,49923,2,0,B|304:164|304:164|316:196|288:240,1,187.5
156,340,50572,1,0,0:0:0:0:
32,204,50896,1,0,0:0:0:0:
144,52,51221,2,0,L|236:32,2,93.75,0|4|0,0:0|0:0|0:0,0:0:0:0:
120,144,51707,6,0,P|186:213|274:196,2,187.5,4|4|0,0:0|0:0|0:0,0:0:0:0:
216,116,52518,1,0,0:0:0:0:
312,116,52680,1,0,0:0:0:0:
408,116,52842,2,0,P|464:200|440:300,1,187.5
272,344,53491,1,0,0:0:0:0:
104,264,53815,1,0,0:0:0:0:
104,168,53977,2,0,L|104:74,2,93.75,4|0|4,0:0|0:0|0:0,0:0:0:0:
256,192,62085,12,4,64356,0:0:0:0:
176,336,64680,6,0,B|208:320|256:336|256:336|336:368|416:320|416:320|480:288|480:288|448:256|384:256|384:256|336:288|288:272,1,525
192,256,67275,2,0,B|128:256|96:320|96:320|32:272|32:272|112:160|256:176|256:176|292:180|320:192,1,525
416,176,69869,2,0,B|448:176|496:200|496:200|488:120|488:120|408:80|360:128|360:128|272:96|200:104|200:104|256:56,1,525
144,32,72464,6,0,B|120:80|48:112|48:112|112:184|192:184|192:184|272:176|352:216,1,450.000017166138
256,192,73842,12,0,74734,0:0:0:0:
32,276,75058,6,0,P|84:284|145:263,1,112.500004291535,4|0,0:0|0:0,0:0:0:0:
224,184,75383,1,4,0:0:0:0:
344,228,75545,2,0,B|464:260|480:172|480:172|420:164,2,225.000008583069
287,327,76356,2,0,P|246:290|228:237,1,112.500004291535,4|0,0:0|0:0,0:0:0:0:
220,120,76680,1,4,0:0:0:0:
130,35,76842,2,0,B|56:84|56:84|28:164|122:174,1,225.000008583069
319,191,77329,2,0,L|336:248,3,56.2500021457673
319,191,77653,6,0,P|392:140|472:252,2,225.000008583069,4|4|0,0:0|0:0|0:0,0:0:0:0:
200,252,78464,2,0,P|248:300|300:296,1,112.500004291535
396,224,78788,2,0,B|416:96|416:96|392:48|340:40,1,225.000008583069
184,40,79275,1,0,0:0:0:0:
44,100,79437,2,0,B|66:207|66:207|130:195|174:239,1,225.000008583069
94,319,79923,2,0,P|142:347|202:347,1,112.500004291535
320,272,80248,6,0,P|376:304|400:356,2,112.500004291535,4|0|4,0:0|0:0|0:0,0:0:0:0:
184,276,80734,2,0,P|208:192|340:136,1,225.000008583069
444,208,81221,1,0,0:0:0:0:
320,272,81383,1,0,0:0:0:0:
184,276,81545,2,0,B|108:276|108:276|80:248,1,112.500004291535,4|0,0:0|0:0,0:0:0:0:
40,120,81869,1,4,0:0:0:0:
197,72,82031,2,0,B|256:80|300:56|300:56|384:116|355:148,1,225.000008583069
154,217,82518,2,0,L|99:204,3,56.2500021457673
154,217,82842,6,0,B|96:260|140:336|140:336|192:272,2,202.499993820191,6|0|0,0:0|0:0|0:0,0:0:0:0:
256,92,83491,2,0,B|272:44|320:44|320:44|370:47|370:47|384:84|384:84|420:88|420:88|444:140,2,269.999991760254,6|0|6,0:0|0:0|0:0,0:0:0:0:
256,220,84302,1,0,0:0:0:0:
352,296,84464,2,0,P|256:344|152:284,1,225.000008583069,6|6,0:0|0:0,0:0:0:0:
64,232,84950,1,6,0:0:0:0:
64,120,85113,1,6,0:0:0:0:
155,54,85275,1,6,0:0:0:0:
252,116,85437,6,0,P|308:144|368:144,2,112.500004291535,6|0|4,0:0|0:0|0:0,0:0:0:0:
332,36,85923,2,0,P|448:84|444:216,1,225.000008583069
416,304,86410,1,0,0:0:0:0:
320,208,86572,1,0,0:0:0:0:
264,328,86734,2,0,B|208:352|208:352|156:352,2,112.500004291535,4|0|4,0:0|0:0|0:0,0:0:0:0:
320,208,87221,2,0,B|300:143|300:143|272:48|168:48,1,225.000008583069
184,168,87707,2,0,L|84:148,3,56.2500021457673
184,168,88031,6,0,B|288:36|288:36|368:36,1,225.000008583069,4|4,0:0|0:0,0:0:0:0:
448,132,88518,1,0,0:0:0:0:
448,132,88680,2,0,B|480:176|480:176|480:236,1,112.500004291535
416,340,89004,1,0,0:0:0:0:
416,340,89166,2,0,L|190:340,1,225.000008583069
68,292,89653,1,0,0:0:0:0:
72,144,89815,2,0,P|168:192|268:140,1,225.000008583069
168,67,90302,2,0,L|168:11,3,56.2500021457673
168,124,90626,6,0,L|168:244,1,112.500004291535,4|4,0:0|0:0,0:0:0:0:
256,336,90950,1,4,0:0:0:0:
352,240,91112,2,0,B|440:200|440:200|424:112|368:88,1,225.000008583069
256,32,91599,1,0,0:0:0:0:
256,32,91761,1,0,0:0:0:0:
344,124,91923,6,4,L|344:244,1,112.500004291535
256,336,92247,1,4,0:0:0:0:
160,240,92409,2,0,B|72:200|72:200|88:112|144:88,1,225.000008583069
256,152,92896,1,0,0:0:0:0:
377,92,93058,1,0,0:0:0:0:
377,92,93221,6,0,L|377:207,1,112.500004291535,4|0,0:0|0:0,0:0:0:0:
296,152,93545,2,0,L|295:266,1,112.500004291535,4|0,0:0|0:0,0:0:0:0:
216,152,93869,2,0,L|216:266,1,112.500004291535,4|0,0:0|0:0,0:0:0:0:
134,92,94193,2,0,L|135:207,1,112.500004291535,4|0,0:0|0:0,0:0:0:0:
256,32,94518,5,4,0:0:0:0:
256,32,94842,5,4,0:0:0:0:
256,32,95166,6,0,L|256:160,1,112.5,4|0,0:0|0:0,0:0:0:0:
124,196,95815,6,0,B|132:316|132:316|220:316,1,179.999994506836,6|0,0:0|0:0,0:0:0:0:
320,316,96302,2,0,B|380:316|380:316|388:196,1,179.999994506836,6|0,0:0|0:0,0:0:0:0:
335,95,96788,2,0,P|255:60|176:96,1,179.999994506836,6|0,0:0|0:0,0:0:0:0:
256,176,97275,2,0,L|256:356,1,179.999994506836,6|0,0:0|0:0,0:0:0:0:
100,272,97761,1,6,0:0:0:0:
412,272,98085,1,6,0:0:0:0:
336,108,98410,6,0,P|256:143|176:107,1,179.999994506836,6|0,0:0|0:0,0:0:0:0:
256,32,98896,2,0,L|256:212,1,179.999994506836,6|0,0:0|0:0,0:0:0:0:
176,276,99383,2,0,P|255:240|335:276,1,179.999994506836,6|0,0:0|0:0,0:0:0:0:
256,352,99869,2,0,L|256:172,1,179.999994506836,6|0,0:0|0:0,0:0:0:0:
100,112,100356,1,6,0:0:0:0:
412,112,100680,1,6,0:0:0:0:
192,36,101004,6,0,B|216:96|216:96|184:176|184:176|148:100,1,225.000008583069,6|0,0:0|0:0,0:0:0:0:
320,36,101491,2,0,B|296:96|296:96|328:176|328:176|364:100,1,225.000008583069,6|0,0:0|0:0,0:0:0:0:
256,180,101977,2,0,L|256:340,2,112.500004291535,6|0|0,0:0|0:0|0:0,0:0:0:0:
162,129,102464,2,0,P|256:75|349:129,1,225.000008583069,6|0,0:0|0:0,0:0:0:0:
392,240,102950,1,6,0:0:0:0:
120,240,103275,1,6,0:0:0:0:
76,64,103599,6,0,B|180:64|220:152|220:152|172:184,1,225.000008583069,6|0,0:0|0:0,0:0:0:0:
436,64,104085,6,0,B|332:64|292:152|292:152|340:184,1,225.000008583069,6|0,0:0|0:0,0:0:0:0:
318,313,104572,6,0,B|256:219|256:219|193:313,1,225.000008583069,6|0,0:0|0:0,0:0:0:0:
145,187,105058,6,0,P|257:105|366:193,1,300,6|0,0:0|0:0,0:0:0:0:
256,192,105545,12,4,106518,0:0:0:0:
