osu file format v9

[General]
AudioFilename: Parity.mp3
AudioLeadIn: 3000
PreviewTime: 22857
Countdown: 0
SampleSet: Normal
StackLeniency: 0.4
Mode: 0
LetterboxInBreaks: 1

[Editor]
DistanceSpacing: 1
BeatDivisor: 2
GridSize: 8

[Metadata]
Title:Parity
Artist:NicolArmarfi
Creator:Alduric
Version:Simple Art
Source:Katawa Shoujo
Tags:katawa shoujo rin alduric nicolarmarfi parity

[Difficulty]
HPDrainRate:4
CircleSize:3
OverallDifficulty:5
ApproachRate:4
SliderMultiplier:0.999999999999999
SliderTickRate:0.5

[Events]
//Background and Video events
0,0,"rinBG.png"
//Break Periods
2,61152,67251
//Storyboard Layer 0 (Background)
//Storyboard Layer 1 (Fail)
//Storyboard Layer 2 (Pass)
//Storyboard Layer 3 (Foreground)
//Storyboard Sound Samples
//Background Colour Transformations
3,100,163,162,255

[TimingPoints]
0,476.190476190476,4,1,1,80,1,0

[Colours]
Combo1 : 206,206,0
Combo2 : 115,17,58
Combo3 : 254,205,152
Combo4 : 41,128,4

[HitObjects]
152,80,0,2,0,B|112:120|136:184,1,99.9999999999999,4|8
168,264,952,1,0
248,320,1428,1,8
296,232,1904,6,0,B|200:160,2,99.9999999999999,0|8|0
376,176,3333,1,8
384,272,3809,5,0
296,232,4285,1,8
200,248,4761,1,0
120,192,5238,1,8
144,96,5714,6,0,B|200:104|240:184,1,99.9999999999999,0|8
312,200,6666,2,0,B|352:160|416:184,1,99.9999999999999,0|8
376,272,7619,5,0
280,272,8095,1,8
240,240,8333,1,0
208,200,8571,1,0
288,136,9047,1,8
368,192,9523,5,0
464,184,9999,2,0,B|448:128|384:88,2,99.9999999999999,8|0|8
392,256,11428,6,0,B|368:320,4,50,0|0|8|0|0
312,200,12857,1,8
296,104,13333,5,0
248,96,13571,1,0
200,104,13809,1,8
160,136,14047,1,0
136,184,14285,1,0
168,280,14761,1,8
264,288,15238,5,0
360,256,15714,1,8
384,160,16190,1,0
384,64,16666,1,8
288,56,17142,6,0,B|152:56,1,99.9999999999999,0|8
96,88,18095,2,0,B|104:152|168:176,1,99.9999999999999,0|8
224,232,19047,1,0
312,272,19523,1,8
408,296,19999,1,0
456,208,20476,6,0,B|408:72,1,99.9999999999999,8|0
328,88,21428,1,8
232,56,21904,2,0,B|152:168,1,99.9999999999999,0|8
120,216,22857,5,4
256,72,23809,1,0
256,272,24761,1,0
352,248,25238,1,8
408,168,25714,5,0
384,120,25952,1,0
352,88,26190,1,8
312,64,26428,1,0
264,72,26666,6,0,B|208:112|240:200,1,99.9999999999999,0|8
392,280,28095,1,8
208,208,29047,5,8
312,40,29999,1,8
400,88,30476,6,0,B|440:144|384:208,1,99.9999999999999,0|8
304,160,31428,2,0,B|296:232|360:280,1,99.9999999999999,0|8
264,320,32380,6,0,B|192:328|144:264,1,99.9999999999999,4|8
88,240,33333,2,0,B|48:184|104:120,1,99.9999999999999,0|8
168,88,34285,5,0
264,88,34761,1,8
360,72,35238,1,0
328,168,35714,1,8
408,224,36190,5,0
328,280,36666,1,8
248,216,37142,1,0
184,288,37619,1,8
88,304,38095,6,0,B|72:248|128:208,1,99.9999999999999,0|8
240,56,39523,2,0,B|288:96|344:88,1,99.9999999999999,8|0
424,136,40476,5,8
440,232,40952,2,0,B|432:288|352:312,1,99.9999999999999,0|8
280,304,41904,6,0,B|168:304,1,99.9999999999999,0|8
72,128,43333,2,0,B|112:184|192:184,1,99.9999999999999,8|0
248,200,44285,5,8
344,192,44761,2,0,B|344:128,4,50,0|0|8|0|4
168,280,46666,5,0
72,104,47619,1,0
168,72,48095,1,8
264,104,48571,1,0
376,200,49285,5,0
368,248,49523,2,0,B|368:320|312:344,1,99.9999999999999,0|8
264,256,50476,2,0,B|232:208|184:200,1,99.9999999999999,0|8
88,200,51428,5,0
120,104,51904,1,8
216,88,52380,1,0
296,144,52857,1,8
392,112,53333,6,0,B|408:176|360:216,1,99.9999999999999,0|8
304,280,54285,1,0
232,208,54761,1,8
152,152,55238,6,0,B|88:144|72:72,1,99.9999999999999,0|8
176,64,56190,1,0
224,64,56428,1,0
272,64,56666,1,8
368,64,57142,6,0,B|368:176,1,99.9999999999999,0|8
416,248,58095,2,0,B|368:280|320:248,1,99.9999999999999,0|8
232,296,59047,1,4
232,200,59523,1,4
144,248,59999,2,0,B|88:256|56:208,1,99.9999999999999,4|8
48,112,60952,1,4
96,120,68571,5,4
184,72,69047,1,8
272,128,69523,2,0,B|336:128|368:72,1,99.9999999999999,0|8
456,80,70476,5,0
456,80,70952,2,0,B|456:192,1,99.9999999999999,8|0
408,264,71904,1,8
320,216,72380,5,0
240,272,72857,1,8
176,200,73333,1,0
96,264,73809,1,8
88,168,74285,2,0,B|104:112|168:104,1,99.9999999999999,0|8
432,328,76428,5,0
344,288,76904,1,0
248,256,77380,1,0
152,240,77857,1,0
104,224,78095,6,0,B|112:168|168:152,1,99.9999999999999,0|8
264,144,79047,2,0,B|408:144,1,99.9999999999999,0|8
464,144,79999,1,4
144,328,81904,5,4
344,288,82857,1,4
424,232,83333,1,8
464,144,83809,6,0,B|432:88|344:80,1,99.9999999999999,4|8
288,72,84761,1,0
184,72,85238,2,0,B|64:128,1,99.9999999999999,8|0
72,216,86190,5,8
168,200,86666,1,0
264,224,87142,1,8
312,312,87619,6,0,B|368:288|368:216,1,99.9999999999999,0|8
376,136,88571,1,0
288,88,89047,1,8
192,88,89523,5,0
144,104,89761,1,0
120,152,89999,1,8
120,256,90476,2,0,B|232:256,1,99.9999999999999,0|8
304,304,91428,6,0,B|336:256|304:200,1,99.9999999999999,4|8
232,152,92380,1,0
144,192,92857,1,8
104,96,93333,6,0,B|232:64,1,99.9999999999999,0|8
304,72,94285,2,0,B|392:136,1,99.9999999999999,0|8
440,216,95238,5,0
440,216,95714,2,0,B|440:280|376:296,1,99.9999999999999,8|0
344,208,96666,1,8
256,192,97142,12,4,99047
