osu file format v9

[General]
AudioFilename: Painful_History.mp3
AudioLeadIn: 3000
PreviewTime: 70844
Countdown: 0
SampleSet: Soft
StackLeniency: 0.4
Mode: 0
LetterboxInBreaks: 1

[Editor]
DistanceSpacing: 0.8
BeatDivisor: 8
GridSize: 8

[Metadata]
Title:Painful History
Artist:NicolArmarfi
Creator:Alduric
Version:Shy
Source:Katawa Shoujo
Tags:katawa shoujo hanako alduric nicolarmarfi painful history

[Difficulty]
HPDrainRate:4
CircleSize:3
OverallDifficulty:5
ApproachRate:4
SliderMultiplier:1.80000000596047
SliderTickRate:1

[Events]
//Background and Video events
0,0,"hanakoBG.png"
//Break Periods
//Storyboard Layer 0 (Background)
//Storyboard Layer 1 (Fail)
//Storyboard Layer 2 (Pass)
//Storyboard Layer 3 (Foreground)
//Storyboard Sound Samples
//Background Colour Transformations
3,100,163,162,255

[TimingPoints]
0,857.142857142857,4,2,1,15,1,0
2571,-100,4,2,1,10,0,0
3428,-100,4,2,1,15,0,0
32571,-100,4,2,1,10,0,0
33107,-100,4,2,1,15,0,0
37714,-133.333333333333,4,2,1,25,0,0
43416,857.142857142857,4,2,1,25,1,0

[Colours]
Combo1 : 170,170,255
Combo2 : 116,82,186
Combo3 : 254,205,152
Combo4 : 2,53,111

[HitObjects]
56,88,0,6,0,B|160:88,1,90.0000002980235,2|0
216,88,857,1,0
328,184,1714,1,0
256,304,2571,1,4
416,304,6857,6,0,B|320:304|320:304,1,90.0000002980235,2|0
256,304,7714,1,0
120,248,8571,1,0
80,192,9000,2,0,B|48:152|56:96,1,90.0000002980235,0|2
96,240,13714,5,2
200,272,14357,2,0,B|280:296,2,45.0000001490117
304,288,15428,5,0
376,272,15857,2,0,B|368:216|272:216,1,90.0000002980235,2|0
248,192,16714,1,0
184,168,17142,5,2
104,288,17999,1,0
72,144,18857,1,2
360,168,20571,5,2
328,232,20999,1,0
288,288,21428,2,0,B|240:288,1,45.0000001490117,0|2
136,272,22285,5,2
120,160,23142,1,2
192,136,23571,1,0
264,128,23999,5,2
264,128,24642,1,2
264,128,25285,1,4
192,120,26999,5,2
192,120,27428,1,0
144,216,28071,2,0,B|96:200,2,45.0000001490117,0|0|2
232,280,29142,5,2
280,232,29571,2,0,B|376:232,1,90.0000002980235
416,176,30428,1,0
360,128,30857,5,2
248,40,31714,1,0
120,112,32571,1,4
96,256,33428,5,0
96,256,33857,1,0
152,216,34285,1,2
280,280,35142,6,0,B|344:280,2,45.0000001490117,2|0|0
216,280,36000,1,2
104,80,37714,6,0,B|120:120|160:128,1,67.4999982118609,2|0
208,168,38714,2,0,B|176:216|128:224,1,89.9999976158146
64,272,39999,1,2
192,144,43416,5,2
336,128,44273,1,2
400,256,45130,2,0,B|336:328|216:288,1,180.000000596047,2|0
168,272,46416,1,0
112,232,46844,5,2
184,104,47701,1,2
328,112,48558,2,0,B|392:112|432:176,1,90.0000002980235,2|0
416,216,49416,2,0,B|408:280|328:288,1,90.0000002980235,2|0
296,304,50273,5,2
152,304,51130,2,0,B|24:304,2,90.0000002980235,2|0|2
168,232,52416,2,0,B|176:128|272:96,1,180.000000596047,2|0
336,80,53701,5,2
408,208,54558,1,0
280,280,55416,1,2
280,280,55844,1,0
208,280,56273,1,2
208,280,56701,1,0
136,288,57130,6,0,B|88:264|88:216,1,90.0000002980235,2|0
64,152,57987,2,0,B|232:32|432:168,1,360.000001192094,2|2
448,208,60130,1,0
448,280,60558,5,2
304,272,61416,2,2,B|304:168|192:304|192:152,1,180.000000596047
240,120,62701,2,0,B|296:104|360:120,1,90.0000002980235
384,168,63558,1,0
400,96,63987,5,2
256,80,64844,2,0,B|128:80,1,90.0000002980235,2|0
104,120,65701,2,0,B|72:184|120:232|120:224,1,90.0000002980235,2|0
152,256,66558,1,2
280,192,67416,5,2
376,296,68273,1,2
424,240,68701,1,2
392,176,69130,2,0,B|376:128|312:112,3,90.0000002980235,2|0|2|0
256,112,70844,5,2
128,176,71701,2,0,B|128:280,2,90.0000002980235,2|0|2
256,104,73416,1,0
384,104,74273,5,2
352,248,75130,1,2
216,288,75987,1,2
104,200,76844,1,2
88,128,77273,1,0
120,64,77701,6,0,B|272:56|384:144,1,270.00000089407,2|2
376,208,79416,2,0,B|272:184|200:272,1,180.000000596047,0|2
144,264,80701,1,0
80,232,81130,5,2
176,120,81987,1,2
320,120,82844,1,2
416,232,83701,1,2
280,288,84558,6,0,B|176:288|112:224,1,180.000000596047,2|0
96,160,85844,1,2
152,120,86273,2,0,B|200:104|240:120,3,90.0000002980235,2|0|2|0
312,136,87987,5,2
400,248,88844,1,2
256,264,89701,1,2
184,136,90558,1,2
88,240,91415,5,2
224,280,92273,2,0,B|328:280,1,90.0000002980235,2|0
312,208,93130,2,0,B|192:208,1,90.0000002980235,2|0
152,208,93987,1,2
248,104,94844,5,2
392,112,95701,1,2
392,112,96130,1,2
392,112,96558,1,0
288,208,97415,1,2
152,248,98273,6,0,B|64:216,1,90.0000002980235,2|0
80,144,99130,1,0
80,144,99558,1,0
144,112,99987,2,0,B|256:160,3,90.0000002980235,2|0|2|0
296,176,101701,5,2
416,96,102558,1,2
416,240,103415,1,2
272,272,104273,1,2
200,272,104701,1,0
128,272,105130,5,2
128,128,105987,2,2,B|128:32,2,90.0000002980235
272,144,107701,1,2
328,192,108130,1,0
376,248,108558,6,0,B|368:304|280:312,1,90.0000002980235,2|0
248,328,109415,1,2
112,280,110273,1,2
224,192,111130,1,2
336,104,111987,6,0,B|392:176|360:312,1,180.000000596047,2|0
224,280,113701,2,0,B|168:208|200:72,1,180.000000596047,2|0
336,104,115415,6,0,B|400:96|424:184,1,90.0000002980235,2|0
416,216,116273,2,0,B|416:320,1,90.0000002980235,2|0
344,304,117130,2,0,B|128:304,1,180.000000596047,2|0
96,176,118844,6,0,B|96:72,1,90.0000002980235,2|0
152,40,119701,1,2
224,40,120130,1,0
280,80,120558,2,0,B|280:184,3,90.0000002980235,2|0|2|0
280,240,122273,6,0,B|192:288,1,90.0000002980235,2|0
136,248,123130,2,0,B|72:168,1,90.0000002980235,0|0
88,104,123987,1,2
240,80,124844,1,2
312,104,125273,1,0
368,144,125701,5,2
288,264,126558,1,0
344,312,126987,1,2
408,280,127415,1,0
360,144,128273,1,2
216,112,129130,5,2
112,216,129987,1,2
248,256,130844,1,2
216,112,131701,1,2
352,72,132558,6,2,B|352:264|352:264,1,180.000000596047
208,256,134273,2,2,B|208:48,1,180.000000596047
256,192,135987,12,2,137273
256,192,137915,12,0,142844
