osu file format v9

[General]
AudioFilename: Painful_History.mp3
AudioLeadIn: 3000
PreviewTime: 70844
Countdown: 0
SampleSet: Soft
StackLeniency: 0.4
Mode: 0
LetterboxInBreaks: 1

[Editor]
DistanceSpacing: 0.8
BeatDivisor: 8
GridSize: 8

[Metadata]
Title:Painful History
Artist:NicolArmarfi
Creator:Alduric
Version:Calm
Source:Katawa Shoujo
Tags:katawa shoujo hanako alduric nicolarmarfi painful history

[Difficulty]
HPDrainRate:7
CircleSize:4
OverallDifficulty:5
ApproachRate:7
SliderMultiplier:1.80000000596047
SliderTickRate:1

[Events]
//Background and Video events
0,0,"hanakoBG.png"
//Break Periods
//Storyboard Layer 0 (Background)
//Storyboard Layer 1 (Fail)
//Storyboard Layer 2 (Pass)
//Storyboard Layer 3 (Foreground)
//Storyboard Sound Samples
//Background Colour Transformations
3,100,163,162,255

[TimingPoints]
0,857.142857142857,4,2,1,15,1,0
13714,-66.6666666666667,4,2,1,25,0,0
43416,857.142857142857,4,2,1,25,1,0
43420,-100,4,2,1,25,0,0
135451,-100,4,2,1,5,0,0

[Colours]
Combo1 : 170,170,255
Combo2 : 116,82,186
Combo3 : 254,205,152
Combo4 : 2,53,111

[HitObjects]
56,88,0,6,0,B|160:88,1,90.0000002980235,2|0
216,88,857,2,0,B|328:80|360:176,1,180.000000596047
392,312,2571,1,4
152,152,6857,6,0,B|56:152|56:152,2,90.0000002980235,2|0|0
216,112,8142,1,0
216,184,8571,1,0
280,152,8999,2,0,B|320:120|336:176|376:152,1,90.0000002980235,0|2
160,96,13714,5,0
320,96,14357,1,0
376,104,14571,2,0,B|416:112|432:136,1,67.4999982118609
456,184,14999,1,0
440,232,15214,1,0
392,256,15428,5,2
288,272,15857,1,0
232,272,16071,2,0,B|192:272|168:248,1,67.4999982118609,0|2
88,184,16714,1,0
152,96,17142,5,2
232,96,17999,1,0
312,96,18857,1,2
376,304,20571,5,2
344,144,21211,1,0
296,120,21428,2,0,B|256:112|216:120,1,67.4999982118609,2|0
72,160,22285,5,2
72,320,22928,1,0
72,264,23142,1,0
184,264,23571,1,0
288,264,23999,5,2
352,216,24642,1,2
288,264,25285,1,0
288,264,26999,6,0,B|344:264,4,33.7499991059305,2|0|0|0|0
128,240,28071,2,0,B|152:304,2,67.4999982118609
120,184,28714,1,0
128,128,28928,1,0
160,80,29142,5,2
264,72,29571,2,0,B|344:72|344:72,1,67.4999982118609
384,72,29999,1,2
448,160,30428,1,0
384,248,30857,5,2
176,304,31714,1,0
256,104,32571,1,2
208,232,33428,6,0,B|160:232,2,44.9999988079073,0|0|0
248,232,33857,2,0,B|248:280,2,44.9999988079073
288,232,34285,1,0
448,96,35118,2,0,B|448:168,2,67.4999982118609,2|0|0
344,128,35975,5,2
184,224,36725,1,2
184,224,36832,1,2
328,56,37714,6,0,B|384:88|432:168,1,134.999996423722,2|0
376,288,38714,2,0,B|288:328|160:304,1,179.999995231629
96,160,39999,1,2
352,104,43416,6,0,B|408:104|424:160,1,90.0000002980235
424,224,44273,1,2
384,288,44701,1,2
312,304,45130,2,0,B|208:304,2,90.0000002980235,2|0|2
312,232,46416,1,2
304,160,46844,6,0,B|288:96|200:104,1,90.0000002980235
168,104,47701,2,0,B|64:104,2,90.0000002980235,2|2|0
216,160,48987,1,0
160,208,49416,1,2
208,264,49844,1,2
264,312,50273,5,0
320,264,50701,1,0
376,312,51130,2,0,B|480:312,1,90.0000002980235,2|2
464,240,51987,1,0
464,168,52416,2,0,B|464:72,2,90.0000002980235,0|2|2
392,168,53701,5,0
392,96,54130,1,0
328,128,54558,2,0,B|232:128,1,90.0000002980235,2|2
168,128,55416,2,0,B|112:144|112:208,1,90.0000002980235
120,264,56273,1,2
168,320,56701,1,2
240,320,57130,6,0,B|296:320|320:264,1,90.0000002980235,2|0
344,208,57987,1,2
304,144,58416,1,2
232,136,58844,1,2
184,192,59273,2,2,B|184:296,2,90.0000002980235
152,128,60558,5,2
224,128,60987,1,2
296,144,61416,1,2
344,200,61844,2,0,B|344:256|256:280,1,90.0000002980235
224,296,62701,1,0
168,248,63130,2,0,B|176:192|248:176,1,90.0000002980235
280,136,63987,6,0,B|400:136,1,90.0000002980235,2|0
440,160,64844,1,2
392,216,65273,1,2
424,280,65701,1,2
352,288,66130,2,0,B|352:232|272:192,1,90.0000002980235,0|2
248,176,66987,1,0
184,136,67416,5,2
120,176,67844,1,0
104,248,68273,1,2
176,224,68701,1,2
248,224,69130,2,0,B|344:224,3,90.0000002980235,2|0|0|0
320,152,70844,6,0,B|208:152,2,90.0000002980235,2|0|2
392,152,72130,1,2
424,216,72558,1,2
376,272,72987,1,2
304,280,73416,1,2
232,272,73844,1,2
168,240,74273,5,2
136,176,74701,2,0,B|152:120|224:120,3,90.0000002980235,0|2|0|0
272,104,76416,1,0
344,104,76844,2,0,B|328:136|376:176|344:216,1,90.0000002980235
336,264,77701,6,0,B|304:312|240:280,1,90.0000002980235,2|0
184,280,78558,1,2
112,256,78987,1,2
168,208,79416,2,0,B|232:216|248:136,1,90.0000002980235,2|0
304,128,80273,1,2
336,152,80487,1,2
360,176,80701,1,2
368,248,81130,6,0,B|336:232|320:288|272:264,4,90.0000002980235,2|0|2|0|2
432,216,83273,1,0
400,152,83701,1,0
336,120,84130,1,0
264,120,84558,6,0,B|264:216,2,90.0000002980235,2|0|2
192,120,85844,1,2
120,120,86273,2,0,B|120:16,2,90.0000002980235,2|2|2
104,192,87558,1,2
112,264,87987,6,0,B|128:312|192:336,1,90.0000002980235,2|0
248,328,88844,2,0,B|456:328,1,180.000000596047,2|0
472,272,90130,1,0
408,232,90558,1,0
464,184,90987,1,0
400,144,91416,6,0,B|376:96|296:80,1,90.0000002980235,2|0
256,88,92273,2,0,B|136:88,2,90.0000002980235,2|2|2
256,160,93558,1,0
304,216,93987,1,2
272,280,94416,1,0
208,320,94844,6,0,B|96:320|80:184,1,180.000000596047,2|2
104,144,96130,1,2
168,112,96558,1,2
240,112,96987,2,0,B|352:112,2,90.0000002980235
168,128,98273,5,2
120,184,98701,1,0
136,256,99130,1,2
192,304,99558,2,0,B|256:312|304:304,3,90.0000002980235,2|0|2|0
352,296,101273,1,0
416,256,101701,6,0,B|400:136|272:112,2,180.000000596047,2|2|0
344,264,103844,1,0
296,208,104273,1,0
232,248,104701,1,0
168,288,105130,6,0,B|144:184,1,90.0000002980235
144,128,105987,2,0,B|96:136|72:184,1,90.0000002980235,2|2
80,248,106844,1,2
128,304,107273,1,0
200,320,107701,1,2
232,320,107915,1,2
232,320,108130,1,2
304,320,108558,6,0,B|360:304|360:240,3,90.0000002980235,2|0|0|0
400,192,110273,1,0
376,128,110701,1,0
312,96,111130,1,0
248,72,111558,1,0
184,104,111987,5,2
184,104,112415,2,0,B|88:96,1,90.0000002980235
48,152,113273,1,0
40,224,113701,1,2
112,200,114130,1,0
104,272,114558,2,0,B|120:320|184:336,1,90.0000002980235
240,328,115415,6,0,B|344:328,1,90.0000002980235,2|0
392,288,116273,2,0,B|392:176,1,90.0000002980235
392,128,117130,2,0,B|368:72|288:80,1,90.0000002980235,2|0
248,80,117987,1,0
176,80,118415,1,0
112,112,118844,6,0,B|112:208,1,90.0000002980235,2|0
72,264,119701,1,0
144,264,120130,1,0
112,328,120558,1,2
184,328,120987,1,0
224,264,121415,2,0,B|256:216|328:224,1,90.0000002980235
376,224,122273,6,0,B|424:256|416:328,1,90.0000002980235,2|0
352,328,123130,1,0
312,264,123558,1,0
360,208,123987,1,2
360,136,124415,2,0,B|360:32,2,90.0000002980235
288,136,125701,6,0,B|176:136,1,90.0000002980235,2|0
128,160,126558,1,0
80,216,126987,1,0
152,232,127415,2,0,B|192:256|216:312,1,90.0000002980235,2|0
280,312,128273,2,0,B|320:288|344:232,1,90.0000002980235
376,184,129130,5,2
400,112,129558,1,0
336,72,129987,1,0
272,112,130415,1,0
296,184,130844,1,2
232,216,131273,1,0
168,184,131701,1,0
112,232,132130,1,0
104,304,132558,6,2,B|256:344|408:296,1,270.00000089407
368,232,134273,6,2,B|216:192|64:240,1,270.00000089407
256,192,135987,12,2,137380
256,192,137916,12,0,142844
