osu file format v14

[General]
AudioFilename: 2-21 Letting my Heart Speak.mp3
AudioLeadIn: 0
PreviewTime: 25933
Countdown: 0
SampleSet: None
StackLeniency: 0.7
Mode: 3
LetterboxInBreaks: 0
SpecialStyle: 0
WidescreenStoryboard: 0

[Editor]
DistanceSpacing: 1
BeatDivisor: 2
GridSize: 8
TimelineZoom: 1.2

[Metadata]
Title:Letting my Heart Speak
TitleUnicode:Letting my Heart Speak
Artist:NicolArmarfi
ArtistUnicode:NicolArmarfi
Creator:JamesHappy
Version:Melody
Source:かたわ少女
Tags:Visual Novel Eroge Four Leaf Studios Katawa Shoujo
BeatmapID:1146064
BeatmapSetID:540478

[Difficulty]
HPDrainRate:8.4
CircleSize:9
OverallDifficulty:7.7
ApproachRate:5
SliderMultiplier:1.4
SliderTickRate:1

[Events]
//Background and Video events
0,0,"katawa.jpg",0,0
//Break Periods
//Storyboard Layer 0 (Background)
//Storyboard Layer 1 (Fail)
//Storyboard Layer 2 (Pass)
//Storyboard Layer 3 (Foreground)
//Storyboard Sound Samples

[TimingPoints]
2969,616.926701030928,4,2,0,5,1,0
2969,-100.264212911725,4,2,0,5,0,0
10372,616.926701030928,3,2,0,5,1,0
10372,-100.264212911725,3,2,0,5,0,0
21476,648.613913043477,3,2,0,5,1,0
21476,-95.3659316570142,3,2,0,5,0,0
23462,627.912251308901,3,2,0,5,1,0
23462,-98.5100545086561,3,2,0,5,0,0
25973,618.556701030928,3,2,0,5,1,0
25973,-100,3,2,0,5,0,0
35262,641.296701030929,3,2,0,5,1,0
35262,-96.4540594137713,3,2,0,5,0,0
37105,618.556701030928,3,2,0,5,1,0
37105,-100,3,2,0,5,0,0
47764,645.161290322581,3,2,0,5,1,0
47764,-95.8762886597938,3,2,0,5,0,0
48247,618.556701030928,3,2,0,5,1,0
48247,-100,3,2,0,5,0,0

[HitObjects]
312,192,1118,5,0,0:0:0:0:
142,192,1735,5,0,0:0:0:0:
312,192,2352,1,0,0:0:0:0:
85,192,2969,1,4,0:0:0:0:
369,192,2969,1,0,0:0:0:0:
483,192,2969,1,0,0:0:0:0:
312,192,3277,1,0,0:0:0:0:
483,192,3585,1,0,0:0:0:0:
256,192,3585,1,0,0:0:0:0:
142,192,3894,1,0,0:0:0:0:
369,192,3894,1,0,0:0:0:0:
199,192,4202,1,0,0:0:0:0:
426,192,4202,1,0,0:0:0:0:
28,192,4819,1,0,0:0:0:0:
426,192,6053,1,0,0:0:0:0:
199,192,6670,1,0,0:0:0:0:
426,192,7287,1,0,0:0:0:0:
85,192,7904,1,0,0:0:0:0:
369,192,7904,1,0,0:0:0:0:
199,192,7904,1,4,0:0:0:0:
426,192,8212,1,0,0:0:0:0:
483,192,8521,1,0,0:0:0:0:
256,192,8521,1,0,0:0:0:0:
142,192,8829,1,0,0:0:0:0:
369,192,8829,1,0,0:0:0:0:
199,192,9138,1,0,0:0:0:0:
426,192,9138,1,0,0:0:0:0:
85,192,9755,1,0,0:0:0:0:
369,192,9755,1,0,0:0:0:0:
199,192,10063,1,0,0:0:0:0:
28,192,10372,1,0,0:0:0:0:
312,192,10372,1,4,0:0:0:0:
142,192,10680,1,0,0:0:0:0:
256,192,10988,1,0,0:0:0:0:
142,192,11297,1,0,0:0:0:0:
28,192,11297,1,0,0:0:0:0:
426,192,11605,1,0,0:0:0:0:
312,192,11605,1,0,0:0:0:0:
142,192,11914,1,0,0:0:0:0:
28,192,11914,1,0,0:0:0:0:
369,192,12222,1,4,0:0:0:0:
483,192,12222,1,0,0:0:0:0:
312,192,12222,1,0,0:0:0:0:
256,192,12531,1,0,0:0:0:0:
28,192,12839,1,0,0:0:0:0:
199,192,12839,1,0,0:0:0:0:
312,192,13148,1,0,0:0:0:0:
256,192,13456,1,0,0:0:0:0:
199,192,13765,1,0,0:0:0:0:
426,192,13765,1,0,0:0:0:0:
142,192,14073,1,0,0:0:0:0:
369,192,14073,1,4,0:0:0:0:
256,192,14382,1,0,0:0:0:0:
369,192,14690,1,0,0:0:0:0:
142,192,14998,1,0,0:0:0:0:
256,192,14998,1,0,0:0:0:0:
369,192,15307,1,0,0:0:0:0:
483,192,15307,1,0,0:0:0:0:
199,192,15615,1,0,0:0:0:0:
312,192,15615,1,0,0:0:0:0:
28,192,15924,1,0,0:0:0:0:
142,192,15924,1,0,0:0:0:0:
85,192,15924,1,4,0:0:0:0:
256,192,16232,1,0,0:0:0:0:
369,192,16541,1,0,0:0:0:0:
85,192,16849,1,0,0:0:0:0:
199,192,17158,1,0,0:0:0:0:
312,192,17466,1,0,0:0:0:0:
85,192,17775,1,0,0:0:0:0:
256,192,17775,1,0,0:0:0:0:
28,192,17775,1,0,0:0:0:0:
369,192,18083,1,0,0:0:0:0:
142,192,18392,1,0,0:0:0:0:
312,192,18392,1,0,0:0:0:0:
426,192,18700,1,0,0:0:0:0:
199,192,19008,1,0,0:0:0:0:
369,192,19008,1,0,0:0:0:0:
483,192,19317,1,0,0:0:0:0:
426,192,19625,1,0,0:0:0:0:
256,192,19625,1,0,0:0:0:0:
142,192,19934,1,0,0:0:0:0:
199,192,20242,1,0,0:0:0:0:
369,192,20242,1,0,0:0:0:0:
85,192,20551,1,0,0:0:0:0:
142,192,20859,1,0,0:0:0:0:
312,192,20859,1,0,0:0:0:0:
369,192,21168,1,0,0:0:0:0:
85,192,21476,1,0,0:0:0:0:
256,192,21476,1,0,0:0:0:0:
426,192,21800,128,0,22124:0:0:0:0:
312,192,22124,128,0,22448:0:0:0:0:
199,192,22448,128,0,22773:0:0:0:0:
85,192,22773,128,0,23097:0:0:0:0:
369,192,23097,128,0,23462:0:0:0:0:
28,192,23462,1,0,0:0:0:0:
199,192,23462,1,4,0:0:0:0:
256,192,23462,128,0,25659:0:0:0:0:
483,192,25973,1,0,0:0:0:0:
312,192,25973,128,0,26601:0:0:0:0:
199,192,26591,128,0,27210:0:0:0:0:
28,192,26591,1,0,0:0:0:0:
483,192,27210,128,0,27828:0:0:0:0:
312,192,27210,1,0,0:0:0:0:
28,192,27828,128,0,28756:0:0:0:0:
199,192,27828,1,0,0:0:0:0:
256,192,28756,128,0,28962:0:0:0:0:
256,192,29065,128,0,29684:0:0:0:0:
369,192,29684,1,0,0:0:0:0:
483,192,29684,128,0,30302:0:0:0:0:
142,192,30302,128,0,30921:0:0:0:0:
256,192,30302,1,0,0:0:0:0:
369,192,30921,128,0,31540:0:0:0:0:
483,192,30921,1,0,0:0:0:0:
28,192,31540,128,0,33395:0:0:0:0:
142,192,31540,1,0,0:0:0:0:
256,192,33395,1,0,0:0:0:0:
199,192,33395,1,0,0:0:0:0:
312,192,33395,128,0,34014:0:0:0:0:
256,192,34014,1,0,0:0:0:0:
426,192,34014,128,0,34632:0:0:0:0:
256,192,34632,1,0,0:0:0:0:
85,192,34632,128,0,35251:0:0:0:0:
256,192,35251,1,0,0:0:0:0:
426,192,35262,128,0,36223:0:0:0:0:
142,192,35903,1,0,0:0:0:0:
85,192,35903,1,0,0:0:0:0:
312,192,36384,128,0,36544:0:0:0:0:
369,192,36544,1,0,0:0:0:0:
483,192,36544,128,0,37105:0:0:0:0:
199,192,37105,128,0,38135:0:0:0:0:
28,192,37105,1,0,0:0:0:0:
256,192,37723,1,0,0:0:0:0:
369,192,37723,1,0,0:0:0:0:
426,192,38135,128,0,38342:0:0:0:0:
256,192,38342,1,0,0:0:0:0:
85,192,38342,1,0,0:0:0:0:
426,192,38754,128,0,38960:0:0:0:0:
199,192,38960,1,0,0:0:0:0:
28,192,38960,128,0,40197:0:0:0:0:
142,192,40197,1,0,0:0:0:0:
199,192,40300,1,0,0:0:0:0:
256,192,40403,1,0,0:0:0:0:
312,192,40507,1,0,0:0:0:0:
369,192,40610,1,0,0:0:0:0:
426,192,40713,1,0,0:0:0:0:
483,192,40816,1,0,0:0:0:0:
28,192,40816,1,0,0:0:0:0:
142,192,40816,128,0,41434:0:0:0:0:
369,192,41434,128,0,42053:0:0:0:0:
483,192,41434,1,0,0:0:0:0:
85,192,42053,128,0,42672:0:0:0:0:
199,192,42053,1,0,0:0:0:0:
426,192,42672,128,0,43599:0:0:0:0:
312,192,42672,1,0,0:0:0:0:
142,192,43599,128,0,43909:0:0:0:0:
369,192,43909,128,0,44373:0:0:0:0:
369,192,44527,128,0,45455:0:0:0:0:
256,192,44527,1,0,0:0:0:0:
256,192,45146,1,0,0:0:0:0:
28,192,45146,1,0,0:0:0:0:
142,192,45455,128,0,45764:0:0:0:0:
256,192,45764,1,0,0:0:0:0:
85,192,45764,1,0,0:0:0:0:
312,192,45764,128,0,46074:0:0:0:0:
199,192,46074,128,0,46383:0:0:0:0:
85,192,46383,128,0,48247:0:0:0:0:
426,192,46383,1,0,0:0:0:0:
312,192,47311,1,0,0:0:0:0:
426,192,47414,1,0,0:0:0:0:
369,192,47517,1,0,0:0:0:0:
256,192,47620,1,0,0:0:0:0:
312,192,47775,1,0,0:0:0:0:
199,192,47925,1,0,0:0:0:0:
369,192,48086,1,0,0:0:0:0:
142,192,48247,1,0,0:0:0:0:
256,192,48247,128,0,48865:0:0:0:0:
483,192,48865,1,0,0:0:0:0:
369,192,48865,128,0,49484:0:0:0:0:
28,192,49484,1,0,0:0:0:0:
142,192,49484,128,0,50102:0:0:0:0:
199,192,50102,1,0,0:0:0:0:
312,192,50102,1,0,0:0:0:0:
256,192,50102,128,0,51133:0:0:0:0:
369,192,51133,128,0,51236:0:0:0:0:
369,192,51339,128,0,51958:0:0:0:0:
312,192,51958,128,0,52576:0:0:0:0:
483,192,51958,1,0,0:0:0:0:
199,192,52576,128,0,53195:0:0:0:0:
426,192,52576,1,0,0:0:0:0:
142,192,53195,128,0,53814:0:0:0:0:
369,192,53195,1,0,0:0:0:0:
85,192,53814,128,0,55669:0:0:0:0:
312,192,53814,1,0,0:0:0:0:
426,192,53814,1,0,0:0:0:0:
369,192,54432,1,0,0:0:0:0:
369,192,55051,1,0,0:0:0:0:
312,192,55669,1,0,0:0:0:0:
28,192,55669,128,0,56288:0:0:0:0:
426,192,56288,1,0,0:0:0:0:
426,192,56906,1,0,0:0:0:0:
85,192,57525,1,0,0:0:0:0:
199,192,57525,1,0,0:0:0:0:
312,192,58453,1,0,0:0:0:0:
426,192,58762,1,0,0:0:0:0:
199,192,59381,1,0,0:0:0:0:
256,192,59381,1,0,0:0:0:0:
142,192,59381,1,0,0:0:0:0:
312,192,60308,1,0,0:0:0:0:
85,192,60618,1,0,0:0:0:0:
142,192,61236,1,0,0:0:0:0:
256,192,61236,1,0,0:0:0:0:
369,192,61236,1,0,0:0:0:0:
199,192,62164,1,0,0:0:0:0:
312,192,62473,1,0,0:0:0:0:
256,192,63092,1,0,0:0:0:0:
28,192,63092,1,0,0:0:0:0:
142,192,63092,1,0,0:0:0:0:
85,192,64948,1,0,0:0:0:0:
142,192,64948,1,0,0:0:0:0:
28,192,64948,1,0,0:0:0:0:
256,192,65875,1,0,0:0:0:0:
369,192,66185,1,0,0:0:0:0:
312,192,66803,1,0,0:0:0:0:
199,192,66803,1,0,0:0:0:0:
142,192,66803,1,0,0:0:0:0:
28,192,68040,1,0,0:0:0:0:
483,192,68659,1,0,0:0:0:0:
312,192,68659,1,0,0:0:0:0:
369,192,68659,1,0,0:0:0:0:
85,192,69587,1,0,0:0:0:0:
199,192,69896,1,0,0:0:0:0:
312,192,70205,1,0,0:0:0:0:
426,192,70515,1,0,0:0:0:0:
256,192,70515,1,0,0:0:0:0:
142,192,70515,1,0,0:0:0:0:
85,192,72370,1,0,0:0:0:0:
142,192,72370,1,0,0:0:0:0:
28,192,72370,1,0,0:0:0:0:
312,192,73298,1,0,0:0:0:0:
199,192,73607,1,0,0:0:0:0:
142,192,74226,1,0,0:0:0:0:
256,192,74226,1,0,0:0:0:0:
369,192,74226,1,0,0:0:0:0:
85,192,75154,1,0,0:0:0:0:
426,192,75463,1,0,0:0:0:0:
369,192,76082,1,0,0:0:0:0:
256,192,76082,1,0,0:0:0:0:
142,192,76082,1,0,0:0:0:0:
483,192,77009,1,0,0:0:0:0:
28,192,77319,1,0,0:0:0:0:
142,192,77937,1,0,0:0:0:0:
256,192,77937,1,0,0:0:0:0:
369,192,77937,1,0,0:0:0:0:
199,192,79793,1,0,0:0:0:0:
85,192,79793,1,0,0:0:0:0:
28,192,79793,1,0,0:0:0:0:
369,192,80411,1,0,0:0:0:0:
142,192,81030,1,0,0:0:0:0:
369,192,81649,1,0,0:0:0:0:
483,192,81649,1,0,0:0:0:0:
199,192,82576,1,0,0:0:0:0:
369,192,82886,1,0,0:0:0:0:
256,192,83504,1,0,0:0:0:0:
85,192,83504,1,0,0:0:0:0:
142,192,83504,1,0,0:0:0:0:
28,192,84123,1,0,0:0:0:0:
199,192,84741,1,0,0:0:0:0:
369,192,85051,1,0,0:0:0:0:
256,192,85360,1,0,0:0:0:0:
312,192,85669,1,0,0:0:0:0:
85,192,85978,128,0,86597:0:0:0:0:
199,192,85978,1,0,0:0:0:0:
426,192,86288,1,0,0:0:0:0:
142,192,86597,128,0,87216:0:0:0:0:
312,192,86597,1,0,0:0:0:0:
369,192,86906,1,0,0:0:0:0:
199,192,87216,128,0,88143:0:0:0:0:
483,192,87216,1,0,0:0:0:0:
312,192,87525,1,0,0:0:0:0:
426,192,87834,1,0,0:0:0:0:
85,192,88143,128,0,88453:0:0:0:0:
369,192,88143,1,0,0:0:0:0:
312,192,88453,1,0,0:0:0:0:
199,192,88453,128,0,89071:0:0:0:0:
426,192,88762,1,0,0:0:0:0:
312,192,89071,1,0,0:0:0:0:
142,192,89071,128,0,89690:0:0:0:0:
369,192,89381,1,0,0:0:0:0:
256,192,89690,128,0,90308:0:0:0:0:
483,192,89690,1,0,0:0:0:0:
142,192,89999,1,0,0:0:0:0:
369,192,90308,128,0,90927:0:0:0:0:
199,192,90308,1,0,0:0:0:0:
85,192,90618,1,0,0:0:0:0:
483,192,90927,128,0,94638:0:0:0:0:
199,192,90927,1,0,0:0:0:0:
312,192,91236,1,0,0:0:0:0:
426,192,91545,1,0,0:0:0:0:
199,192,91855,1,0,0:0:0:0:
426,192,92164,1,0,0:0:0:0:
85,192,92473,1,0,0:0:0:0:
369,192,92783,1,0,0:0:0:0:
256,192,92783,1,0,0:0:0:0:
142,192,93092,1,0,0:0:0:0:
312,192,93401,1,0,0:0:0:0:
199,192,93710,1,0,0:0:0:0:
312,192,94020,1,0,0:0:0:0:
142,192,94329,1,0,0:0:0:0:
28,192,94638,128,0,95669:0:0:0:0:
199,192,94638,1,0,0:0:0:0:
369,192,94638,1,0,0:0:0:0:
256,192,94948,1,0,0:0:0:0:
142,192,95257,1,0,0:0:0:0:
256,192,95566,1,0,0:0:0:0:
369,192,95669,128,0,95875:0:0:0:0:
142,192,95875,128,0,96494:0:0:0:0:
426,192,95875,1,0,0:0:0:0:
312,192,96185,1,0,0:0:0:0:
85,192,96494,1,0,0:0:0:0:
199,192,96494,128,0,97112:0:0:0:0:
369,192,96494,1,0,0:0:0:0:
426,192,96803,1,0,0:0:0:0:
256,192,97112,128,0,97731:0:0:0:0:
142,192,97112,1,0,0:0:0:0:
426,192,97422,1,0,0:0:0:0:
312,192,97731,128,0,98350:0:0:0:0:
199,192,97731,1,0,0:0:0:0:
483,192,98040,1,0,0:0:0:0:
256,192,98350,1,0,0:0:0:0:
369,192,98350,128,0,102061:0:0:0:0:
142,192,98350,1,0,0:0:0:0:
28,192,98659,1,0,0:0:0:0:
199,192,98968,1,0,0:0:0:0:
426,192,99277,1,0,0:0:0:0:
199,192,99587,1,0,0:0:0:0:
85,192,99896,1,0,0:0:0:0:
256,192,100205,1,0,0:0:0:0:
142,192,100515,1,0,0:0:0:0:
312,192,100824,1,0,0:0:0:0:
85,192,101133,1,0,0:0:0:0:
312,192,101442,1,0,0:0:0:0:
256,192,101752,1,0,0:0:0:0:
28,192,102061,128,0,103092:0:0:0:0:
199,192,102061,1,0,0:0:0:0:
142,192,102061,1,0,0:0:0:0:
312,192,102370,1,0,0:0:0:0:
483,192,102679,1,0,0:0:0:0:
369,192,102989,1,0,0:0:0:0:
142,192,103092,128,0,103298:0:0:0:0:
199,192,103298,128,0,103917:0:0:0:0:
483,192,103298,1,0,0:0:0:0:
312,192,103607,1,0,0:0:0:0:
426,192,103917,1,0,0:0:0:0:
483,192,103917,1,0,0:0:0:0:
85,192,103917,128,0,104535:0:0:0:0:
369,192,104226,1,0,0:0:0:0:
199,192,104535,128,0,105154:0:0:0:0:
312,192,104535,1,0,0:0:0:0:
426,192,104844,1,0,0:0:0:0:
312,192,105154,1,0,0:0:0:0:
142,192,105154,128,0,105772:0:0:0:0:
369,192,105463,1,0,0:0:0:0:
483,192,105772,1,0,0:0:0:0:
256,192,105772,128,0,109484:0:0:0:0:
426,192,105772,1,0,0:0:0:0:
85,192,106082,1,0,0:0:0:0:
369,192,106391,1,0,0:0:0:0:
142,192,106700,1,0,0:0:0:0:
369,192,107009,1,0,0:0:0:0:
312,192,107319,1,0,0:0:0:0:
142,192,107628,1,0,0:0:0:0:
28,192,107628,1,0,0:0:0:0:
199,192,107937,1,0,0:0:0:0:
426,192,108247,1,0,0:0:0:0:
85,192,108556,1,0,0:0:0:0:
426,192,108865,1,0,0:0:0:0:
312,192,109174,1,0,0:0:0:0:
142,192,109484,1,0,0:0:0:0:
28,192,109484,128,0,110515:0:0:0:0:
483,192,109484,1,0,0:0:0:0:
256,192,109793,1,0,0:0:0:0:
369,192,110102,1,0,0:0:0:0:
312,192,110411,1,0,0:0:0:0:
199,192,110515,128,0,110721:0:0:0:0:
142,192,110721,128,0,111339:0:0:0:0:
85,192,111339,1,0,0:0:0:0:
312,192,111339,1,0,0:0:0:0:
369,192,111649,1,0,0:0:0:0:
426,192,111958,1,0,0:0:0:0:
199,192,111958,128,0,112576:0:0:0:0:
312,192,112267,1,0,0:0:0:0:
369,192,112576,1,0,0:0:0:0:
426,192,112886,1,0,0:0:0:0:
256,192,112989,128,0,113195:0:0:0:0:
85,192,113195,1,0,0:0:0:0:
483,192,113195,128,0,115051:0:0:0:0:
28,192,113195,1,0,0:0:0:0:
199,192,113504,1,0,0:0:0:0:
369,192,113814,1,0,0:0:0:0:
142,192,114123,1,0,0:0:0:0:
369,192,114432,1,0,0:0:0:0:
85,192,114741,1,0,0:0:0:0:
199,192,115051,1,0,0:0:0:0:
312,192,115051,1,0,0:0:0:0:
369,192,115360,1,0,0:0:0:0:
85,192,115669,1,0,0:0:0:0:
199,192,115669,1,0,0:0:0:0:
142,192,115669,1,0,0:0:0:0:
199,192,116288,1,0,0:0:0:0:
256,192,116288,1,0,0:0:0:0:
312,192,116288,1,0,0:0:0:0:
142,192,116906,1,0,0:0:0:0:
256,192,116906,1,0,0:0:0:0:
369,192,116906,1,0,0:0:0:0:
85,192,118143,1,0,0:0:0:0:
426,192,118143,1,0,0:0:0:0:
199,192,118762,1,0,0:0:0:0:
312,192,118762,1,0,0:0:0:0:
142,192,118762,1,0,0:0:0:0:
28,192,119381,1,0,0:0:0:0:
483,192,119381,1,0,0:0:0:0:
142,192,119999,1,0,0:0:0:0:
369,192,119999,1,0,0:0:0:0:
199,192,120618,1,0,0:0:0:0:
256,192,120618,1,0,0:0:0:0:
312,192,120618,1,0,0:0:0:0:
256,192,122473,1,0,0:0:0:0:
483,192,122473,1,0,0:0:0:0:
85,192,123092,1,0,0:0:0:0:
312,192,123092,1,0,0:0:0:0:
199,192,123710,1,0,0:0:0:0:
426,192,123710,1,0,0:0:0:0:
142,192,124329,1,0,0:0:0:0:
256,192,124329,1,0,0:0:0:0:
369,192,124329,1,0,0:0:0:0:
142,192,125566,1,0,0:0:0:0:
28,192,125566,1,0,0:0:0:0:
426,192,126185,1,0,0:0:0:0:
312,192,126185,1,0,0:0:0:0:
85,192,127112,1,0,0:0:0:0:
256,192,127112,1,0,0:0:0:0:
142,192,127422,1,0,0:0:0:0:
312,192,127422,1,0,0:0:0:0:
199,192,127731,1,0,0:0:0:0:
369,192,127731,1,0,0:0:0:0:
256,192,128040,1,0,0:0:0:0:
426,192,128040,1,0,0:0:0:0:
483,192,128040,1,0,0:0:0:0:
199,192,129896,1,0,0:0:0:0:
312,192,129896,1,0,0:0:0:0:
426,192,130205,1,0,0:0:0:0:
28,192,130515,1,0,0:0:0:0:
256,192,130515,1,0,0:0:0:0:
85,192,130515,1,0,0:0:0:0:
142,192,131133,1,0,0:0:0:0:
312,192,131133,1,0,0:0:0:0:
199,192,131752,1,0,0:0:0:0:
369,192,131752,1,0,0:0:0:0:
483,192,131752,1,0,0:0:0:0:
142,192,132989,1,0,0:0:0:0:
369,192,132989,1,0,0:0:0:0:
199,192,133607,1,0,0:0:0:0:
312,192,133607,1,0,0:0:0:0:
142,192,134226,1,0,0:0:0:0:
369,192,134226,1,0,0:0:0:0:
85,192,134844,1,0,0:0:0:0:
426,192,134844,1,0,0:0:0:0:
312,192,135463,1,0,0:0:0:0:
199,192,135463,1,0,0:0:0:0:
256,192,135463,1,0,0:0:0:0:
85,192,136391,1,0,0:0:0:0:
312,192,136391,1,0,0:0:0:0:
142,192,136700,1,0,0:0:0:0:
256,192,136700,1,0,0:0:0:0:
369,192,136700,1,0,0:0:0:0:
426,192,137009,1,0,0:0:0:0:
199,192,137319,1,0,0:0:0:0:
85,192,137319,1,0,0:0:0:0:
142,192,137319,1,0,0:0:0:0:
85,192,139174,1,0,0:0:0:0:
369,192,139174,1,0,0:0:0:0:
426,192,139793,1,0,0:0:0:0:
142,192,139793,1,0,0:0:0:0:
199,192,140411,1,0,0:0:0:0:
483,192,140411,1,0,0:0:0:0:
256,192,141030,1,0,0:0:0:0:
483,192,141030,1,0,0:0:0:0:
142,192,142267,1,0,0:0:0:0:
426,192,142267,1,0,0:0:0:0:
85,192,142886,1,0,0:0:0:0:
369,192,142886,1,0,0:0:0:0:
256,192,142886,1,0,0:0:0:0:
142,192,147216,1,0,0:0:0:0:
256,192,147834,1,0,0:0:0:0:
369,192,148453,1,0,0:0:0:0:
483,192,148453,1,0,0:0:0:0:
369,192,149071,1,0,0:0:0:0:
142,192,149690,1,0,0:0:0:0:
256,192,150308,1,0,0:0:0:0:
28,192,152164,1,0,0:0:0:0:
483,192,154020,1,0,0:0:0:0:
