osu file format v4

[General]
AudioFilename: konachanfaruconpan.mp3
AudioLeadIn: 0
AudioHash: c2c1144ab07fda3ffe57c7b7c8716ff8
PreviewTime: -1
Countdown: 1
SampleSet: Normal

[Metadata]
Title:Kona-Chan: Farucon Pan! (sm2164009)
Artist:NicoVideo
Creator:Neo@lex
Version:Insane

[Difficulty]
HPDrainRate:10
CircleSize:8
OverallDifficulty:0
SliderMultiplier: 2.6
SliderTickRate: 2

[Events]
//Background and Video events
0,-100000,"konakirby.jpg"
//Break Periods
2,22824,27544
2,38506,43064
//Storyboard Layer 0 (Background)
//Storyboard Layer 1 (Failing)
//Storyboard Layer 2 (Passing)
//Storyboard Layer 3 (Foreground)
//Storyboard Sound Samples
//Background Colour Transformations
3,100,163,162,255

[TimingPoints]
-76,646.691097219228,4,1,0,100

[Colours]
Combo1 : 255,0,0
Combo2 : 0,0,0
Combo3 : 0,0,255
Combo4 : 255,128,255
Combo5 : 0,128,0

[HitObjects]
128,160,2510,2,0,L|128:160|128:224,1,65
128,224,2834,2,0,L|128:224|192:256,1,65
192,256,3157,2,0,L|192:256|256:256,1,65
256,256,3480,2,0,L|256:256|320:224,1,65
320,224,3804,2,0,L|320:224|320:192,3,65
320,160,4450,2,0,L|320:160|352:128,1,65
384,256,5097,2,0,L|384:256|384:160|288:160|288:64|192:64|192:160|160:160,1,455
192,128,6390,2,0,L|192:128|192:224,4,65
256,192,7684,6,0,L|256:192|256:128,3,65
256,128,8330,2,0,L|256:128|32:128,1,195
64,128,8977,2,0,L|64:128|64:224,3,65
288,192,10271,2,0,L|288:192|448:192|448:64|352:64|352:160|352:288|416:288|416:256,1,650
416,288,12211,1,0
384,160,12857,6,0,L|384:160|384:224,1,65
384,224,13181,2,0,L|384:224|320:256,1,65
320,256,13504,2,0,L|320:256|256:256,1,65
256,256,13827,2,0,L|256:256|192:224,1,65
192,224,14151,2,0,L|192:224|192:192,3,65
192,160,14797,2,0,L|192:160|160:128,1,65
192,128,15444,6,0,L|192:128|256:160,3,65
256,160,16091,2,0,L|256:160|256:256,9,65
256,224,17708,1,0
224,224,18031,6,0,L|224:224|224:160,3,65
224,160,18677,2,0,L|224:160|448:160,1,195
416,160,19324,2,0,L|416:160|416:256,3,65
224,192,20618,2,0,L|224:192|64:192|64:64|160:64|160:160|160:288|96:288|96:256,1,650
96,288,22558,1,0
192,160,28378,6,0,L|192:160|192:96|224:96,3,65
192,96,29025,2,0,L|192:96|256:96|256:128,3,65
256,96,29671,6,0,L|256:96|256:160|288:160,4,65
256,96,30480,2,0,L|256:96|320:96|320:128,3,65
320,96,31126,6,0,L|320:96|320:160|288:160,3,65
320,160,31773,2,0,L|320:160|256:160|256:192,2,65
320,160,32258,6,0,L|320:160|320:224|288:224,4,65
320,160,33066,2,0,L|320:160|256:160|256:192,3,65
256,160,33713,2,0,L|256:160|256:320,4,130
256,160,35169,2,0,L|256:160|288:192|320:192|352:160|384:160|416:192|448:160|416:128,4,260
256,160,37917,2,0,L|256:160|256:128,2,65
160,96,43898,2,4,L|160:96|96:96|96:256|160:192|192:224|224:192|256:224|288:192|256:160|288:128|320:160|352:160|352:96|416:96,1,780
416,96,46000,6,4,L|416:96|384:96,1,65
352,96,46485,2,4,L|352:96|416:96|416:256|352:192|320:224|288:192|256:224|224:192|256:160|224:128|192:160|160:160|160:96|96:96,1,780
96,96,48587,6,4,L|96:96|128:96,1,65
160,96,49072,2,4,L|160:96|96:96|96:256|160:192|192:224|224:192|256:224|288:192|256:160|288:128|320:160|352:160|352:96|416:96,1,780
416,96,51174,6,4,L|416:96|384:96,1,65
320,96,51659,6,2,L|320:96|320:128|256:31|256:128|192:33|192:128,2,390
288,288,54246,6,0,L|288:288|256:256|224:288|192:256|160:288|128:256|96:224|128:192|96:160|128:128|64:64,1,455
96,96,55539,6,0,L|96:96|160:96,3,65
160,96,56186,2,0,L|160:96|224:96,3,65
224,64,56832,6,0,L|224:64|256:96|288:64|320:96|352:64|384:96|416:128|384:160|416:192|384:224|448:288,1,455
416,256,58125,6,0,L|416:256|352:256,3,65
352,256,58772,2,0,L|352:256|288:256,3,65
288,256,59419,6,0,L|288:256|256:224|224:256|192:224|160:256|128:224|96:192|128:160|96:128|128:96|64:32,1,455
96,64,60712,6,0,L|96:64|160:64,3,65
160,64,61359,2,0,L|160:64|224:64,3,65
224,64,62006,2,0,L|224:64|159:96|223:96|159:128|223:128|159:160|223:160|159:192|255:192|255:64|319:64|319:160,1,845
