osu file format v5

[General]
AudioFilename: Yutaka of the Sprite Tribe.mp3
AudioLeadIn: 2000
PreviewTime: -1
Countdown: 1
SampleSet: Soft
StackLeniency: 0.7
Mode: 0
LetterboxInBreaks: 1
EditorDistanceSpacing: 1.20000004768372

[Metadata]
Title:Yutaka of the Sprite Tribe
Artist:NicoNicoDouga
Creator:Mafiamaster
Version:Normal
Source:
Tags:

[Difficulty]
HPDrainRate:4
CircleSize:4
OverallDifficulty:6
SliderMultiplier:1.6
SliderTickRate:1

[Events]
//Background and Video events
1,0,"Yutaka of the Sprite Tribe_xvid.avi"
0,0,"Yutaka.png"
//Break Periods
//Storyboard Layer 0 (Background)
//Storyboard Layer 1 (Failing)
//Storyboard Layer 2 (Passing)
//Storyboard Layer 3 (Foreground)
//Storyboard Sound Samples
//Background Colour Transformations
3,100,0,0,0

[TimingPoints]
1100,501.882057716437,4,2,0,100,1,0

[HitObjects]
40,128,598,1,0
40,128,849,1,0
40,128,1099,2,0,B|72:80|112:80|160:80|184:160,1,160,2|8
40,264,2103,2,0,B|72:312|112:312|160:312|184:232,1,160,2|8
232,192,2856,1,0
296,120,3107,6,0,B|264:72|224:72|176:72|152:152,1,160,2|8
296,256,4111,2,0,B|264:304|224:304|176:304|152:224,1,160,2|8
104,184,4864,1,0
40,112,5115,2,0,B|72:64|112:64|160:64|184:144,1,160,2|8
296,256,6118,6,0,B|344:224|344:184|344:136|264:112,1,160,2|8
240,48,6871,1,0
184,128,7122,2,0,B|137:139|137:187|137:227|185:259,3,160,2|8|2|8
248,320,8879,1,0
304,240,9130,5,2
304,240,9631,2,0,B|408:352|472:248|416:144,1,240,8|0
416,80,10635,1,8
208,240,11137,5,2
208,240,11639,2,0,B|104:352|40:248|96:144,1,240,8|0
96,80,12643,1,8
288,80,13145,5,2
96,80,13647,1,8
288,296,14399,1,2
288,296,14650,1,8
472,176,15152,6,0,B|424:248|312:224,3,160,0|8|0|8
440,64,17160,1,2
72,64,18163,1,2
256,192,19167,12,4,20171
256,192,21175,5,8
432,112,21677,1,2
256,32,22179,1,8
80,112,22680,1,2
80,304,23182,1,8
256,352,23684,1,2
432,304,24186,1,4
96,120,25190,6,0,B|216:56|360:96|408:120|408:128,2,320,8|8|8
80,304,27699,1,8
264,352,28201,2,0,B|328:352|352:296,3,80,0|8|0|8
408,256,29205,5,4
64,72,30209,1,2
448,32,31212,1,2
360,200,31714,1,2
176,256,32216,2,0,B|80:248,2,80,8|8|8
112,72,33220,5,4
448,240,34224,1,2
72,320,35227,6,8,B|72:224,2,80
264,320,36231,2,8,B|264:224,2,80
168,152,37235,5,4
464,64,38239,1,2
464,256,38741,1,2
296,160,39243,5,8
296,256,39493,1,8
296,352,39744,1,8
104,352,40246,1,8
104,256,40497,1,8
104,160,40748,1,4
