osu file format v5

[General]
AudioFilename: You (Extended Trance Mix).mp3
AudioLeadIn: 176
PreviewTime: -1
Countdown: 1
SampleSet: Soft
StackLeniency: 0.7
Mode: 0
LetterboxInBreaks: 1
EditorBookmarks: 20631,34560,137631
EditorDistanceSpacing: 0.800000011920929

[Metadata]
Title:You (Exetended Trance Mix)
Artist:NicoNicoDouga
Creator:Echona
Version:avira and azuki Hard
Source:Higurashi no Naku Koro ni
Tags:

[Difficulty]
HPDrainRate:7
CircleSize:4
OverallDifficulty:6
SliderMultiplier:1.6
SliderTickRate:0.5

[Events]
//Background and Video events
0,0,"Rena.jpg"
//Break Periods
2,62397,68010
2,82968,88581
//Storyboard Layer 0 (Background)
//Storyboard Layer 1 (Fail)
//Storyboard Layer 2 (Pass)
//Storyboard Layer 3 (Foreground)
//Storyboard Sound Samples
//Background Colour Transformations
3,100,163,162,255

[TimingPoints]
7340,428.571428571429,4,2,0,100,1,0
22232,-100,4,2,0,90,0,0
22661,-100,4,2,0,100,0,0
23947,-100,4,2,0,90,0,0
24375,-100,4,2,0,100,0,0
25768,-100,4,2,0,90,0,0
26090,-100,4,2,0,100,0,0
27375,-100,4,2,0,90,0,0
27804,-100,4,2,0,100,0,0
29197,-100,4,2,0,90,0,0
29518,-100,4,2,0,100,0,0
30804,-100,4,2,0,90,0,0
31232,-100,4,2,0,100,0,0
33804,-100,4,1,0,85,0,0
34661,-100,4,2,0,100,0,0
37768,-100,4,1,0,70,0,0
38090,-100,4,2,0,100,0,0
40768,-100,4,1,0,70,0,0
41518,-100,4,2,0,100,0,0
44518,-100,4,1,0,60,0,0
44947,-100,4,2,0,100,0,0
47518,-100,4,1,0,70,0,0
48375,-100,4,2,0,80,0,0
48590,-100,4,2,0,100,0,0
51482,-100,4,1,0,70,0,0
51804,-100,4,2,0,100,0,0
54911,-100,4,1,0,70,0,0
55232,-100,4,2,0,80,0,0
55661,-100,4,2,0,100,0,0
58286,-100,4,1,0,90,0,0
58661,-100,4,2,0,90,0,0
59518,-100,4,2,0,80,0,0
59732,-100,4,2,0,100,0,0
60375,-100,4,2,0,80,0,0
60804,-100,4,2,0,85,0,0
61232,-100,4,2,0,90,0,0
61661,-100,4,2,0,95,0,0
62143,-100,4,2,0,100,0,0
74947,-100,4,1,0,65,0,0
75804,-100,4,2,0,100,0,0
82768,-100,4,1,0,100,0,0
82875,-100,4,2,0,100,0,0
110090,-100,4,1,0,70,0,0
110518,-100,4,2,0,100,0,0
111804,-100,4,1,0,70,0,0
112232,-100,4,2,0,100,0,0
113518,-100,4,1,0,70,0,0
113732,-100,4,2,0,100,0,0
116625,-100,4,1,0,70,0,0
116947,-100,4,1,0,70,0,0
117161,-100,4,2,0,100,0,0
118661,-100,4,1,0,70,0,0
118822,-100,4,2,0,100,0,0
120375,-100,4,1,0,70,0,0
120536,-100,4,2,0,100,0,0
123804,-100,4,1,0,70,0,0
124018,-100,4,2,0,100,0,0
125518,-100,4,1,0,70,0,0
125679,-100,4,2,0,100,0,0
127232,-100,4,1,0,70,0,0
127393,-100,4,2,0,100,0,0
135804,-100,4,2,0,90,0,0
136232,-100,4,2,0,80,0,0
136661,-100,4,2,0,90,0,0
136875,-100,4,2,0,100,0,0
137090,-100,4,2,0,100,0,0
137625,-100,4,2,0,100,0,0

[Colours]
Combo1 : 194,134,255
Combo2 : 255,186,117
Combo3 : 242,242,242
Combo4 : 140,211,242

[HitObjects]
72,264,21054,1,2
136,264,21268,1,0
200,264,21482,1,2
264,264,21697,1,0
328,264,21911,1,2
328,264,22125,1,0
328,264,22340,1,4
392,112,22768,5,2
328,112,22982,1,0
264,112,23197,1,2
200,112,23411,1,0
136,112,23625,1,2
136,112,23840,1,0
136,112,24054,1,4
104,272,24482,6,2,B|208:272,1,80,2|0
248,272,24911,1,2
312,272,25125,1,0
376,272,25340,2,0,B|496:272,2,80,2|0|4
368,112,26197,6,0,B|256:112,1,80,2|0
224,112,26625,1,2
160,112,26840,1,0
96,112,27054,1,2
96,112,27268,1,0
96,112,27482,1,4
184,200,27911,6,0,B|144:248,2,40,2|0|0
184,136,28340,1,2
296,80,28768,2,0,B|400:48,2,80,2|0|4
296,208,29625,5,2
256,256,29840,1,0
200,280,30054,1,2
72,248,30482,2,0,B|40:216,2,40,2|0|0
72,248,30911,1,4
168,336,31340,6,0,B|272:336,1,80,8|0
272,280,31768,1,0
240,224,31982,1,0
280,176,32197,2,0,B|384:176,1,80,8|0
352,112,32625,1,0
352,112,32732,1,0
352,112,32840,1,0
448,136,33054,6,0,B|400:240,1,80,8|0
360,240,33482,2,0,B|272:184,1,80,8|0
224,208,33911,1,0
176,160,34125,1,0
120,192,34340,1,0
40,328,34768,5,2
112,288,34982,1,0
184,248,35197,1,2
184,248,35304,1,0
184,248,35411,1,0
256,288,35625,1,2
328,248,35840,1,0
392,200,36054,1,2
392,200,36161,1,0
392,200,36268,1,0
392,120,36482,6,0,B|272:120,2,80,2|0|2
312,120,37125,1,0
232,120,37340,1,2
232,120,37447,1,0
232,120,37554,1,2
232,120,37661,1,0
232,120,37768,1,0
80,192,38197,6,0,B|104:280|144:256,1,80,2|2
192,288,38625,1,0
192,288,38732,1,0
192,288,38840,1,0
264,256,39054,2,0,B|288:168|336:192,1,80,2|2
376,152,39482,1,0
376,152,39590,1,0
376,152,39697,1,0
440,192,39911,2,0,B|416:280|368:256,2,80,2|2|0
440,112,40554,2,0,B|440:40,2,40,0|0|4
128,64,41625,5,2
128,64,41732,1,0
128,64,41840,2,0,B|240:64,1,80,0|0
296,200,42482,1,2
296,200,42590,1,0
296,200,42697,2,0,B|184:200,1,80,0|0
296,336,43340,2,0,B|408:336,3,80,2|0|0|0
120,336,44411,1,2
136,256,44625,1,0
176,104,45054,6,0,B|256:176,1,80,2|0
272,224,45482,2,0,B|352:168,1,80,0|0
384,112,45911,2,0,B|416:216,1,80,2|0
424,264,46340,1,0
424,264,46554,1,0
352,304,46768,2,0,B|256:360,2,80,2|0|2
352,224,47411,1,0
352,144,47625,1,4
32,80,48482,5,6
104,112,48697,1,0
48,168,48911,1,0
120,200,49125,1,0
192,232,49340,2,0,B|280:232,1,80,2|0
288,152,49768,2,0,B|192:152,1,80,0|0
352,152,50197,2,0,B|352:256,2,80,2|0|2
352,232,50840,1,0
352,312,51054,2,0,B|352:360,4,40
432,144,51911,5,2
392,72,52125,1,0
312,72,52340,2,0,B|208:72,1,80,0|0
152,72,52768,1,2
112,144,52982,1,0
152,208,53197,2,0,B|152:328,1,80
232,304,53625,1,2
232,304,53732,1,0
312,280,53947,1,0
312,280,54054,1,2
392,296,54268,1,0
392,296,54482,2,0,B|432:224|384:128,1,160,2|4
256,56,55340,6,0,B|144:56,1,80,6|0
176,136,55768,2,0,B|176:208,2,40,0|0|0
256,136,56197,1,2
256,136,56304,1,0
256,136,56411,2,0,B|360:136,1,80
424,264,57054,2,0,B|304:264,1,80,2|0
264,264,57482,2,0,B|288:320,2,40
184,240,57911,1,2
184,240,58018,1,0
112,280,58232,1,0
112,280,58340,1,4
112,120,58768,6,0,B|168:184|272:56|352:128,1,240,4|0
344,200,59625,1,4
344,280,59840,1,0
264,280,60054,1,0
264,280,60161,1,0
264,280,60268,1,0
184,280,60482,2,0,L|184:192,1,80,4|0
184,120,60911,2,0,L|280:120,1,80,4|0
344,120,61340,2,0,L|416:120,2,40,4|0|0
344,200,61768,1,4
344,224,61875,1,0
344,248,61982,1,0
344,272,62090,1,0
344,296,62197,1,4
32,168,69054,6,0,B|112:104,1,80,4|0
128,48,69482,2,0,B|232:88,1,80,2|0
224,152,69911,2,0,B|312:120,1,80,0|2
352,64,70340,2,0,B|424:128,1,80,2|0
472,192,70768,5,4
424,264,70982,1,2
352,312,71197,1,0
264,336,71411,1,2
176,304,71625,1,0
96,264,71840,1,2
48,192,72054,1,2
192,128,72482,6,0,B|144:32,2,80,4|0|0
232,200,73125,1,2
272,272,73340,2,0,B|320:360,2,80,4|0|0
232,200,73982,1,2
232,120,74197,2,0,B|312:72|400:128,1,160,4|4
384,200,74840,1,4
344,272,75054,1,0
344,272,75161,1,0
344,272,75268,1,0
280,320,75482,1,0
280,320,75590,1,0
280,320,75697,1,0
208,288,75911,6,0,B|128:256,1,80,4|0
120,176,76340,2,0,B|96:112,2,40
192,144,76768,2,0,B|304:176,1,80,2|0
320,224,77197,2,0,B|416:160,1,80,2|0
416,104,77625,2,0,B|456:56,2,40,4|0|0
336,128,78054,2,0,B|392:224,1,80,2|0
352,272,78482,2,0,B|256:344,1,80,2|0
248,248,78911,2,0,B|224:192,2,40
256,328,79340,5,4
312,240,79554,1,2
360,328,79768,1,0
416,240,79982,1,0
360,152,80197,1,4
256,152,80411,1,2
200,240,80625,1,0
256,328,80840,1,2
256,192,81054,12,4,82768
72,312,89625,6,0,B|168:312,1,80
200,272,90054,1,8
248,312,90268,1,0
296,272,90482,1,0
296,272,90590,1,0
296,272,90697,1,0
344,312,90911,2,0,B|416:312,2,40,8|0|0
296,272,91340,6,0,B|296:176,1,80
336,144,91768,1,8
304,88,91982,1,0
248,56,92197,2,2,B|136:56,1,80,2|0
104,56,92625,2,0,B|24:56,2,40,8|0|0
104,120,93054,6,0,B|104:288,1,160,0|8
160,312,93697,1,0
200,264,93911,1,0
240,312,94125,1,0
280,264,94340,1,8
320,312,94554,1,0
360,264,94768,6,2,B|360:64,1,160,0|8
296,120,95411,1,0
272,136,95518,1,0
288,200,95732,1,0
264,216,95840,1,0
280,280,96054,2,0,B|216:328,2,40,8|0|8
336,248,96482,5,2
360,232,96590,1,0
384,216,96697,2,0,B|440:128|328:64,1,160,2|0
288,80,97340,1,2
224,80,97554,1,0
160,80,97768,2,0,B|40:80,1,80,2|0
48,136,98197,5,2
40,168,98304,1,0
32,200,98411,2,0,B|-16:288|96:352,1,160,2|0
136,336,99054,2,0,B|248:336,1,80,2|0
280,336,99482,2,0,B|376:336,1,80,2|0
384,280,99911,5,2
384,280,100018,1,0
424,224,100232,1,0
424,224,100340,1,2
376,176,100554,1,0
400,120,100768,2,0,B|464:48,2,80,2|0|2
400,120,101411,1,2
336,120,101625,6,0,B|248:192,1,80,2|2
232,120,102054,1,0
184,160,102268,1,0
144,208,102482,2,0,B|280:336,1,160,2|2
320,320,103125,1,2
304,256,103340,5,2
304,256,103447,1,0
304,256,103554,1,2
240,256,103768,2,0,B|160:192|184:112,1,160
248,120,104411,2,0,B|352:120,2,80,2|0|2
248,184,105054,5,2
248,184,105161,1,0
248,184,105268,1,2
312,184,105482,2,0,B|392:248|368:328,1,160
304,320,106125,2,0,B|192:320,2,80,2|0|2
352,272,106768,6,0,B|352:104,1,160,2|0
304,64,107411,2,0,B|304:256,1,160,2|0
240,224,108054,2,0,B|240:272,2,40,0|0|0
240,144,108482,5,2
184,176,108697,1,0
160,232,108911,1,2
160,232,109018,1,0
160,232,109125,1,2
184,288,109340,2,0,B|216:320|280:312,1,80,2|0
320,296,109768,2,0,B|360:264|344:224,1,80,2|0
400,112,110197,5,0
256,32,110625,5,0
200,88,110840,1,0
144,144,111054,1,2
88,200,111268,1,0
144,256,111482,2,0,B|216:320,1,80
328,336,111911,5,4
448,224,112340,6,0,B|368:152,1,80
320,120,112768,2,0,B|320:8,2,80,2|0|0
320,40,113411,1,0
248,80,113625,5,4
248,80,113840,2,0,B|160:144,1,80
240,184,114268,1,0
184,240,114482,1,2
240,296,114697,2,0,B|312:376,1,80
344,296,115125,2,0,B|440:256,3,80,0|2|0|0
416,184,115982,1,0
352,128,116197,1,2
296,184,116411,2,0,L|248:232,2,40,0|0|4
256,336,117054,5,4
184,304,117268,1,0
128,240,117482,1,0
104,160,117697,1,0
184,160,117911,2,0,B|184:248,2,80,2|0|0
264,160,118554,1,0
344,160,118768,6,0,B|344:72,1,80,4|0
264,80,119197,1,0
184,80,119411,1,0
104,80,119625,2,0,B|104:176,1,80,2|0
104,240,120054,2,0,B|104:320,2,40
184,240,120482,6,0,B|352:160,1,160,4|0
408,168,121125,2,0,B|480:168,2,40,0|0|2
408,248,121554,1,0
328,248,121768,2,0,B|328:320,2,40
328,168,122197,1,2
248,168,122411,1,0
248,248,122625,1,0
168,248,122840,1,0
168,168,123054,2,0,B|168:80,3,80,2|0|0|0
248,88,123911,5,4
320,128,124125,1,0
320,128,124232,1,0
320,128,124340,1,0
360,192,124554,1,0
320,264,124768,2,0,B|408:328,2,80,2|0|0
320,264,125411,1,0
256,312,125625,6,0,B|192:304|176:248,1,80,4|0
160,200,126054,1,0
160,200,126161,1,0
160,200,126268,1,0
200,128,126482,2,0,B|208:64|264:48,1,80,2|0
320,56,126911,2,0,B|400:56,2,40
328,136,127340,6,0,B|264:232,1,80,4|0
360,208,127768,2,0,B|424:304,1,80
336,312,128197,1,2
336,312,128304,1,0
336,312,128411,1,0
256,312,128625,2,0,B|160:312,1,80
120,248,129054,5,2
120,248,129268,1,0
168,184,129482,1,0
168,184,129697,1,0
240,144,129911,1,2
240,144,130018,1,0
240,144,130125,1,2
320,144,130340,2,0,B|368:232,1,80,2|2
360,296,130768,6,0,B|440:296,2,40,4|0|0
280,296,131197,1,0
200,296,131411,1,0
120,296,131625,2,0,B|120:192,1,80
120,136,132054,1,0
152,136,132161,1,0
184,136,132268,1,0
264,136,132482,5,4
264,136,132697,1,0
344,136,132911,1,0
376,136,133018,1,0
408,136,133125,1,0
408,216,133340,1,0
328,216,133554,1,0
248,216,133768,1,0
216,216,133875,1,0
184,216,133982,1,0
104,216,134197,6,0,B|192:144,1,80,4|0
240,152,134625,2,0,B|328:216,1,80
384,176,135054,1,4
408,144,135161,1,0
384,112,135268,1,0
312,80,135482,2,0,B|208:80,1,80
136,168,135911,6,0,B|216:248,1,80,4|0
312,272,136340,2,0,B|392:200,1,80,4|0
344,112,136768,1,4
312,112,136875,1,0
280,112,136982,1,0
176,160,137197,1,4
176,192,137304,1,0
176,224,137411,1,0
176,256,137518,1,0
176,288,137625,1,4
