osu file format v5

[General]
AudioFilename: You (Extended Trance Mix).mp3
AudioLeadIn: 176
PreviewTime: -1
Countdown: 1
SampleSet: Soft
StackLeniency: 0.7
Mode: 0
LetterboxInBreaks: 1
EditorDistanceSpacing: 0.800000011920929

[Metadata]
Title:You (Exetended Trance Mix)
Artist:NicoNicoDouga
Creator:Echona
Version:Normal
Source:Higurashi no Naku Koro ni
Tags:

[Difficulty]
HPDrainRate:5
CircleSize:4
OverallDifficulty:5
SliderMultiplier:1.4
SliderTickRate:0.5

[Events]
//Background and Video events
0,0,"Rena.jpg"
//Break Periods
2,62397,67857
2,82968,88428
//Storyboard Layer 0 (Background)
//Storyboard Layer 1 (Fail)
//Storyboard Layer 2 (Pass)
//Storyboard Layer 3 (Foreground)
//Storyboard Sound Samples
//Background Colour Transformations
3,100,163,162,255

[TimingPoints]
7340,428.571428571429,4,2,0,100,1,0
33911,-100,4,1,0,79,0,0
34018,-100,4,2,0,100,0,0
41197,-100,4,1,0,50,0,0
41625,-100,4,2,0,100,0,0
48054,-100,4,1,0,50,0,0
48482,-100,4,2,0,100,0,0
54911,-100,4,1,0,70,0,0
55340,-100,4,2,0,100,0,0
82768,-100,4,1,0,100,0,0
82875,-100,4,2,0,100,0,0
116625,-100,4,1,0,75,0,0
117054,-100,4,2,0,100,0,0
137625,-100,4,1,0,100,0,0

[Colours]
Combo1 : 194,134,255
Combo2 : 255,186,117
Combo3 : 242,242,242
Combo4 : 140,211,242

[HitObjects]
32,96,21054,1,2
144,96,21482,1,2
256,96,21911,1,4
480,96,22768,5,2
368,96,23197,1,2
256,96,23625,1,4
24,192,24482,6,2,B|24:344,1,140
136,328,25340,2,0,B|136:176,1,140,0|2
248,192,26197,2,2,B|248:344,2,140,2|2|4
472,192,27911,5,4
472,192,28340,1,8
472,88,28768,1,0
472,88,29197,1,8
368,88,29625,1,4
368,88,30054,1,8
264,88,30482,1,0
264,88,30911,1,8
264,192,31340,6,0,B|120:192,3,140,4|2|0|2
112,296,33054,2,0,B|400:296,1,280,2|4
400,80,34768,6,2,B|312:80|272:152,1,140
368,200,35625,2,2,B|336:272|240:272,1,140,0|2
184,192,36482,2,2,B|88:184|64:120,1,140
160,64,37340,1,0
160,64,37554,1,2
160,64,37768,1,2
272,80,38197,6,2,B|360:104|368:192,1,140
256,192,39054,2,2,B|280:272|368:280,1,140,0|2
456,240,39911,2,2,B|472:328|400:368,2,140
456,240,41197,1,4
424,136,41625,6,2,B|392:56|304:48,1,140
256,136,42482,2,0,B|176:136,2,70,0|0|2
344,200,43340,2,2,B|312:280|232:280,1,140
136,248,44197,1,0
80,232,44411,1,2
56,176,44625,1,2
120,88,45054,6,2,B|272:88,1,140
328,168,45911,2,0,B|408:168,2,70,0|0|2
256,248,46768,2,2,B|104:248,2,140
256,248,48054,1,4
256,144,48482,5,0
368,144,48911,1,8
480,144,49340,1,0
480,144,49554,1,0
480,144,49768,1,8
480,256,50197,1,0
368,256,50625,1,8
368,144,51054,2,0,B|368:72,2,70,0|8|8
368,256,51911,5,0
256,256,52340,1,8
144,256,52768,1,0
88,256,52982,1,8
32,256,53197,1,8
64,152,53625,2,0,B|64:0,1,140,0|8
176,16,54482,2,0,B|176:168,1,140,0|4
256,232,55340,6,0,B|256:320,2,70,2|0|2
312,136,56197,2,0,B|392:136,2,70,2|0|2
200,136,57054,2,0,B|120:136,2,70,2|0|2
256,232,57911,1,0
256,232,58125,1,2
256,232,58340,1,2
336,312,58768,6,4,B|416:312,1,70,4|0
464,304,59197,2,2,B|480:224,1,70,2|0
464,176,59625,2,4,B|384:176,1,70,4|0
376,120,60054,2,2,B|288:120,1,70,2|0
256,144,60482,5,4
208,176,60697,1,0
160,144,60911,1,4
112,176,61125,1,0
64,144,61340,2,2,B|24:144,8,35,2|2|2|2|2|2|2|2|4
32,192,69054,5,4
480,192,70768,5,4
256,80,72482,5,4
256,304,73340,1,4
432,192,74197,5,4
432,80,74625,1,4
336,80,75054,1,4
336,80,75268,1,4
336,80,75482,1,4
336,80,75697,1,4
336,80,75911,1,4
256,144,76340,5,0
176,80,76768,2,0,B|96:80|72:168,1,140
64,216,77411,1,0
56,272,77625,2,0,B|200:272,1,140,4|0
304,272,78482,2,0,B|384:256|400:176,1,140
416,128,79125,1,0
424,72,79340,1,4
312,72,79768,6,0,B|264:120|216:184,1,140,0|4
192,224,80411,1,0
240,256,80625,1,0
272,208,80840,1,0
256,192,81054,12,4,82768
64,96,89625,6,0,B|152:96,1,70
192,96,90054,1,8
304,96,90482,2,2,B|448:96,1,140,2|8
384,192,91340,6,0,B|304:192,1,70
256,192,91768,1,8
144,192,92197,2,2,B|0:192,1,140,2|8
64,288,93054,5,2
120,288,93268,1,0
176,288,93482,1,8
288,288,93911,1,0
400,288,94340,1,8
472,208,94768,6,2,B|472:120,1,70,2|0
416,152,95197,2,2,B|416:80,1,70,2|0
360,104,95625,2,2,B|360:24,2,70,2|8|8
256,144,96482,5,6
200,144,96697,1,0
200,88,96911,1,6
88,88,97340,2,2,B|48:88,4,35
200,88,98197,5,6
256,88,98411,1,0
256,144,98625,1,6
256,256,99054,2,2,B|256:296,4,35
256,144,99911,5,6
312,144,100125,1,0
312,88,100340,1,6
424,88,100768,2,2,B|464:88|464:88|456:88,4,35
312,88,101625,5,6
256,88,101840,1,0
200,88,102054,1,6
256,184,102482,2,2,B|256:224,4,35
256,296,103340,5,4
256,296,103768,1,4
160,352,104197,2,2,B|72:344|56:256,1,140
64,216,104840,1,0
104,176,105054,5,4
104,176,105482,1,4
216,176,105911,2,2,B|304:176|320:88,1,140
328,40,106554,1,0
272,40,106768,6,4,B|192:40,1,70,4|0
144,40,107197,2,2,B|144:128,1,70,2|0
144,168,107625,2,4,B|56:168,1,70,4|0
16,168,108054,2,2,B|16:240,1,70,2|0
16,296,108482,2,2,B|-32:296,12,35
120,288,110197,6,0,B|232:256|272:136,1,210,2|0
272,96,111054,1,2
248,48,111268,1,2
192,64,111482,1,0
216,112,111697,1,0
264,152,111911,6,2,B|360:224|472:192,1,210,2|0
488,144,112768,1,2
464,88,112982,1,2
408,64,113197,1,0
352,80,113411,1,0
320,128,113625,6,0,B|312:168|320:208,1,70
360,232,114054,2,0,B|344:264|304:288,1,70
256,296,114482,1,2
200,304,114697,1,0
144,296,114911,1,0
96,200,115340,5,0
96,200,115554,1,0
144,168,115768,1,2
144,168,115982,1,2
192,136,116197,1,0
256,224,116625,1,4
320,136,117054,6,0,B|496:264,1,210,2|0
488,312,117911,1,2
432,312,118125,1,2
376,312,118340,1,0
320,312,118554,1,0
264,312,118768,6,0,B|264:96,1,210,2|0
208,104,119625,1,2
152,104,119840,1,2
96,104,120054,1,0
40,104,120268,1,0
40,160,120482,6,0,B|32:192|40:232,1,70
80,272,120911,2,0,B|120:288|160:288,1,70
200,264,121340,2,0,B|240:256|280:264,1,70
320,280,121768,2,0,B|360:280|400:272,1,70
440,256,122197,2,0,B|448:176|392:112,1,140
304,72,123054,1,4
248,80,123268,1,0
256,136,123482,1,4
272,248,123911,5,2
200,336,124340,1,0
200,336,124554,2,0,B|112:344|88:256,1,140
88,208,125197,1,0
120,160,125411,1,0
176,144,125625,1,2
280,168,126054,5,0
280,168,126268,2,0,B|352:208|408:144,1,140
432,96,126911,1,0
400,48,127125,1,0
344,32,127340,1,2
232,72,127768,5,0
232,72,127982,2,0,B|184:144|248:216,1,140
280,240,128625,1,0
336,248,128840,1,0
384,216,129054,5,0
384,104,129482,1,2
272,104,129911,1,4
160,104,130340,1,4
160,216,130768,1,4
160,328,131197,5,2
160,328,131411,2,2,B|312:328,1,140
352,328,132054,1,0
408,328,132268,1,0
408,272,132482,1,4
408,160,132911,5,2
408,160,133125,2,2,B|256:160,1,140
208,160,133768,1,0
152,160,133982,1,0
152,216,134197,1,4
256,264,134625,5,0
256,264,134840,1,0
256,264,135054,1,4
360,216,135482,1,0
360,216,135697,1,0
360,216,135911,1,4
256,168,136340,1,4
152,216,136768,5,0
152,216,136982,1,0
152,216,137197,1,0
152,216,137411,1,0
152,216,137625,1,4
