osu file format v5

[General]
AudioFilename: You (Extended Trance Mix).mp3
AudioLeadIn: 176
PreviewTime: -1
Countdown: 1
SampleSet: Soft
StackLeniency: 0.7
Mode: 0
LetterboxInBreaks: 1
EditorDistanceSpacing: 0.800000011920929

[Metadata]
Title:You (Exetended Trance Mix)
Artist:NicoNicoDouga
Creator:Echona
Version:Easy
Source:Higurashi no Naku Koro ni
Tags:

[Difficulty]
HPDrainRate:2
CircleSize:3
OverallDifficulty:4
SliderMultiplier:1.2
SliderTickRate:0.5

[Events]
//Background and Video events
0,0,"Rena.jpg"
//Break Periods
2,62397,67740
2,82968,88311
//Storyboard Layer 0 (Background)
//Storyboard Layer 1 (Fail)
//Storyboard Layer 2 (Pass)
//Storyboard Layer 3 (Foreground)
//Storyboard Sound Samples
//Background Colour Transformations
3,100,163,162,255

[TimingPoints]
7340,428.571428571429,4,2,0,100,1,0
33911,-100,4,1,0,79,0,0
34018,-100,4,2,0,79,0,0
48482,-100,4,1,0,100,0,0
48911,-100,4,2,0,100,0,0
51054,-100,4,1,0,70,0,0
51482,-100,4,2,0,100,0,0
54482,-100,4,1,0,100,0,0
54911,-100,4,2,0,100,0,0
61125,-100,4,1,0,49,0,0
68625,-100,4,2,0,100,0,0
76125,-100,4,1,0,70,0,0
82768,-100,4,1,0,100,0,0
82875,-100,4,2,0,100,0,0
108268,-100,4,1,0,45,0,0
109982,-100,4,2,0,100,0,0
137625,-100,4,1,0,100,0,0

[Colours]
Combo1 : 194,134,255
Combo2 : 255,186,117
Combo3 : 242,242,242
Combo4 : 140,211,242

[HitObjects]
160,96,21054,1,2
352,96,21911,5,4
352,288,22768,5,2
160,288,23625,5,4
160,96,24482,6,2,B|224:80|288:96,2,120,2|2|4
352,288,26197,6,2,B|288:304|224:288,2,120,2|2|4
352,96,27911,5,2
352,96,28340,1,2
352,96,28768,1,4
160,288,29625,5,2
160,288,30054,1,2
160,288,30482,1,4
256,192,31340,12,4,33911
408,96,34768,6,2,B|344:96|304:168,1,120,2|2
392,200,35625,2,2,B|368:264|296:272,1,120,2|2
232,200,36482,2,2,B|160:200|144:128,1,120
216,64,37340,1,0
216,64,37768,1,2
312,80,38197,6,2,B|376:112|368:192,1,120
272,176,39054,2,2,B|272:248|344:272,1,120,2|2
432,248,39911,2,2,B|448:320|384:352,2,120
376,64,41625,6,2,B|304:56|280:128,1,120
368,160,42482,2,2,B|328:232|264:224,1,120
200,160,43340,2,2,B|128:160|104:96,1,120
176,32,44197,1,0
176,32,44625,1,2
272,32,45054,6,2,B|344:48|336:120,1,120
280,192,45911,2,2,B|144:192,1,120
80,248,46768,2,2,B|88:320|168:328,2,120,2|2|4
80,56,48482,5,4
80,56,48911,1,8
256,136,49768,1,8
432,56,50625,1,8
432,56,51054,1,4
432,56,51482,1,8
432,248,52340,5,8
256,336,53197,1,8
88,248,54054,1,8
88,248,54482,1,4
88,248,54911,1,8
112,152,55340,6,0,B|112:24,1,120,2|8
208,32,56197,2,0,B|208:160,1,120,2|8
304,152,57054,2,0,B|304:16,1,120,2|8
400,32,57911,2,4,B|400:168,1,120,2|8
400,248,58768,5,2
304,248,59197,1,8
208,248,59625,1,2
112,248,60054,1,8
160,328,60482,1,2
256,328,60911,1,2
352,328,61340,2,0,B|392:328,8,30,0|0|0|0|0|0|0|0|4
160,192,69054,5,2
352,192,70768,5,2
256,96,72482,5,2
256,288,73340,1,2
424,192,74197,6,0,B|424:64,1,120,2|2
328,96,75054,2,0,B|328:168,4,60,2|2|2|2|2
248,40,76340,6,0,B|176:48|168:128,2,120,0|4|0
328,96,77625,2,0,B|328:232,1,120,4|0
328,312,78482,2,0,B|200:312,1,120,4|0
112,312,79340,1,4
112,216,79768,1,4
208,216,80197,1,4
304,216,80625,1,4
256,192,81054,12,4,82768
88,96,89625,6,2,B|224:96,1,120,2|8
304,96,90482,2,2,B|432:96,1,120,2|8
424,192,91340,6,2,B|296:192,1,120,2|8
208,192,92197,2,2,B|80:192,1,120,2|8
64,288,93054,5,2
160,288,93482,1,8
256,288,93911,1,2
352,288,94340,1,8
448,288,94768,2,2,B|448:160,1,120,2|8
352,192,95625,2,8,B|352:120,2,60,2|8|8
256,192,96482,5,2
256,192,96911,1,8
160,192,97340,2,0,B|88:192,2,60,2|8|8
256,192,98197,5,2
256,192,98625,1,8
256,288,99054,2,0,B|256:352,2,60,2|8|8
256,192,99911,5,2
256,192,100340,1,8
352,192,100768,2,0,B|416:192,2,60,2|8|8
304,104,101625,5,2
208,104,102054,1,8
208,200,102482,1,2
304,200,102911,1,8
256,280,103340,5,4
256,280,103768,1,0
192,352,104197,2,2,B|120:344|112:272,1,120
136,184,105054,5,4
136,184,105482,1,0
232,184,105911,2,2,B|304:184|328:120,1,120,2|2
352,32,106768,6,4,B|216:32,1,120,4|0
136,32,107625,1,4
136,32,108054,1,0
48,80,108482,2,0,B|16:80,12,30,0|0|0|0|4|0|0|0|0|0|0|0|4
136,120,110197,6,2,B|240:128|264:240,1,180,4|0
264,280,111054,1,2
264,280,111482,1,2
360,256,111911,6,2,B|456:208|424:104,1,180,4|0
400,64,112768,1,2
400,64,113197,1,2
304,64,113625,6,4,B|200:88|208:200,1,180,4|0
224,240,114482,2,2,B|208:312|120:296,1,120,2|2
48,248,115340,5,2
112,176,115768,1,2
176,104,116197,1,2
368,104,117054,6,2,B|368:288,1,180,4|0
368,328,117911,1,2
368,328,118340,1,2
272,328,118768,6,2,B|272:144,1,180,4|0
272,96,119625,1,2
272,96,120054,1,2
176,96,120482,6,2,B|176:280,1,180,4|0
176,320,121340,2,2,B|112:360|56:312,1,120,2|2
56,224,122197,2,0,B|56:88,1,120,4|2
144,64,123054,2,4,B|144:200,1,120,4|2
232,224,123911,5,4
328,216,124340,1,0
328,216,124554,2,0,B|400:216|416:136,1,120
424,96,125197,1,2
424,96,125625,1,4
344,32,126054,5,0
344,32,126268,2,0,B|264:32|256:112,1,120
248,144,126911,1,2
248,144,127340,1,4
248,240,127768,5,0
248,240,127982,2,0,B|176:264|128:208,1,120
104,176,128625,1,2
160,96,129054,6,2,B|288:96,1,120,4|2
216,168,129911,2,4,B|344:168,2,120,4|2|4
168,256,131197,5,2
168,256,131411,2,2,B|296:256,1,120
336,256,132054,1,0
432,256,132482,1,4
384,336,132911,5,2
384,336,133125,2,2,B|248:336,1,120
216,336,133768,1,0
120,336,134197,1,4
168,256,134625,5,2
256,216,135054,1,4
344,256,135482,1,2
256,192,135911,12,4,137625
