osu file format v9

[General]
AudioFilename: K-On! Masked DeDeDe Theme [REUPLOAD].mp3
AudioLeadIn: 0
PreviewTime: 13542
Countdown: 0
SampleSet: Normal
StackLeniency: 0.7
Mode: 0
LetterboxInBreaks: 1

[Editor]
DistanceSpacing: 0
BeatDivisor: 4
GridSize: 8

[Metadata]
Title:VS RitsuMioDerere
Artist:NicoNicoDouga
Creator:Leorda
Version:Tsumugi
Source:K-ON!
Tags:yui hirasawa mio akiyama ritsu tainaka tsumugi kotobuki azusa nakano rokodo roko-don

[Difficulty]
HPDrainRate:4
CircleSize:3
OverallDifficulty:4
ApproachRate:4
SliderMultiplier:0.9
SliderTickRate:2

[Events]
//Background and Video events
0,0,"Tsumugi.jpg"
Video,0,"Video desu yo!.flv"
//Break Periods
//Storyboard Layer 0 (Background)
//Storyboard Layer 1 (Fail)
//Storyboard Layer 2 (Pass)
//Storyboard Layer 3 (Foreground)
//Storyboard Sound Samples
//Background Colour Transformations
3,100,163,162,255

[TimingPoints]
8695,400.133377792598,4,1,0,80,1,0
71115,-100,4,2,0,0,0,0

[Colours]
Combo1 : 255,176,216
Combo2 : 255,183,183
Combo3 : 255,255,193
Combo4 : 183,255,183
Combo5 : 176,176,255

[HitObjects]
96,64,10295,1,0
80,136,10695,1,0
96,208,11095,1,0
168,224,11495,1,0
240,208,11896,1,0
256,136,12296,1,0
240,64,12696,1,0
312,48,13096,1,0
384,64,13496,6,0,B|384:240|208:240,1,270
152,240,15097,2,0,B|136:120|272:144,1,180,4|0
192,16,16697,6,0,B|19:48|40:224,1,270
64,272,18298,2,0,B|342:272,1,270,4|0
392,224,19898,5,0
440,168,20298,1,8
441,95,20699,1,0
393,39,21099,1,8
321,39,21499,2,0,B|249:103,3,90,0|8|0|8
253,170,23099,5,0
193,207,23499,1,8
137,167,23900,1,0
86,116,24300,1,8
136,65,24700,5,0
186,14,25100,1,8
236,64,25500,1,0
236,64,25700,1,4
344,100,26300,6,0,B|344:206|464:206,2,180
242,201,28701,1,0
122,281,29501,6,0,B|210:324|298:284,2,180
122,137,31902,1,0
223,35,32703,5,0
281,71,33103,1,8
337,111,33503,1,0
337,147,33703,1,0
337,183,33903,1,8
281,231,34303,5,2
225,279,34703,1,2
169,231,35103,1,2
144,208,35303,1,0
120,184,35503,1,4
113,111,35904,6,0,B|116:54|196:54,1,90,0|8
241,55,36704,2,0,B|304:54|312:118,1,90,0|8
256,192,37504,12,0,39105
112,56,40705,5,0
148,56,40905,1,2
184,56,41105,1,0
220,56,41305,1,2
256,56,41505,2,0,B|256:248,1,180
112,236,43106,5,0
256,236,43906,1,0
312,280,44306,1,0
384,280,44707,1,0
440,240,45107,1,4
440,168,45507,5,0
440,96,45907,1,0
367,96,46307,1,0
367,168,46707,1,0
151,168,47908,1,4
256,192,48708,12,0,50308
400,296,51109,6,0,B|400:232,4,45
255,296,52709,5,0
184,312,53109,1,0
112,296,53509,1,0
111,152,54310,1,0
184,136,54710,1,0
255,152,55110,1,0
399,152,55910,5,0
471,152,56310,1,0
256,192,56711,12,0,58311
200,240,59111,6,0,B|152:208|144:168,1,90
126,101,59912,2,0,B|150:58|214:58,1,90
272,58,60712,2,0,B|334:58|358:114,1,90
348,96,61312,1,0
348,96,61512,5,0
326,162,61912,1,0
358,226,62312,1,0
342,298,62713,1,0
256,192,63113,12,4,64713
176,192,65113,6,4,B|176:136|240:136,1,90,0|0
304,136,65914,2,4,B|400:136,1,90,0|0
394,208,66714,1,4
394,280,67114,1,0
394,352,67514,1,4
322,352,67914,5,0
250,352,68314,1,0
178,352,68715,1,0
142,352,68915,1,0
106,352,69115,1,0
106,280,69515,6,4,B|104:168,3,90
256,192,71115,12,0,75917
