osu file format v9

[General]
AudioFilename: K-On! Masked DeDeDe Theme [REUPLOAD].mp3
AudioLeadIn: 0
PreviewTime: 13542
Countdown: 0
SampleSet: Normal
StackLeniency: 0.7
Mode: 0
LetterboxInBreaks: 1

[Editor]
DistanceSpacing: 0.8
BeatDivisor: 4
GridSize: 8

[Metadata]
Title:VS RitsuMioDerere
Artist:NicoNicoDouga
Creator:Leorda
Version:Mio
Source:K-ON!
Tags:yui hirasawa mio akiyama ritsu tainaka tsumugi kotobuki azusa nakano rokodo roko-don

[Difficulty]
HPDrainRate:4
CircleSize:4
OverallDifficulty:5
ApproachRate:5
SliderMultiplier:1.2
SliderTickRate:2

[Events]
//Background and Video events
0,0,"Mio.jpg"
Video,0,"Video desu yo!.flv"
//Break Periods
//Storyboard Layer 0 (Background)
//Storyboard Layer 1 (Fail)
//Storyboard Layer 2 (Pass)
//Storyboard Layer 3 (Foreground)
//Storyboard Sound Samples
//Background Colour Transformations
3,100,163,162,255

[TimingPoints]
8695,400.133377792598,4,1,0,80,1,0
10295,-100,4,1,0,10,0,0
10695,-100,4,1,0,30,0,0
11095,-100,4,1,0,50,0,0
11495,-100,4,1,0,70,0,0
11896,-100,4,1,0,10,0,0
12296,-100,4,1,0,30,0,0
12696,-100,4,1,0,51,0,0
13096,-100,4,1,0,70,0,0
13496,-100,4,1,0,80,0,0
71115,-100,4,2,0,0,0,0

[Colours]
Combo1 : 255,176,216
Combo2 : 255,183,183
Combo3 : 255,255,193
Combo4 : 183,255,183
Combo5 : 176,176,255

[HitObjects]
256,192,10295,2,0,B|320:192,7,60
364,192,11896,2,0,B|376:128,7,60
344,96,13496,6,0,B|200:96,3,120
127,96,15097,5,0
80,184,15497,1,0
80,280,15897,1,4
104,320,16097,1,0
152,336,16297,1,4
248,336,16697,6,0,B|376:336,3,120
448,288,18298,5,0
448,192,18698,1,0
448,96,19098,1,0
352,96,19498,1,0
352,192,19898,6,0,B|280:208|288:288,2,120,0|8|0
283,123,21099,1,8
187,123,21499,5,0
91,123,21899,1,2
91,219,22299,1,2
187,219,22699,1,4
187,315,23099,6,0,B|251:315|251:227,1,120,0|8
250,134,23900,2,0,B|323:139|331:227,1,120,0|8
328,306,24700,2,0,B|323:379|427:379,1,120,0|8
404,281,25500,2,0,B|404:191,1,90,0|4
404,71,26300,6,0,B|324:83|324:163,1,120,0|8
228,147,27101,1,0
132,147,27501,1,8
36,147,27901,5,0
36,243,28301,1,8
132,243,28701,1,0
228,243,29101,1,8
324,243,29501,6,0,B|388:243,2,60
324,339,30302,2,0,B|396:339,2,60
228,339,31102,6,0,B|156:339,1,60
120,339,31502,2,0,B|120:272,1,60
120,232,31902,1,0
120,184,32102,2,0,B|141:107|229:107|245:187,1,180
432,128,33503,5,0
432,224,33903,1,0
336,224,34303,5,0
240,224,34703,1,2
48,224,35503,1,4
48,128,35904,5,0
144,128,36304,1,0
240,128,36704,1,0
336,128,37104,1,0
256,192,37504,12,0,38905
256,192,39105,5,0
160,192,39505,1,0
64,192,39905,1,0
64,96,40305,1,0
160,96,40705,1,0
208,96,40905,5,2
208,192,41305,1,2
256,192,41505,1,2
352,192,41906,2,8,B|352:144,4,30
159,192,43106,5,0
159,288,43506,1,0
255,288,43906,1,0
351,288,44306,1,0
351,192,44707,1,0
255,192,45107,1,4
255,96,45507,6,0,B|312:64|383:96,1,120,0|8
464,88,46307,1,0
464,184,46707,1,8
464,281,47107,5,0
368,281,47507,1,8
272,281,47908,1,4
256,192,48708,12,0,50308
96,56,51109,5,4
64,96,51309,1,4
96,136,51509,1,4
184,96,51909,6,0,B|328:96,3,120,0|8|0|8
304,192,53509,5,0
264,280,53910,1,8
168,280,54310,1,0
120,264,54510,1,0
96,224,54710,1,8
184,184,55110,6,0,B|184:112|272:112,3,120,0|8|0|8
256,192,56711,12,0,58311
72,56,59111,6,0,B|72:136|168:128,1,120,0|2
243,128,59912,1,0
336,128,60312,1,2
435,128,60712,1,0
392,312,61512,6,0,B|392:168,1,120,0|2
296,192,62312,2,0,B|152:192,1,120,0|2
256,192,63113,12,0,64513
128,40,65113,5,0
64,112,65513,1,0
80,208,65914,1,0
160,256,66314,1,4
248,224,66714,1,0
304,144,67114,1,0
296,96,67314,1,0
280,48,67514,1,0
232,32,67714,1,0
184,24,67914,1,4
192,120,68314,6,0,B|88:208,6,120,0|0|0|0|0|0|0
256,192,71115,12,0,75917
