osu file format v9

[General]
AudioFilename: K-On! Masked DeDeDe Theme [REUPLOAD].mp3
AudioLeadIn: 0
PreviewTime: 13542
Countdown: 0
SampleSet: Normal
StackLeniency: 0.7
Mode: 0
LetterboxInBreaks: 1

[Editor]
DistanceSpacing: 0.8
BeatDivisor: 4
GridSize: 8

[Metadata]
Title:VS RitsuMioDerere
Artist:NicoNicoDouga
Creator:Leorda
Version:Azusa
Source:K-ON!
Tags:yui hirasawa mio akiyama ritsu tainaka tsumugi kotobuki azusa nakano rokodo roko-don

[Difficulty]
HPDrainRate:7
CircleSize:4
OverallDifficulty:7
ApproachRate:8
SliderMultiplier:1.7
SliderTickRate:2

[Events]
//Background and Video events
0,0,"Azusa.png"
Video,0,"Video desu yo!.flv"
//Break Periods
//Storyboard Layer 0 (Background)
//Storyboard Layer 1 (Fail)
//Storyboard Layer 2 (Pass)
//Storyboard Layer 3 (Foreground)
//Storyboard Sound Samples
//Background Colour Transformations
3,100,163,162,255

[TimingPoints]
8695,400.133377792598,4,1,0,80,1,0
10295,-100,4,1,0,10,0,0
10695,-100,4,1,0,30,0,0
11095,-100,4,1,0,50,0,0
11495,-100,4,1,0,70,0,0
11896,-100,4,1,0,10,0,0
12296,-100,4,1,0,30,0,0
12696,-100,4,1,0,40,0,0
13096,-100,4,1,0,60,0,0
13496,-100,4,1,0,80,0,0
71115,-100,4,2,0,0,0,0

[Colours]
Combo1 : 255,176,216
Combo2 : 255,183,183
Combo3 : 255,255,193
Combo4 : 183,255,183
Combo5 : 176,176,255

[HitObjects]
72,32,10295,1,0
138,32,10495,1,2
104,88,10695,1,0
40,88,10895,1,2
72,144,11095,1,0
136,144,11295,1,2
168,88,11495,1,0
104,88,11696,1,2
232,88,11896,5,0
298,88,12096,1,8
264,144,12296,1,0
200,144,12496,1,8
232,200,12696,1,0
296,200,12896,1,8
328,144,13096,1,0
264,144,13296,1,8
298,88,13496,5,4
312,57,13596,1,0
376,88,13796,1,0
395,59,13896,1,0
456,88,14096,1,4
440,120,14196,1,0
413,182,14396,1,0
400,208,14496,1,0
336,184,14697,1,4
302,184,14797,1,0
268,184,14897,1,4
234,184,14997,1,0
200,184,15097,5,4
200,218,15197,1,0
200,286,15397,1,0
234,286,15497,1,0
302,286,15697,1,4
336,286,15797,1,0
404,286,15997,1,0
438,286,16097,1,0
506,286,16297,1,4
506,252,16397,1,0
506,218,16497,1,4
506,184,16597,1,0
472,168,16697,5,4
438,168,16797,1,0
370,168,16997,1,0
370,202,17097,1,0
302,202,17297,1,4
302,236,17397,1,0
234,236,17597,1,0
234,270,17698,1,0
234,338,17898,1,4
268,338,17998,1,0
302,338,18098,1,4
336,338,18198,1,0
370,338,18298,5,4
404,338,18398,1,0
472,336,18598,1,0
482,305,18698,1,0
456,240,18898,1,0
472,208,18998,1,0
480,176,19098,2,0,B|456:104|384:104|352:192,1,170
224,176,19898,5,0
160,176,20098,1,0
112,128,20298,1,8
112,64,20498,1,0
128,32,20598,1,0
192,24,20799,1,0
226,24,20899,1,0
294,24,21099,1,8
362,24,21299,1,0
376,88,21499,6,0,B|376:144|296:144,1,85
321,210,21899,2,0,B|320:272|240:272,1,85,4|0
272,336,22299,2,0,B|208:336|192:280,1,85
199,231,22699,2,0,B|248:224|248:160,1,85,4|0
184,152,23099,5,0
224,96,23299,1,0
288,96,23499,1,2
328,152,23700,1,0
396,152,23900,1,2
440,200,24100,1,0
440,268,24300,1,2
391,316,24500,1,0
323,316,24700,6,0,B|272:320|256:264,1,85
208,320,25100,2,0,B|184:272|208:232,1,85
128,272,25500,2,0,B|128:208|176:152,1,127.5,0|4
16,24,26300,5,0
84,24,26500,1,0
152,24,26701,1,0
220,24,26901,1,0
288,24,27101,1,0
288,58,27201,1,0
288,125,27401,1,0
288,159,27501,1,0
356,159,27701,1,0
356,227,27901,6,0,B|356:327,1,85
288,312,28301,2,0,B|192:312,1,85
134,312,28701,2,0,B|134:262,1,42.5
65,269,29001,2,0,B|65:214,3,42.5
65,158,29501,5,0
133,158,29702,1,0
96,104,29902,1,0
164,104,30102,1,0
200,160,30302,2,0,B|288:160,1,85
256,224,30702,2,0,B|352:224,1,85
312,288,31102,6,0,B|416:288,1,85
368,352,31502,1,0
300,352,31702,1,0
232,352,31902,1,0
164,352,32102,2,0,B|64:336|48:192,1,170
55,167,32703,5,0
96,112,32903,1,0
120,136,33003,1,0
144,160,33103,1,8
168,184,33203,1,0
192,208,33303,1,0
240,159,33503,1,0
288,207,33703,1,0
336,158,33903,1,8
384,206,34103,1,0
335,254,34303,6,4,B|335:302,2,42.5
286,302,34703,1,0
237,350,34903,1,0
188,301,35103,1,0
139,252,35303,1,0
90,203,35503,1,2
90,135,35704,1,2
90,66,35904,5,2
158,66,36104,1,2
192,66,36204,1,2
226,66,36304,1,2
226,134,36504,1,2
226,168,36604,1,2
226,202,36704,1,2
226,270,36904,1,2
260,270,37004,1,2
294,270,37104,1,2
328,270,37204,1,2
362,270,37304,1,2
256,192,37504,12,0,38905
256,144,39105,5,0
208,192,39305,1,0
256,240,39505,1,0
304,192,39705,1,0
256,112,39905,1,0
176,192,40105,1,0
256,272,40305,1,0
336,192,40505,1,0
176,192,40705,5,0
336,192,40905,1,8
176,192,41105,1,0
336,192,41305,1,8
256,192,41505,6,0,B|320:120,1,85
256,192,41906,2,0,B|192:120,1,85
144,168,42306,6,0,B|112:112|152:72,3,85
72,80,43106,2,0,B|88:24|136:16,3,85
193,18,43906,1,0
329,18,44306,1,0
432,112,44707,5,0
376,152,44907,1,0
344,160,45007,1,0
312,160,45107,1,4
184,160,45507,6,0,B|160:224|208:248,1,85
128,248,45907,2,0,B|152:296|200:312,1,85
136,344,46307,2,0,B|80:312|64:272,2,85
40,248,47107,5,0
40,176,47307,1,8
56,112,47507,1,8
112,80,47708,1,8
144,64,47808,1,0
176,56,47908,1,4
256,192,48708,12,0,50308
400,296,51109,6,4,B|432:256,1,42.5
368,272,51309,2,4,B|360:208,1,42.5
344,296,51509,2,4,B|280:272,1,42.5
368,320,51709,2,4,B|328:352,1,42.5
304,344,51909,6,0,B|248:360|200:328,1,85
256,280,52309,2,0,B|200:256|168:296,1,85,8|0
144,352,52709,2,0,B|88:328|116:263,1,85
48,256,53109,2,0,B|72:200|112:192,1,85,8|0
56,144,53509,5,0
184,88,53910,1,8
320,64,54310,1,0
376,104,54510,1,0
408,168,54710,1,8
472,288,55110,6,0,B|432:328|368:328,1,85
400,256,55510,2,0,B|344:248|328:312|328:304,1,85,8|0
264,312,55910,2,0,B|263:272|264:248|320:216,1,85
224,216,56310,2,0,B|192:240|184:264|200:304,1,85,8|0
256,192,56711,12,0,57711
88,64,58111,5,8
88,136,58311,1,8
156,136,58511,2,8,B|184:96,2,42.5
156,204,58911,1,8
156,238,59011,1,8
156,272,59111,1,8
224,272,59311,1,8
292,272,59511,1,8
360,272,59712,6,8,B|408:224|384:176,1,85
320,208,60112,2,8,B|288:168,2,42.5
280,152,60512,1,0
256,128,60612,1,8
208,80,60812,2,8,B|154:42|74:98,1,127.5
144,208,61512,5,0
144,344,61912,1,0
280,344,62312,1,0
280,208,62713,1,0
256,192,63113,12,0,64513
208,192,64713,5,4
208,158,64813,1,0
276,158,65013,1,0
276,192,65113,1,0
344,192,65313,1,4
344,226,65413,1,0
412,226,65613,1,0
412,260,65714,1,0
412,328,65914,1,4
378,328,66014,1,0
344,328,66114,1,4
310,328,66214,1,0
276,328,66314,5,4
242,328,66414,1,0
242,260,66614,1,0
208,260,66714,1,0
140,260,66914,1,4
140,294,67014,1,0
72,294,67214,1,0
72,260,67314,1,0
72,192,67514,1,4
72,158,67614,1,0
72,124,67714,1,4
72,90,67814,1,0
106,90,67914,5,4
140,90,68014,1,0
208,90,68214,1,0
242,90,68314,1,0
310,90,68514,1,4
310,124,68614,1,0
310,192,68815,1,0
310,226,68915,1,0
378,226,69115,1,4
412,226,69215,1,0
412,260,69315,1,4
412,294,69415,1,0
378,294,69515,5,4
344,294,69615,1,0
276,294,69815,1,0
242,294,69915,1,0
174,294,70115,1,0
140,294,70215,1,0
140,260,70315,2,0,B|110:181|48:184|12:276,1,170
256,192,71115,12,0,75917
