osu file format v12

[General]
AudioFilename: Touhou - U.Nknown Goose.mp3
AudioLeadIn: 0
PreviewTime: 53475
Countdown: 0
SampleSet: Normal
StackLeniency: 0.2
Mode: 0
LetterboxInBreaks: 1

[Editor]
DistanceSpacing: 2
BeatDivisor: 4
GridSize: 4

[Metadata]
Title:U.Nknown Goose
TitleUnicode:U.Nknown Goose
Artist:NicoNicoDouga
ArtistUnicode:NicoNicoDouga
Creator:SkyDevil
Version:Extra
Source:Touhou
Tags:un owen was her snow unknown flandre nico douga scarlet betsuto lizellota katty pie teru21
BeatmapID:175682
BeatmapSetID:58446

[Difficulty]
HPDrainRate:7
CircleSize:4
OverallDifficulty:7
ApproachRate:9
SliderMultiplier:1.8
SliderTickRate:2

[Events]
//Background and Video events
0,0,"BG.jpg",0,0
//Break Periods
//Storyboard Layer 0 (Background)
//Storyboard Layer 1 (Fail)
//Storyboard Layer 2 (Pass)
//Storyboard Layer 3 (Foreground)
//Storyboard Sound Samples
//Background Colour Transformations
3,100,163,162,255

[TimingPoints]
3085,300,4,1,1,40,1,0
9085,-100,4,1,1,65,0,0
15085,-100,4,1,1,75,0,0
24685,-100,4,1,1,75,0,1
42685,-100,4,1,1,35,0,1
42985,-100,4,1,1,45,0,1
43285,-100,4,1,1,55,0,1
43585,-100,4,1,1,65,0,1
43885,-100,4,1,1,75,0,0
51085,-100,4,1,1,25,0,0
51385,-100,4,1,1,30,0,0
51685,-100,4,1,1,35,0,0
51985,-100,4,1,1,40,0,0
52285,-100,4,1,1,45,0,0
52585,-100,4,1,1,55,0,0
52885,-100,4,1,1,65,0,0
53185,-100,4,1,1,70,0,0
53485,-100,4,1,1,75,0,1
61881,-100,4,1,1,35,0,1
62185,-100,4,1,1,45,0,1
62485,-100,4,1,1,55,0,1
62785,-100,4,1,1,65,0,1
63085,-100,4,1,1,75,0,1
66760,-100,4,1,1,60,0,1
67885,-100,4,1,1,75,0,1
71485,-100,4,1,1,35,0,1
71785,-100,4,1,1,45,0,1
72085,-100,4,1,1,55,0,1
72385,-100,4,1,1,65,0,1
72685,-100,4,1,1,75,0,0
79885,-100,4,1,1,15,0,0
80185,-100,4,1,1,22,0,0
80485,-100,4,1,1,30,0,0
80785,-100,4,1,1,37,0,0
81085,-100,4,1,1,45,0,0
81385,-100,4,1,1,52,0,0
81685,-100,4,1,1,60,0,0
81985,-100,4,1,1,67,0,0
82285,-100,4,1,1,75,0,0
83785,300,4,1,1,40,1,0
89785,-100,4,1,1,65,0,0

[Colours]
Combo1 : 255,0,255
Combo2 : 164,0,82
Combo3 : 215,0,107

[HitObjects]
72,32,3086,5,0,0:0:0:0:
40,56,3161,1,0,0:0:0:0:
24,96,3236,1,0,0:0:0:0:
32,136,3310,1,0,0:0:0:0:
64,168,3386,2,0,B|88:184|112:184,3,45
168,248,3686,2,0,B|144:256|112:256,3,45
104,296,3986,1,0,0:0:0:0:
112,336,4061,1,0,0:0:0:0:
144,360,4136,1,0,0:0:0:0:
184,368,4211,1,0,0:0:0:0:
224,352,4286,1,0,0:0:0:0:
256,320,4361,5,0,0:0:0:0:
288,352,4436,1,0,0:0:0:0:
328,368,4511,1,0,0:0:0:0:
368,360,4586,1,0,0:0:0:0:
400,336,4661,1,0,0:0:0:0:
408,296,4736,1,0,0:0:0:0:
400,256,4811,1,0,0:0:0:0:
376,224,4886,2,0,B|368:200|336:184,3,45
384,80,5186,2,0,B|392:104|424:120,3,45
432,152,5486,5,0,0:0:0:0:
450,184,5561,1,0,0:0:0:0:
435,220,5636,1,0,0:0:0:0:
399,235,5711,1,0,0:0:0:0:
363,242,5786,1,0,0:0:0:0:
328,256,5860,1,0,0:0:0:0:
300,276,5935,1,0,0:0:0:0:
284,304,6010,1,0,0:0:0:0:
256,328,6086,1,0,0:0:0:0:
228,304,6161,1,0,0:0:0:0:
212,276,6236,1,0,0:0:0:0:
184,256,6311,1,0,0:0:0:0:
148,242,6386,1,0,0:0:0:0:
112,235,6461,1,0,0:0:0:0:
76,220,6536,1,0,0:0:0:0:
61,184,6611,1,0,0:0:0:0:
80,152,6686,6,0,B|88:128|112:104,3,45
200,56,6986,2,0,B|200:88|168:104,3,45
312,56,7286,2,0,B|312:88|330:95,3,45
432,152,7586,2,0,B|424:128|409:113,3,45
256,192,7886,12,4,9086,0:0:0:0:
256,64,9236,5,0,0:0:0:0:
312,144,9386,2,0,B|360:144|360:144|392:184,1,90,8|0,0:0|0:0,0:0:0:0:
432,296,9686,2,0,B|384:296|384:296|352:256,1,90
256,304,9986,1,8,0:0:0:0:
256,328,10061,1,0,0:0:0:0:
256,352,10136,1,0,0:0:0:0:
154,263,10286,6,0,B|128:296|128:296|80:296,1,90
125,176,10586,2,0,B|152:144|152:144|200:144,1,90,8|0,0:0|0:0,0:0:0:0:
256,224,10886,2,0,B|288:256|288:256|344:256,1,90
400,176,11186,1,8,0:0:0:0:
400,152,11261,1,0,0:0:0:0:
400,128,11336,1,0,0:0:0:0:
336,48,11486,6,0,B|296:80|296:80|296:128,1,90
176,48,11786,2,0,B|216:80|216:80|216:128,1,90,8|0,0:0|0:0,0:0:0:0:
168,200,12086,1,0,0:0:0:0:
168,248,12161,1,0,0:0:0:0:
184,288,12236,1,0,0:0:0:0:
216,320,12311,1,0,0:0:0:0:
256,336,12386,1,8,0:0:0:0:
296,320,12461,1,0,0:0:0:0:
328,288,12536,1,0,0:0:0:0:
344,248,12611,1,0,0:0:0:0:
344,200,12686,6,0,B|304:176|304:176|304:128,1,90
208,132,12985,2,0,B|208:176|208:176|168:200,1,90,8|0,0:0|0:0,0:0:0:0:
136,53,13285,2,0,L|112:140,1,90,0|0,0:0|0:0,0:0:0:0:
400,140,13585,2,0,L|376:53,1,90,8|0,0:0|0:0,0:0:0:0:
176,168,13886,5,0,0:0:0:0:
208,184,13961,1,0,0:0:0:0:
232,216,14036,1,0,0:0:0:0:
224,256,14111,1,0,0:0:0:0:
208,296,14186,1,8,0:0:0:0:
224,336,14261,1,0,0:0:0:0:
256,360,14336,1,0,0:0:0:0:
288,336,14411,1,0,0:0:0:0:
304,296,14486,1,0,0:0:0:0:
288,256,14561,1,0,0:0:0:0:
280,216,14636,1,0,0:0:0:0:
304,184,14711,1,0,0:0:0:0:
336,168,14786,2,0,B|336:120,3,45,8|0|0|0,0:0|0:0|0:0|0:0,0:0:0:0:
256,72,15086,6,0,B|256:136,3,45,4|0|0|0,0:0|0:0|0:0|0:0,0:0:0:0:
256,72,15386,2,0,B|256:24,4,45,8|0|0|0|0,0:0|0:0|0:0|0:0|0:0,0:0:0:0:
200,200,15836,1,0,0:0:0:0:
312,200,15986,1,8,0:0:0:0:
344,224,16061,1,0,0:0:0:0:
360,264,16136,1,0,0:0:0:0:
344,304,16211,1,0,0:0:0:0:
312,328,16286,6,0,B|280:368,3,45,4|0|0|0,0:0|0:0|0:0|0:0,0:0:0:0:
228,363,16586,2,0,B|200:328,4,45,8|0|0|0|0,0:0|0:0|0:0|0:0|0:0,0:0:0:0:
256,264,17036,1,0,0:0:0:0:
200,200,17186,1,8,0:0:0:0:
216,160,17261,1,0,0:0:0:0:
256,136,17336,1,0,0:0:0:0:
296,160,17411,1,0,0:0:0:0:
312,200,17486,6,0,B|320:248|368:272,1,90,4|0,0:0|0:0,0:0:0:0:
200,200,17786,2,0,B|192:248|144:272,1,90,8|0,0:0|0:0,0:0:0:0:
176,376,18086,1,0,0:0:0:0:
256,264,18236,1,0,0:0:0:0:
336,368,18386,1,8,0:0:0:0:
376,352,18460,1,0,0:0:0:0:
416,368,18536,1,0,0:0:0:0:
448,352,18610,1,0,0:0:0:0:
488,360,18686,6,0,B|504:312,3,45,4|0|0|0,0:0|0:0|0:0|0:0,0:0:0:0:
496,272,18986,2,0,B|480:224,3,45,8|0|0|0,0:0|0:0|0:0|0:0,0:0:0:0:
496,184,19286,1,4,0:0:0:0:
464,152,19361,1,0,0:0:0:0:
372,208,19511,1,4,0:0:0:0:
333,191,19586,1,0,0:0:0:0:
256,280,19736,1,4,0:0:0:0:
213,284,19811,1,0,0:0:0:0:
175,307,19886,6,0,B|152:320|136:352,3,45,4|0|0|0,0:0|0:0|0:0|0:0,0:0:0:0:
168,216,20186,2,0,B|191:203|207:171,4,45,8|0|0|0|0,0:0|0:0|0:0|0:0|0:0,0:0:0:0:
256,120,20636,1,0,0:0:0:0:
312,184,20786,1,8,0:0:0:0:
280,208,20861,1,0,0:0:0:0:
264,248,20936,1,0,0:0:0:0:
280,288,21011,1,0,0:0:0:0:
312,320,21086,6,0,B|304:344|312:368,3,45,4|0|0|0,0:0|0:0|0:0|0:0,0:0:0:0:
384,272,21386,2,0,B|392:248|384:224,4,45,8|0|0|0|0,0:0|0:0|0:0|0:0|0:0,0:0:0:0:
400,128,21836,1,0,0:0:0:0:
328,72,21986,1,8,0:0:0:0:
296,104,22061,1,0,0:0:0:0:
256,120,22136,1,0,0:0:0:0:
216,104,22211,1,0,0:0:0:0:
184,72,22286,6,0,B|136:72,3,45,4|0|0|0,0:0|0:0|0:0|0:0,0:0:0:0:
88,152,22586,2,0,B|136:152,4,45,8|0|0|0|0,0:0|0:0|0:0|0:0|0:0,0:0:0:0:
192,208,23036,1,0,0:0:0:0:
256,264,23186,2,0,B|256:320,3,45,8|0|0|0,0:0|0:0|0:0|0:0,0:0:0:0:
256,192,23486,12,4,24686,0:0:0:0:
256,48,24836,5,0,0:0:0:0:
256,144,24986,1,8,0:0:0:0:
336,96,25136,2,0,B|408:152|408:152|408:248,1,180
360,312,25586,2,0,B|304:240|304:240|208:240,1,180,8|0,0:0|0:0,0:0:0:0:
128,240,26036,1,0,0:0:0:0:
104,208,26111,1,0,0:0:0:0:
104,168,26186,1,8,0:0:0:0:
176,96,26336,1,0,0:0:0:0:
256,168,26486,2,0,B|352:168|352:168|408:104,2,180,0|8|0,0:0|0:0|0:0,0:0:0:0:
304,248,27236,6,0,B|304:296|304:296|336:328,1,90,0|8,0:0|0:0,0:0:0:0:
208,248,27536,2,0,B|208:296|208:296|176:328,1,90
96,248,27836,1,0,0:0:0:0:
96,216,27911,1,0,0:0:0:0:
96,184,27986,1,8,0:0:0:0:
144,96,28136,2,0,B|176:136|176:136|216:136,1,90,0|0,0:0|0:0,0:0:0:0:
368,96,28436,2,0,B|336:136|336:136|297:136,1,90,0|8,0:0|0:0,0:0:0:0:
256,56,28736,1,0,0:0:0:0:
256,224,28886,2,0,B|256:280|256:280|312:320|312:320|312:376,1,180,0|8,0:0|0:0,0:0:0:0:
416,224,29486,6,0,B|344:168|344:168|344:80,1,180,0|8,0:0|0:0,0:0:0:0:
256,120,29936,1,0,0:0:0:0:
168,80,30086,2,0,B|168:168|168:168|96:224,1,180,0|8,0:0|0:0,0:0:0:0:
176,352,30686,2,0,B|256:312|256:312|336:352,1,180,0|8,0:0|0:0,0:0:0:0:
400,272,31136,1,0,0:0:0:0:
368,184,31286,2,0,B|296:128|296:128|296:40,1,180,0|8,0:0|0:0,0:0:0:0:
144,184,31886,6,0,B|216:128|216:128|216:40,1,180,0|8,0:0|0:0,0:0:0:0:
212,264,32486,2,0,B|300:264,2,90,0|0|8,0:0|0:0|0:0,0:0:0:0:
160,328,32936,1,0,0:0:0:0:
184,336,33011,1,0,0:0:0:0:
208,344,33086,1,0,0:0:0:0:
352,328,33236,1,0,0:0:0:0:
328,336,33311,1,0,0:0:0:0:
304,344,33386,1,8,0:0:0:0:
256,264,33536,2,0,B|256:216,6,45,0|0|0|0|0|0|12,0:0|0:0|0:0|0:0|0:0|0:0|0:0,0:0:0:0:
72,80,34286,6,0,B|128:152|128:152|216:152,1,180,0|8,0:0|0:0,0:0:0:0:
440,304,34886,2,0,B|384:232|384:232|296:232,1,180,0|8,0:0|0:0,0:0:0:0:
256,48,35486,1,0,0:0:0:0:
256,336,35786,1,8,0:0:0:0:
256,336,35861,1,0,0:0:0:0:
256,336,35936,1,0,0:0:0:0:
256,256,36086,2,0,B|256:192|256:192|312:152|312:152|312:96,1,180,0|8,0:0|0:0,0:0:0:0:
424,184,36686,5,0,0:0:0:0:
496,256,36836,1,0,0:0:0:0:
424,336,36986,2,0,B|336:336,1,90,8|0,0:0|0:0,0:0:0:0:
256,256,37286,2,0,B|344:256,1,90,0|0,0:0|0:0,0:0:0:0:
296,176,37586,2,0,B|206:176,1,90,8|0,0:0|0:0,0:0:0:0:
160,96,37886,2,0,B|264:96,1,90
360,96,38186,1,8,0:0:0:0:
424,176,38336,1,0,0:0:0:0:
360,256,38486,2,0,B|312:336|312:336|224:336,1,180,0|8,0:0|0:0,0:0:0:0:
216,152,39086,6,0,B|184:120|184:120|128:120,1,90
296,152,39386,2,0,B|328:120|328:120|328:64,1,90,8|0,0:0|0:0,0:0:0:0:
296,232,39686,2,0,B|328:264|328:264|384:264,1,90,0|0,0:0|0:0,0:0:0:0:
216,232,39986,2,0,B|184:264|184:264|184:320,1,90,8|0,0:0|0:0,0:0:0:0:
144,192,40286,5,0,0:0:0:0:
256,80,40436,1,0,0:0:0:0:
368,192,40586,1,8,0:0:0:0:
256,304,40736,1,0,0:0:0:0:
328,344,40885,2,0,B|296:384|296:384|216:384|216:384|185:345,1,180,0|8,0:0|0:0,0:0:0:0:
368,192,41486,5,0,0:0:0:0:
416,264,41636,1,0,0:0:0:0:
456,192,41786,2,0,B|456:96,1,90,8|0,0:0|0:0,0:0:0:0:
368,24,42086,2,0,B|368:128,1,90
288,192,42386,2,0,B|288:96,1,90,8|0,0:0|0:0,0:0:0:0:
216,24,42685,2,0,B|216:80,16,45,0|0|0|0|0|0|0|0|0|0|0|0|0|0|0|0|4,0:0|0:0|0:0|0:0|0:0|0:0|0:0|0:0|0:0|0:0|0:0|0:0|0:0|0:0|0:0|0:0|0:0,0:0:0:0:
256,136,44036,5,0,0:0:0:0:
216,208,44186,1,8,0:0:0:0:
256,280,44336,2,0,B|352:280|352:280|416:200,1,180
440,288,44786,2,0,B|387:353|387:353|291:353,1,180,8|12,0:0|0:0,0:0:0:0:
291,353,45236,1,12,0:0:0:0:
220,30,45536,5,12,0:0:0:0:
220,30,45686,1,12,0:0:0:0:
256,192,45986,5,12,0:0:0:0:
256,192,46136,1,12,0:0:0:0:
176,240,46286,5,0,0:0:0:0:
256,280,46436,1,0,0:0:0:0:
336,240,46586,1,8,0:0:0:0:
336,144,46736,2,0,B|280:72|280:72|192:72,1,180,0|0,0:0|0:0,0:0:0:0:
112,120,47186,1,8,0:0:0:0:
112,32,47336,1,0,0:0:0:0:
32,72,47486,5,12,0:0:0:0:
32,192,47636,1,12,0:0:0:0:
256,312,47936,5,12,0:0:0:0:
256,192,48086,1,12,0:0:0:0:
472,72,48386,5,12,0:0:0:0:
472,192,48536,1,12,0:0:0:0:
424,264,48686,6,0,B|400:304|400:304|344:304,1,90
256,336,48986,1,8,0:0:0:0:
155,304,49136,2,0,B|64:304|64:304|8:224,1,180
52,160,49586,2,0,B|102:232|102:232|194:232,1,180,8|12,0:0|0:0,0:0:0:0:
190,232,50036,1,12,0:0:0:0:
256,32,50336,5,12,0:0:0:0:
256,32,50486,1,12,0:0:0:0:
321,232,50786,5,12,0:0:0:0:
321,232,50936,1,12,0:0:0:0:
256,344,51086,5,0,0:0:0:0:
256,332,51161,1,0,0:0:0:0:
256,320,51236,1,0,0:0:0:0:
256,308,51311,1,0,0:0:0:0:
256,296,51386,1,0,0:0:0:0:
256,284,51461,1,0,0:0:0:0:
256,272,51536,1,0,0:0:0:0:
256,260,51611,1,0,0:0:0:0:
256,248,51686,1,0,0:0:0:0:
256,236,51761,1,0,0:0:0:0:
256,224,51836,1,0,0:0:0:0:
256,212,51911,1,0,0:0:0:0:
256,200,51986,5,0,0:0:0:0:
256,188,52061,1,0,0:0:0:0:
256,176,52136,1,0,0:0:0:0:
256,164,52211,1,0,0:0:0:0:
256,152,52286,1,0,0:0:0:0:
256,140,52361,1,0,0:0:0:0:
256,128,52436,1,0,0:0:0:0:
256,116,52511,1,0,0:0:0:0:
256,104,52586,1,0,0:0:0:0:
256,92,52661,1,0,0:0:0:0:
256,80,52736,1,0,0:0:0:0:
256,68,52811,1,0,0:0:0:0:
256,56,52886,6,0,B|256:28,12,30,0|0|0|0|0|0|0|0|0|0|0|0|4,0:0|0:0|0:0|0:0|0:0|0:0|0:0|0:0|0:0|0:0|0:0|0:0|0:0,0:0:0:0:
36,224,53785,1,8,0:0:0:0:
64,136,53936,1,0,0:0:0:0:
144,192,54086,2,0,B|144:280|144:280|224:344,1,180,0|8,0:0|0:0,0:0:0:0:
368,192,54686,2,0,B|368:280|368:280|288:344,1,180,0|8,0:0|0:0,0:0:0:0:
256,264,55136,1,0,0:0:0:0:
256,176,55286,2,0,B|256:112|256:112|312:72|312:72|312:24,1,180,0|8,0:0|0:0,0:0:0:0:
368,192,55886,6,0,B|368:240|368:240|424:280|424:280|424:344,1,180,0|8,0:0|0:0,0:0:0:0:
336,320,56336,1,0,0:0:0:0:
256,368,56486,1,0,0:0:0:0:
176,320,56636,1,0,0:0:0:0:
176,320,56711,1,0,0:0:0:0:
176,320,56786,1,8,0:0:0:0:
256,280,56936,2,0,B|216:248|216:248|216:200,1,90
256,104,57236,2,0,B|296:136|296:136|296:184,1,90,0|8,0:0|0:0,0:0:0:0:
256,280,57536,2,0,B|216:248|216:248|216:200,1,90
256,32,57986,5,8,0:0:0:0:
424,112,58286,1,0,0:0:0:0:
424,272,58586,1,8,0:0:0:0:
256,352,58886,1,0,0:0:0:0:
88,272,59186,1,8,0:0:0:0:
88,272,59336,1,0,0:0:0:0:
296,152,59636,6,0,B|336:128|336:128|336:80,1,90,0|8,0:0|0:0,0:0:0:0:
216,232,59936,2,0,B|176:256|176:256|176:304,1,90,0|0,0:0|0:0,0:0:0:0:
168,64,60386,2,0,B|88:104|88:104|88:208,1,180,8|0,0:0|0:0,0:0:0:0:
144,264,60836,1,0,0:0:0:0:
200,336,60986,1,8,0:0:0:0:
256,264,61136,1,0,0:0:0:0:
312,336,61286,1,0,0:0:0:0:
368,264,61436,1,0,0:0:0:0:
368,240,61511,1,0,0:0:0:0:
368,216,61586,1,8,0:0:0:0:
432,152,61736,1,0,0:0:0:0:
368,96,61886,5,0,0:0:0:0:
344,72,61961,1,0,0:0:0:0:
312,64,62036,1,0,0:0:0:0:
280,72,62111,1,0,0:0:0:0:
256,96,62186,1,0,0:0:0:0:
232,72,62261,1,0,0:0:0:0:
200,64,62336,1,0,0:0:0:0:
168,72,62411,1,0,0:0:0:0:
144,96,62486,2,0,B|128:112|120:136,3,45
176,224,62786,2,0,B|192:208|200:176,4,45,0|0|0|0|4,0:0|0:0|0:0|0:0|0:0,0:0:0:0:
256,360,63386,6,0,B|280:320|280:320|328:320,1,90,8|0,0:0|0:0,0:0:0:0:
256,360,63686,2,0,B|232:320|232:320|184:320,1,90,0|0,0:0|0:0,0:0:0:0:
108,264,63986,2,0,B|132:224|132:224|188:224,1,90,8|0,0:0|0:0,0:0:0:0:
404,264,64286,2,0,B|380:224|380:224|324:224,1,90,0|0,0:0|0:0,0:0:0:0:
256,96,64586,2,0,B|288:128|288:128|336:128,1,90,8|0,0:0|0:0,0:0:0:0:
256,96,64886,2,0,B|208:168|208:168|96:168,1,180,0|8,0:0|0:0,0:0:0:0:
256,288,65486,6,0,B|304:216|304:216|416:216,1,180,0|8,0:0|0:0,0:0:0:0:
384,136,65936,2,0,B|336:136|336:136|304:104,1,90
256,176,66236,1,0,0:0:0:0:
256,200,66311,1,0,0:0:0:0:
256,224,66386,1,8,0:0:0:0:
205,106,66536,2,0,B|176:136|176:136|128:136,1,90
96,152,66761,1,0,0:0:0:0:
72,184,66836,1,0,0:0:0:0:
96,216,66911,1,0,0:0:0:0:
128,224,66986,1,0,0:0:0:0:
128,304,67136,5,0,0:0:0:0:
136,344,67211,1,0,0:0:0:0:
168,368,67286,1,0,0:0:0:0:
208,368,67361,1,0,0:0:0:0:
240,352,67436,1,0,0:0:0:0:
256,316,67511,1,0,0:0:0:0:
272,352,67586,1,0,0:0:0:0:
304,368,67661,1,0,0:0:0:0:
344,368,67736,1,0,0:0:0:0:
376,344,67811,1,0,0:0:0:0:
384,304,67886,6,0,B|312:248|312:248|312:152,1,180,0|8,0:0|0:0,0:0:0:0:
128,80,68486,2,0,B|200:136|200:136|200:232,1,180,0|8,0:0|0:0,0:0:0:0:
200,224,68936,1,0,0:0:0:0:
256,40,69236,5,0,0:0:0:0:
304,104,69386,2,0,B|328:144|328:144|400:144,1,90,8|0,0:0|0:0,0:0:0:0:
400,224,69686,2,0,B|311:224|311:224|255:296,1,180,0|8,0:0|0:0,0:0:0:0:
120,192,70286,5,0,0:0:0:0:
176,128,70436,2,0,B|216:104|216:104|216:56,1,90,0|8,0:0|0:0,0:0:0:0:
296,60,70736,2,0,B|296:104|296:104|336:128,1,90,0|0,0:0|0:0,0:0:0:0:
256,192,71036,1,0,0:0:0:0:
216,304,71186,2,0,B|256:280|256:280|296:304,1,90,8|0,0:0|0:0,0:0:0:0:
382,241,71486,5,0,0:0:0:0:
382,206,71561,1,0,0:0:0:0:
368,177,71636,1,0,0:0:0:0:
347,156,71711,1,0,0:0:0:0:
319,135,71786,1,0,0:0:0:0:
291,121,71861,1,0,0:0:0:0:
256,114,71936,1,0,0:0:0:0:
220,121,72011,1,0,0:0:0:0:
192,135,72086,1,0,0:0:0:0:
164,156,72161,1,0,0:0:0:0:
143,177,72236,1,0,0:0:0:0:
129,206,72311,1,0,0:0:0:0:
129,241,72386,2,0,B|128:272|136:296,4,45,0|0|0|0|4,0:0|0:0|0:0|0:0|0:0,0:0:0:0:
192,344,72836,5,0,0:0:0:0:
256,288,72986,2,0,B|296:264|296:264|296:208,1,90,8|0,0:0|0:0,0:0:0:0:
480,120,73436,2,0,B|440:144|440:144|440:200,1,90,0|8,0:0|0:0,0:0:0:0:
424,328,73886,5,12,0:0:0:0:
424,328,74036,1,12,0:0:0:0:
256,192,74336,5,12,0:0:0:0:
256,192,74486,1,12,0:0:0:0:
88,328,74786,5,12,0:0:0:0:
88,328,74936,1,12,0:0:0:0:
144,256,75086,5,0,0:0:0:0:
192,328,75236,1,0,0:0:0:0:
280,328,75386,1,8,0:0:0:0:
336,256,75536,2,0,B|408:200|408:200|408:112,1,180
320,104,75986,2,0,B|280:128|280:128|280:176,1,90,8|0,0:0|0:0,0:0:0:0:
256,248,76286,5,12,0:0:0:0:
256,360,76436,1,12,0:0:0:0:
200,144,76736,5,12,0:0:0:0:
120,64,76886,1,12,0:0:0:0:
312,144,77186,5,12,0:0:0:0:
392,64,77336,1,12,0:0:0:0:
456,128,77486,6,0,B|456:176|456:176|488:200,1,90
424,344,77786,2,0,B|424:296|424:296|392:272,1,90,8|0,0:0|0:0,0:0:0:0:
256,192,78236,1,0,0:0:0:0:
192,256,78386,1,8,0:0:0:0:
256,320,78536,1,0,0:0:0:0:
320,256,78686,5,12,0:0:0:0:
320,256,78836,1,12,0:0:0:0:
256,32,79136,5,12,0:0:0:0:
256,32,79286,1,12,0:0:0:0:
192,256,79586,5,12,0:0:0:0:
192,256,79736,1,12,0:0:0:0:
128,192,79886,5,0,0:0:0:0:
96,176,79961,1,0,0:0:0:0:
72,160,80036,1,0,0:0:0:0:
56,136,80111,1,0,0:0:0:0:
48,104,80186,1,0,0:0:0:0:
56,72,80261,1,0,0:0:0:0:
80,48,80336,1,0,0:0:0:0:
112,40,80411,1,0,0:0:0:0:
144,48,80486,1,0,0:0:0:0:
176,64,80561,1,0,0:0:0:0:
200,88,80636,1,0,0:0:0:0:
224,104,80711,1,0,0:0:0:0:
256,112,80786,5,0,0:0:0:0:
288,104,80861,1,0,0:0:0:0:
312,88,80936,1,0,0:0:0:0:
336,64,81011,1,0,0:0:0:0:
368,48,81086,1,0,0:0:0:0:
400,40,81161,1,0,0:0:0:0:
432,48,81236,1,0,0:0:0:0:
456,72,81311,1,0,0:0:0:0:
464,104,81386,1,0,0:0:0:0:
456,136,81461,1,0,0:0:0:0:
440,160,81536,1,0,0:0:0:0:
416,176,81611,1,0,0:0:0:0:
384,192,81686,6,0,B|368:208|344:216,12,30
256,72,83785,5,0,0:0:0:0:
260,112,83860,1,0,0:0:0:0:
280,140,83935,1,0,0:0:0:0:
312,152,84010,1,0,0:0:0:0:
352,148,84085,1,0,0:0:0:0:
380,128,84160,1,0,0:0:0:0:
416,120,84235,1,0,0:0:0:0:
444,136,84310,1,0,0:0:0:0:
468,164,84385,2,0,P|476:188|472:220,3,45
400,252,84685,2,0,P|400:276|392:295,3,45,0|0|0|0,0:0|0:0|0:0|0:0,0:0:0:0:
368,320,84985,5,0,0:0:0:0:
332,336,85060,1,0,0:0:0:0:
292,344,85135,1,0,0:0:0:0:
256,340,85210,1,0,0:0:0:0:
220,328,85285,1,0,0:0:0:0:
196,300,85360,1,0,0:0:0:0:
180,264,85435,1,0,0:0:0:0:
184,228,85510,1,0,0:0:0:0:
200,200,85585,2,0,P|208:180|224:164,3,45
332,72,85885,2,0,P|324:92|308:108,3,45
276,96,86185,5,0,0:0:0:0:
240,88,86260,1,0,0:0:0:0:
204,92,86335,1,0,0:0:0:0:
172,108,86410,1,0,0:0:0:0:
152,140,86485,1,0,0:0:0:0:
148,176,86560,1,0,0:0:0:0:
156,216,86635,1,0,0:0:0:0:
184,236,86710,1,0,0:0:0:0:
224,240,86785,1,0,0:0:0:0:
260,224,86860,1,0,0:0:0:0:
292,200,86935,5,0,0:0:0:0:
304,240,87010,1,0,0:0:0:0:
332,268,87085,1,0,0:0:0:0:
368,276,87160,1,0,0:0:0:0:
408,264,87235,1,0,0:0:0:0:
428,228,87310,1,0,0:0:0:0:
428,188,87385,2,0,P|424:164|412:140,7,45
420,264,87985,2,0,P|411:282|407:306,7,45
332,352,88585,5,0,0:0:0:0:
332,336,88660,1,0,0:0:0:0:
332,320,88735,1,0,0:0:0:0:
332,304,88810,1,0,0:0:0:0:
332,288,88885,1,0,0:0:0:0:
332,272,88960,1,0,0:0:0:0:
332,256,89035,1,0,0:0:0:0:
332,240,89110,1,0,0:0:0:0:
332,224,89185,1,0,0:0:0:0:
332,208,89260,1,0,0:0:0:0:
332,192,89335,1,0,0:0:0:0:
332,176,89410,1,0,0:0:0:0:
332,160,89485,1,0,0:0:0:0:
332,144,89560,1,0,0:0:0:0:
332,128,89635,1,0,0:0:0:0:
332,108,89710,1,0,0:0:0:0:
332,92,89785,1,4,0:0:0:0:
264,40,89936,5,0,0:0:0:0:
216,112,90086,2,0,B|192:152|192:152|144:152,1,90,8|0,0:0|0:0,0:0:0:0:
76,272,90385,2,0,B|100:232|100:232|148:232,1,90,0|0,0:0|0:0,0:0:0:0:
256,208,90686,1,8,0:0:0:0:
256,232,90761,1,0,0:0:0:0:
256,256,90836,1,0,0:0:0:0:
320,344,90986,6,0,B|360:320|360:320|360:272,1,90
192,344,91286,2,0,B|152:320|152:320|152:272,1,90,8|0,0:0|0:0,0:0:0:0:
320,192,91586,1,0,0:0:0:0:
192,192,91736,1,0,0:0:0:0:
256,120,91886,1,8,0:0:0:0:
256,96,91961,1,0,0:0:0:0:
256,72,92036,1,0,0:0:0:0:
344,80,92186,6,0,B|360:32|360:32|416:32,1,90
504,168,92486,2,0,B|480:208|480:208|432:208,1,90,8|0,0:0|0:0,0:0:0:0:
312,176,92786,1,0,0:0:0:0:
344,80,92936,1,0,0:0:0:0:
256,16,93086,1,8,0:0:0:0:
168,80,93236,1,0,0:0:0:0:
176,176,93386,5,0,0:0:0:0:
208,192,93461,1,0,0:0:0:0:
232,224,93536,1,0,0:0:0:0:
224,264,93611,1,0,0:0:0:0:
208,304,93686,1,8,0:0:0:0:
224,344,93761,1,0,0:0:0:0:
256,368,93836,1,0,0:0:0:0:
288,344,93911,1,0,0:0:0:0:
304,304,93986,1,0,0:0:0:0:
288,264,94061,1,0,0:0:0:0:
280,224,94136,1,0,0:0:0:0:
304,192,94211,1,0,0:0:0:0:
336,176,94286,6,0,B|312:136,3,45,8|0|0|0,0:0|0:0|0:0|0:0,0:0:0:0:
240,128,94586,2,0,B|200:88,3,45
144,140,94886,2,0,B|100:128,3,45,8|0|0|0,0:0|0:0|0:0|0:0,0:0:0:0:
88,212,95186,2,0,B|44:212,6,45,0|0|0|0|8|0|0,0:0|0:0|0:0|0:0|0:0|0:0|0:0,0:0:0:0:
336,304,96086,5,0,0:0:0:0:
304,344,96161,1,0,0:0:0:0:
256,360,96236,1,0,0:0:0:0:
208,344,96311,1,0,0:0:0:0:
176,304,96386,1,0,0:0:0:0:
256,240,96536,1,4,0:0:0:0:
