osu file format v12

[General]
AudioFilename: Touhou - U.Nknown Goose.mp3
AudioLeadIn: 0
PreviewTime: 53475
Countdown: 0
SampleSet: Normal
StackLeniency: 0.2
Mode: 0
LetterboxInBreaks: 1

[Editor]
DistanceSpacing: 2
BeatDivisor: 2
GridSize: 4

[Metadata]
Title:U.Nknown Goose
TitleUnicode:U.Nknown Goose
Artist:NicoNicoDouga
ArtistUnicode:NicoNicoDouga
Creator:SkyDevil
Version:Easy
Source:Touhou
Tags:un owen was her snow unknown flandre nico douga scarlet betsuto lizellota katty pie teru21
BeatmapID:176117
BeatmapSetID:58446

[Difficulty]
HPDrainRate:2
CircleSize:3
OverallDifficulty:1
ApproachRate:2
SliderMultiplier:0.799999999999999
SliderTickRate:2

[Events]
//Background and Video events
0,0,"BG.jpg",0,0
//Break Periods
//Storyboard Layer 0 (Background)
//Storyboard Layer 1 (Fail)
//Storyboard Layer 2 (Pass)
//Storyboard Layer 3 (Foreground)
//Storyboard Sound Samples
//Background Colour Transformations
3,100,163,162,255

[TimingPoints]
3085,300,4,1,1,55,1,0
9085,-100,4,1,1,65,0,0
15085,-100,4,1,1,75,0,0
24685,-100,4,1,1,75,0,1
42685,-100,4,1,1,35,0,1
42985,-100,4,1,1,45,0,1
43285,-100,4,1,1,55,0,1
43585,-100,4,1,1,65,0,1
43885,-100,4,1,1,75,0,0
51085,-100,4,1,1,25,0,0
51385,-100,4,1,1,30,0,0
51685,-100,4,1,1,35,0,0
51985,-100,4,1,1,40,0,0
52285,-100,4,1,1,45,0,0
52585,-100,4,1,1,55,0,0
52885,-100,4,1,1,65,0,0
53185,-100,4,1,1,70,0,0
53485,-100,4,1,1,75,0,1
61881,-100,4,1,1,35,0,1
62185,-100,4,1,1,45,0,1
62485,-100,4,1,1,55,0,1
62785,-100,4,1,1,65,0,1
63085,-100,4,1,1,75,0,1
66760,-100,4,1,1,60,0,1
67885,-100,4,1,1,75,0,1
72685,-100,4,1,1,75,0,0
83785,300,4,1,1,55,1,0
89785,-100,4,1,1,75,0,0

[Colours]
Combo1 : 255,0,255
Combo2 : 164,0,82
Combo3 : 215,0,107

[HitObjects]
256,32,3085,5,0,0:0:0:0:
256,192,4285,1,0,0:0:0:0:
408,88,5485,1,0,0:0:0:0:
408,240,6685,2,0,B|408:328|304:376,1,160
188,366,7885,2,0,B|104:328|104:240,1,160
208,192,9085,6,0,B|208:104|128:32,1,160,4|8,0:0|0:0,0:0:0:0:
48,112,10285,1,0,0:0:0:0:
80,224,10885,1,8,0:0:0:0:
32,352,11485,2,0,B|104:304|192:296,1,160,0|8,0:0|0:0,0:0:0:0:
331,297,12685,2,0,B|408:304|480:352,1,160,0|8,0:0|0:0,0:0:0:0:
256,192,13885,12,4,15085,0:0:0:0:
256,192,15685,5,8,0:0:0:0:
360,304,16285,1,0,0:0:0:0:
432,264,16585,1,0,0:0:0:0:
440,184,16885,1,8,0:0:0:0:
432,64,17485,6,0,B|344:104|296:16,1,160,0|8,0:0|0:0,0:0:0:0:
256,144,18685,1,0,0:0:0:0:
214,18,19285,2,0,B|168:104|80:64,1,160,8|0,0:0|0:0,0:0:0:0:
32,192,20485,5,8,0:0:0:0:
80,320,21085,1,0,0:0:0:0:
148,360,21385,1,0,0:0:0:0:
216,320,21685,1,8,0:0:0:0:
256,192,22285,2,0,B|256:96,2,79.9999999999999,0|0|8,0:0|0:0|0:0,0:0:0:0:
256,192,23485,12,4,24685,0:0:0:0:
256,48,25285,5,8,0:0:0:0:
120,144,25885,2,0,B|208:160|208:272,1,160,0|8,0:0|0:0,0:0:0:0:
260,332,26785,1,0,0:0:0:0:
312,260,27085,2,0,B|312:160|400:144,1,160,0|8,0:0|0:0,0:0:0:0:
464,268,28285,5,0,0:0:0:0:
488,352,28585,1,0,0:0:0:0:
400,336,28885,2,0,B|328:376|240:336,1,160,8|0,0:0|0:0,0:0:0:0:
216,224,30085,1,8,0:0:0:0:
256,112,30685,2,0,B|256:24,2,79.9999999999999,0|0|8,0:0|0:0|0:0,0:0:0:0:
300,260,31885,6,0,P|256:376|216:260,1,320
256,192,33385,1,0,0:0:0:0:
256,108,33685,2,0,B|296:60|248:20|248:20|240:28|240:28|232:20|232:20|192:60,1,160,8|0,0:0|0:0,0:0:0:0:
120,52,34585,5,0,0:0:0:0:
168,124,34885,1,8,0:0:0:0:
56,200,35485,1,0,0:0:0:0:
84,280,35785,1,0,0:0:0:0:
168,260,36085,1,8,0:0:0:0:
256,352,36685,6,0,B|384:272|384:96|384:96|336:112|328:40|328:40|288:80|256:24|256:24,1,479.999999999999,0|8,0:0|0:0,0:0:0:0:
258,27,39085,2,0,B|226:83|186:43|186:43|178:115|130:99|130:99|130:275|258:355,1,479.999999999999,0|8,0:0|0:0,0:0:0:0:
368,240,41485,5,0,0:0:0:0:
392,104,42085,1,8,0:0:0:0:
256,128,42685,2,8,B|256:48,4,79.9999999999999,8|8|8|8|12,0:0|0:0|0:0|0:0|0:0,0:0:0:0:
160,288,45085,5,12,0:0:0:0:
256,344,45535,1,12,0:0:0:0:
352,288,45985,1,12,0:0:0:0:
352,96,47485,5,12,0:0:0:0:
256,40,47935,1,12,0:0:0:0:
160,96,48385,1,12,0:0:0:0:
200,192,49885,6,12,B|256:160|256:240|320:192,2,120
256,192,51085,12,4,53485,0:0:0:0:
256,56,54085,5,8,0:0:0:0:
156,192,54685,2,0,L|236:192,2,79.9999999999999,0|0|8,0:0|0:0|0:0,0:0:0:0:
352,192,55885,6,0,B|400:96|296:48,1,160,0|8,0:0|0:0,0:0:0:0:
199,56,57085,2,0,B|112:96|160:192,1,160,0|8,0:0|0:0,0:0:0:0:
184,344,58285,5,0,0:0:0:0:
200,260,58585,1,0,0:0:0:0:
280,236,58885,2,0,P|320:236|356:276,1,79.9999999999999,8|0,0:0|0:0,0:0:0:0:
380,168,59485,6,0,P|409:192|449:192,1,79.9999999999999,0|0,0:0|0:0,0:0:0:0:
440,96,60085,2,0,P|410:71|370:71,1,79.9999999999999,8|0,0:0|0:0,0:0:0:0:
300,128,60685,2,0,P|252:152|168:80,1,160,0|8,0:0|0:0,0:0:0:0:
256,192,61885,12,4,63085,0:0:0:0:
256,48,63685,5,8,0:0:0:0:
168,192,64285,2,0,B|208:216|216:280,1,79.9999999999999
300,256,64885,2,0,B|303:215|343:191,1,79.9999999999999,8|0,0:0|0:0,0:0:0:0:
424,168,65485,1,0,0:0:0:0:
392,304,66085,5,8,0:0:0:0:
256,264,66685,2,0,B|209:184|297:184|256:96,2,160
208,332,68185,1,0,0:0:0:0:
128,308,68485,1,8,0:0:0:0:
36,172,69085,5,0,0:0:0:0:
120,216,69385,1,0,0:0:0:0:
120,124,69685,1,8,0:0:0:0:
256,48,70285,2,0,B|408:48|408:224|256:224,2,320
144,128,73285,5,8,0:0:0:0:
256,212,73885,1,12,0:0:0:0:
192,292,74335,1,12,0:0:0:0:
256,368,74785,1,12,0:0:0:0:
256,368,75085,5,0,0:0:0:0:
368,304,75685,1,8,0:0:0:0:
424,192,76285,5,12,0:0:0:0:
352,116,76735,1,12,0:0:0:0:
288,192,77185,1,12,0:0:0:0:
288,192,77485,5,0,0:0:0:0:
216,304,78085,1,8,0:0:0:0:
80,256,78685,2,12,B|40:200|80:144,2,120
256,192,79885,12,0,82285,2:0:0:0:
256,72,83775,5,0,0:0:0:0:
256,320,84975,1,0,0:0:0:0:
392,192,86175,1,0,0:0:0:0:
120,192,87375,2,0,B|96:152|120:112,1,79.9999999999999
180,56,87975,2,0,B|220:32|260:56,1,79.9999999999999
320,108,88575,2,0,B|344:148|320:188,1,79.9999999999999
264,252,89175,2,0,B|224:276|184:252,1,79.9999999999999
120,192,89775,6,0,B|56:240|48:336,1,160,4|8,0:0|0:0,0:0:0:0:
212,296,90975,1,0,0:0:0:0:
256,368,91275,1,0,0:0:0:0:
300,296,91575,1,8,0:0:0:0:
424,232,92175,6,0,B|344:208|312:120,1,160,0|8,0:0|0:0,0:0:0:0:
256,264,93375,1,0,0:0:0:0:
198,124,93975,2,0,B|168:208|88:232,1,160,8|0,0:0|0:0,0:0:0:0:
44,312,94875,1,0,0:0:0:0:
128,312,95175,1,8,0:0:0:0:
184,376,95475,1,0,0:0:0:0:
256,208,96075,5,12,0:0:0:0:
256,208,96525,1,12,0:0:0:0:
