osu file format v5

[General]
AudioFilename: niconicodouga-nightofcommand.mp3
AudioLeadIn: 0
PreviewTime: -1
Countdown: 0
SampleSet: Normal
StackLeniency: 0.5
Mode: 0
LetterboxInBreaks: 1
EditorBookmarks: 21556,53556,85556,128223,138889,149556,160223,170889

[Metadata]
Title:Night Of Commands feat. YuGiOh
Artist:NicoNicoDouga
Creator:vytalibus
Version:B!!
Source:
Tags:

[Difficulty]
HPDrainRate:6
CircleSize:4
OverallDifficulty:5
SliderMultiplier:1
SliderTickRate:1

[Events]
//Background and Video events
0,0,"kaibajoeyyugi.png"
1,0,"____PAD_____________Night_Of_Command__NicoNico________xvid.avi"
//Break Periods
2,43089,52356
2,107589,127023
2,136089,137689
2,146923,148356
//Storyboard Layer 0 (Background)
//Storyboard Layer 1 (Failing)
//Storyboard Layer 2 (Passing)
//Storyboard Layer 3 (Foreground)
4,3,1,"vytalibus.png",236,411 M,1,21556,22223,748,411,236,410 M,0,42889,42889,236,411,236,411 F,0,42889,43223,1,0 M,1,128223,128889,746,411,236,411 F,0,128223,128223,1,1 M,0,128889,128889,236,411,236,411 F,0,130223,130556,1,0 M,1,138889,139556,746,411,236,411 F,0,138889,138889,1,1 F,0,140889,141223,1,0 M,1,160223,160889,746,411,235,411 F,0,160223,160223,1,1 F,0,170889,171223,1,0
4,3,1,"supergarlic.png",320,411 M,1,53556,54223,320,48,320,411 M,0,83223,83223,320,410,320,410 F,0,83223,83556,1,0 M,1,133556,134223,320,51,320,410 F,0,133556,133556,1,1 F,0,135889,136223,1,0 M,1,144223,144889,320,47,320,410 F,0,144223,144223,1,1 F,0,146223,146556,1,0
4,3,1,"larto.png",320,240 M,1,85556,86223,-40,409,473,411 F,0,85556,85556,1,1 M,0,106556,106556,473,411,473,411 F,0,106556,106889,1,0 M,1,130889,131556,-39,411,473,411 F,0,130889,130889,1,1 F,0,132889,133223,1,0 M,1,141556,142223,-39,410,473,410 F,0,141556,141556,1,1 F,0,143556,143889,1,0 M,1,149556,150223,-40,410,473,410 F,0,149556,149556,1,1 F,0,159889,160223,1,0
//Storyboard Sound Samples
//Background Colour Transformations
3,100,163,162,255

[TimingPoints]
10890,333.333333333333,4,1,0,100,1,0
107223,-100,4,1,0,0,0,0
107556,-100,4,1,0,100,0,0
128223,-100,4,1,0,100,0,1
146889,-100,4,1,0,100,0,0

[Colours]
Combo1 : 170,100,100
Combo2 : 0,0,255
Combo3 : 255,0,0
Combo4 : 255,255,0

[HitObjects]
152,96,21556,2,0,B|216:96,2,50,0|0|8
152,144,22056,1,8
152,192,22223,2,0,B|88:192,2,50,0|0|8
152,288,22889,2,4,B|256:288,3,100
360,288,24223,6,0,B|296:288,2,50,0|0|8
360,240,24723,1,8
360,192,24890,2,0,B|424:192,2,50,0|0|8
360,96,25556,2,4,B|256:96,3,100
256,192,26889,5,4
304,272,27223,2,0,B|192:272,1,100,8|4
208,176,27889,2,8,B|256:80,1,100,8|4
304,176,28556,2,8,B|256:80,1,100,8|4
156,248,29556,6,4,B|364:248,1,200
206,126,30889,2,4,B|326:126,1,100
229,67,31556,2,6,B|285:67,2,50
256,160,32223,5,4
304,160,32389,1,0
352,160,32556,2,0,B|352:272,1,100,8|0
352,352,33223,2,0,B|248:352,1,100,8|0
200,352,33723,1,0
152,352,33889,2,8,B|152:248,2,100
256,352,34889,5,0
256,256,35223,1,8
256,160,35556,1,0
256,160,35723,1,0
256,160,35889,1,8
307,241,36223,2,0,B|203:241,1,100
256,320,36889,2,4,B|256:248,3,50
256,224,37556,6,0,B|328:224|328:160,1,100,0|8
256,104,38223,2,0,B|184:104|184:168,1,100,0|8
256,224,38889,2,0,B|184:224|184:160,1,100,0|8
256,104,39556,2,0,B|328:104|328:168,1,100,0|8
256,192,40223,12,4,42889
192,128,53556,5,0
320,128,53889,5,8
320,256,54223,5,0
192,256,54556,5,0
224,160,54889,6,0,B|288:224,1,50,0|8
256,192,55223,2,0,B|320:256,1,50,0|8
320,256,55556,2,8,B|416:160,1,100
390,185,56223,6,0,B|288:96,1,100
314,119,56889,2,8,B|218:218,1,100
224,288,57556,5,0
160,288,57723,1,8
192,224,57889,1,8
192,224,58056,1,0
192,160,58223,1,8
320,160,58556,6,8,B|384:224|288:256,1,100
224,160,59223,2,8,B|160:224|256:256,1,100
271,344,59889,2,8,B|271:216,1,100
320,128,60556,5,4
256,128,60723,1,4
96,192,61223,5,8
224,192,61556,1,4
96,192,61889,1,8
224,192,62223,1,4
96,192,62556,1,8
160,288,62889,6,10,B|160:224,3,50
160,184,63556,6,4,B|160:80,1,100
257,85,64223,5,8
256,184,64556,1,8
160,256,64889,6,8,B|288:256,1,100
384,224,65556,2,8,B|256:224,1,100
160,192,66223,2,8,B|288:192,1,100
384,160,66889,2,8,B|256:160,1,100
224,64,67556,5,0
192,128,67723,1,0
224,192,67889,1,0
256,128,68056,1,0
320,128,68223,6,0,B|384:192,1,50,8|0
352,224,68556,2,0,B|288:288,1,50,8|0
256,256,68889,2,0,B|192:192,1,50,8|0
224,160,69223,2,0,B|288:96,1,50,8|0
288,64,69556,6,4,B|288:32,4,25
288,128,70056,6,10,B|288:192,1,50
352,224,70389,5,8
320,288,70556,1,0
256,288,70723,1,8
224,224,70889,1,0
288,224,71056,6,0,B|288:160,1,50,8|0
224,128,71389,5,8
288,96,71556,1,0
352,128,71723,1,8
384,192,71889,6,0,B|448:192,3,50,0|0|2|0
434,256,72556,6,0,B|384:256,3,50,0|0|2|0
336,256,73223,5,10
256,296,73556,5,10
176,256,73889,5,10
256,208,74223,6,0,B|256:144,1,50,2|10
256,112,74556,6,2,B|256:48,1,50,2|10
256,192,74889,12,14,75556
256,64,76223,5,8
256,192,76556,1,8
128,192,76889,6,8,B|128:64,1,100
256,128,77556,2,10,B|256:192,3,50
256,224,78223,6,4,B|128:256|288:320|160:352,1,150
160,320,78889,5,8
160,192,79223,1,8
160,64,79556,1,8
224,64,79723,1,0
288,64,79889,1,8
288,128,80056,1,0
288,192,80223,5,4
192,256,80556,6,8,B|128:256,1,50
96,256,80889,2,0,B|96:192,1,50
96,160,81223,6,8,B|96:96,1,50
144,112,81556,2,0,B|240:112,1,50
224,160,81889,5,8
224,224,82056,1,8
288,192,82223,6,10,B|352:192,4,50
256,192,83056,12,4,84723
104,160,85556,6,4,B|208:160,1,100
256,160,86056,1,8
304,160,86223,1,8
352,160,86389,1,8
432,224,86723,6,4,B|328:224,1,100
280,224,87223,1,0
232,224,87390,1,0
184,224,87556,2,4,B|112:224,3,50
152,328,88389,6,8,B|192:296,1,50
232,328,88723,2,8,B|280:288,1,50
312,328,89056,2,8,B|352:296,1,50
351,296,89389,1,12
256,192,89556,12,4,90723
96,192,91056,5,0
128,224,91223,2,0,B|160:240|184:224,2,50
128,176,91723,2,0,B|160:160|192:184,1,50
408,208,92223,5,0
408,208,92389,1,0
376,176,92556,2,0,B|344:160|320:176,2,50
376,224,93056,2,0,B|344:240|312:216,2,50
256,192,93556,12,0,94223
256,192,94306,12,0,94889
256,192,94973,12,4,95889
184,200,96389,6,0,B|144:240,2,50
184,200,96889,2,0,B|232:152,1,50
328,200,97389,6,0,B|368:240,2,50
328,200,97889,2,0,B|280:152,1,50
256,128,98223,1,4
256,128,98557,1,4
256,128,98889,6,0,B|200:96|216:32,1,100
256,128,99556,2,0,B|312:96|296:32,1,100
352,128,100223,6,0,B|384:128,2,25
312,160,100556,1,4
256,248,100889,1,4
200,160,101223,1,4
160,128,101389,2,0,B|128:128,2,25
160,80,101723,6,0,B|160:16,1,50
112,32,102056,2,0,B|64:32|64:64,2,50
352,80,102723,6,0,B|352:16,1,50
400,32,103056,2,0,B|448:32|448:64,2,50
352,32,103556,1,4
256,64,103889,1,4
160,32,104223,5,4
208,120,104556,1,4
208,120,104723,2,0,B|208:176,1,50,0|4
304,120,105223,1,4
304,120,105389,2,0,B|304:192,1,50,0|4
344,264,105889,6,0,B|296:344|208:192|160:288,2,200,0|4|0
120,192,128223,5,0
120,192,128389,1,0
120,192,128556,1,8
216,192,128889,1,0
216,192,129056,1,0
216,192,129223,1,8
312,192,129556,1,0
312,240,129723,2,0,B|200:240,1,100
216,288,130223,1,4
80,192,131056,5,0
120,224,131223,1,0
160,256,131389,1,8
352,256,131723,5,0
392,224,131889,1,0
432,192,132056,1,8
384,168,132223,6,0,B|304:104,1,100
128,168,132889,2,0,B|208:104,1,100
256,88,133389,1,2
256,160,133556,6,8,B|192:224,1,50
288,224,133889,2,0,B|352:288,1,50
256,288,134223,2,8,B|192:352,1,50
160,288,134556,5,8
160,224,134723,1,0
224,224,134889,1,8
288,224,135056,1,0
352,224,135223,1,8
352,160,135389,1,0
320,96,135556,6,10,B|224:96,1,50
192,96,135889,2,10,B|256:96,1,50
156,192,138889,6,0,B|268:192,1,100
304,192,139389,1,8
352,192,139556,1,0
352,240,139723,1,0
304,240,139889,1,0
256,240,140056,1,8
256,288,140223,2,4,B|152:288,3,100
112,192,141723,6,0,B|112:224|152:224,2,50
160,184,142223,2,0,B|160:152|192:152,1,50
400,192,142889,6,0,B|400:224|360:224,2,50
352,184,143389,2,0,B|352:152|320:152,1,50
256,80,143889,2,8,B|256:104,4,12.5
256,160,144223,6,8,B|192:160,1,50
224,224,144556,1,0
224,224,144723,1,0
256,288,144889,2,8,B|192:288,1,50
256,288,145223,6,8,B|320:288,1,50
288,224,145556,1,0
288,224,145723,1,0
256,160,145889,2,8,B|352:160,1,50
256,96,146223,5,10
192,96,146389,1,10
256,96,146556,1,10
320,96,146723,1,10
96,192,149556,6,0,B|144:216|152:168|208:208,1,100,0|8
240,192,150056,1,0
288,184,150223,2,0,B|336:208|344:160|400:200,1,100,0|8
432,184,150723,1,0
256,192,150889,12,0,151889
256,72,152223,5,0
160,112,152556,1,8
104,192,152889,1,8
104,192,153056,1,0
104,192,153223,1,8
104,192,153389,1,0
104,192,153556,6,0,B|104:256|176:248,1,100
216,248,154056,1,0
264,248,154223,2,0,B|328:248|328:168,2,100,8|0|8
256,144,155223,2,0,B|184:144|184:64,1,100
256,144,155889,2,0,B|328:144|328:224,1,100,0|0
256,272,156556,5,0
271,191,156889,2,2,B|200:192|176:144|304:144|280:80|200:80,1,200,0|0
104,96,157889,2,0,B|104:160|184:160,1,100
80,208,158556,2,0,B|80:248|112:248,1,50
144,272,158889,2,0,B|176:288|192:280,1,50
256,192,159139,12,4,159889
256,88,160223,5,0
256,88,160389,1,0
256,88,160556,2,2,B|256:200,1,100
256,188,161056,1,0
256,188,161223,1,0
256,188,161389,1,0
224,224,161556,2,4,B|256:297|288:224,3,100
336,144,162889,6,0,B|321:96|256:96,1,100
256,96,163389,1,0
255,96,163556,2,0,B|191:96|176:144,1,100
156,238,164223,5,0
156,238,164389,1,0
156,238,164556,1,0
156,238,164723,1,0
156,238,164889,2,4,B|364:238,1,200
256,192,165889,12,4,167389
256,96,168223,5,4
256,288,168889,1,4
256,96,169556,1,4
256,192,169889,1,4
256,288,170223,1,4
256,288,170389,1,4
256,288,170556,1,4
256,288,170723,1,4
256,288,170889,1,4
